  0
SECTION
  2
HEADER
  9
$ACADVER
  1
AC1015
  9
$ACADMAINTVER
 70
    20
  9
$DWGCODEPAGE
  3
ANSI_1252
  9
$INSBASE
 10
0.0
 20
0.0
 30
0.0
  9
$EXTMIN
 10
148.1847176515832
 20
77.72844925337563
 30
-0.0000000000000129
  9
$EXTMAX
 10
438.5579662307797
 20
487.7696443956663
 30
0.0000000000000023
  9
$LIMMIN
 10
0.0
 20
0.0
  9
$LIMMAX
 10
420.0
 20
297.0
  9
$ORTHOMODE
 70
     0
  9
$REGENMODE
 70
     1
  9
$FILLMODE
 70
     1
  9
$QTEXTMODE
 70
     0
  9
$MIRRTEXT
 70
     1
  9
$LTSCALE
 40
1.0
  9
$ATTMODE
 70
     1
  9
$TEXTSIZE
 40
2.5
  9
$TRACEWID
 40
1.0
  9
$TEXTSTYLE
  7
Standard
  9
$CLAYER
  8
DIMENSION
  9
$CELTYPE
  6
ByLayer
  9
$CECOLOR
 62
     0
  9
$CELTSCALE
 40
1.0
  9
$DISPSILH
 70
     0
  9
$DIMSCALE
 40
1.0
  9
$DIMASZ
 40
3.5
  9
$DIMEXO
 40
0.0
  9
$DIMDLI
 40
6.0
  9
$DIMRND
 40
0.00000001
  9
$DIMDLE
 40
10.0
  9
$DIMEXE
 40
3.174999999999999
  9
$DIMTP
 40
0.0
  9
$DIMTM
 40
0.0
  9
$DIMTXT
 40
3.5
  9
$DIMCEN
 40
0.09
  9
$DIMTSZ
 40
0.0
  9
$DIMTOL
 70
     0
  9
$DIMLIM
 70
     0
  9
$DIMTIH
 70
     0
  9
$DIMTOH
 70
     1
  9
$DIMSE1
 70
     0
  9
$DIMSE2
 70
     0
  9
$DIMTAD
 70
     1
  9
$DIMZIN
 70
     0
  9
$DIMBLK
  1

  9
$DIMASO
 70
     1
  9
$DIMSHO
 70
     1
  9
$DIMPOST
  1

  9
$DIMAPOST
  1

  9
$DIMALT
 70
     0
  9
$DIMALTD
 70
     3
  9
$DIMALTF
 40
0.03937
  9
$DIMLFAC
 40
1.0
  9
$DIMTOFL
 70
     1
  9
$DIMTVP
 40
0.0
  9
$DIMTIX
 70
     0
  9
$DIMSOXD
 70
     0
  9
$DIMSAH
 70
     0
  9
$DIMBLK1
  1

  9
$DIMBLK2
  1

  9
$DIMSTYLE
  2
DEFAULT-ISO
  9
$DIMCLRD
 70
     7
  9
$DIMCLRE
 70
     7
  9
$DIMCLRT
 70
     7
  9
$DIMTFAC
 40
1.0
  9
$DIMGAP
 40
0.762
  9
$DIMJUST
 70
     0
  9
$DIMSD1
 70
     0
  9
$DIMSD2
 70
     0
  9
$DIMTOLJ
 70
     1
  9
$DIMTZIN
 70
     0
  9
$DIMALTZ
 70
     0
  9
$DIMALTTZ
 70
     0
  9
$DIMUPT
 70
     0
  9
$DIMDEC
 70
     0
  9
$DIMTDEC
 70
     0
  9
$DIMALTU
 70
     2
  9
$DIMALTTD
 70
     3
  9
$DIMTXSTY
  7
Current-BSI
  9
$DIMAUNIT
 70
     0
  9
$DIMADEC
 70
     2
  9
$DIMALTRND
 40
0.0
  9
$DIMAZIN
 70
     0
  9
$DIMDSEP
 70
    46
  9
$DIMATFIT
 70
     3
  9
$DIMFRAC
 70
     0
  9
$DIMLDRBLK
  1

  9
$DIMLUNIT
 70
     2
  9
$DIMLWD
 70
    25
  9
$DIMLWE
 70
    25
  9
$DIMTMOVE
 70
     0
  9
$LUNITS
 70
     2
  9
$LUPREC
 70
     4
  9
$SKETCHINC
 40
1.0
  9
$FILLETRAD
 40
0.5
  9
$AUNITS
 70
     0
  9
$AUPREC
 70
     0
  9
$MENU
  1
.
  9
$ELEVATION
 40
0.0
  9
$PELEVATION
 40
0.0
  9
$THICKNESS
 40
0.0
  9
$LIMCHECK
 70
     0
  9
$CHAMFERA
 40
0.0
  9
$CHAMFERB
 40
0.0
  9
$CHAMFERC
 40
20.0
  9
$CHAMFERD
 40
0.0
  9
$SKPOLY
 70
     0
  9
$TDCREATE
 40
2451682.620146146
  9
$TDUCREATE
 40
2451682.578479479
  9
$TDUPDATE
 40
2455943.452393253
  9
$TDUUPDATE
 40
2455943.410726586
  9
$TDINDWG
 40
1.0054758218
  9
$TDUSRTIMER
 40
1.0054716551
  9
$USRTIMER
 70
     1
  9
$ANGBASE
 50
0.0
  9
$ANGDIR
 70
     0
  9
$PDMODE
 70
     0
  9
$PDSIZE
 40
0.0
  9
$PLINEWID
 40
0.0
  9
$SPLFRAME
 70
     0
  9
$SPLINETYPE
 70
     6
  9
$SPLINESEGS
 70
     8
  9
$HANDSEED
  5
D2D1
  9
$SURFTAB1
 70
     6
  9
$SURFTAB2
 70
     6
  9
$SURFTYPE
 70
     6
  9
$SURFU
 70
     6
  9
$SURFV
 70
     6
  9
$UCSBASE
  2

  9
$UCSNAME
  2

  9
$UCSORG
 10
0.0
 20
0.0
 30
0.0
  9
$UCSXDIR
 10
1.0
 20
0.0
 30
0.0
  9
$UCSYDIR
 10
0.0
 20
1.0
 30
0.0
  9
$UCSORTHOREF
  2

  9
$UCSORTHOVIEW
 70
     0
  9
$UCSORGTOP
 10
0.0
 20
0.0
 30
0.0
  9
$UCSORGBOTTOM
 10
0.0
 20
0.0
 30
0.0
  9
$UCSORGLEFT
 10
0.0
 20
0.0
 30
0.0
  9
$UCSORGRIGHT
 10
0.0
 20
0.0
 30
0.0
  9
$UCSORGFRONT
 10
0.0
 20
0.0
 30
0.0
  9
$UCSORGBACK
 10
0.0
 20
0.0
 30
0.0
  9
$PUCSBASE
  2

  9
$PUCSNAME
  2

  9
$PUCSORG
 10
0.0
 20
0.0
 30
0.0
  9
$PUCSXDIR
 10
1.0
 20
0.0
 30
0.0
  9
$PUCSYDIR
 10
0.0
 20
1.0
 30
0.0
  9
$PUCSORTHOREF
  2

  9
$PUCSORTHOVIEW
 70
     0
  9
$PUCSORGTOP
 10
0.0
 20
0.0
 30
0.0
  9
$PUCSORGBOTTOM
 10
0.0
 20
0.0
 30
0.0
  9
$PUCSORGLEFT
 10
0.0
 20
0.0
 30
0.0
  9
$PUCSORGRIGHT
 10
0.0
 20
0.0
 30
0.0
  9
$PUCSORGFRONT
 10
0.0
 20
0.0
 30
0.0
  9
$PUCSORGBACK
 10
0.0
 20
0.0
 30
0.0
  9
$USERI1
 70
     0
  9
$USERI2
 70
     0
  9
$USERI3
 70
     0
  9
$USERI4
 70
     0
  9
$USERI5
 70
     0
  9
$USERR1
 40
0.0
  9
$USERR2
 40
0.0
  9
$USERR3
 40
0.0
  9
$USERR4
 40
0.0
  9
$USERR5
 40
0.0
  9
$WORLDVIEW
 70
     1
  9
$SHADEDGE
 70
     3
  9
$SHADEDIF
 70
    70
  9
$TILEMODE
 70
     1
  9
$MAXACTVP
 70
    64
  9
$PINSBASE
 10
0.0
 20
0.0
 30
0.0
  9
$PLIMCHECK
 70
     0
  9
$PEXTMIN
 10
1.000000000000000E+20
 20
1.000000000000000E+20
 30
1.000000000000000E+20
  9
$PEXTMAX
 10
-1.000000000000000E+20
 20
-1.000000000000000E+20
 30
-1.000000000000000E+20
  9
$PLIMMIN
 10
0.0
 20
0.0
  9
$PLIMMAX
 10
420.0
 20
297.0
  9
$UNITMODE
 70
     0
  9
$VISRETAIN
 70
     1
  9
$PLINEGEN
 70
     0
  9
$PSLTSCALE
 70
     1
  9
$TREEDEPTH
 70
  3020
  9
$CMLSTYLE
  2
Standard
  9
$CMLJUST
 70
     0
  9
$CMLSCALE
 40
20.0
  9
$PROXYGRAPHICS
 70
     1
  9
$MEASUREMENT
 70
     1
  9
$CELWEIGHT
370
    -1
  9
$ENDCAPS
280
     0
  9
$JOINSTYLE
280
     0
  9
$LWDISPLAY
290
     1
  9
$INSUNITS
 70
     4
  9
$HYPERLINKBASE
  1

  9
$STYLESHEET
  1

  9
$XEDIT
290
     1
  9
$CEPSNTYPE
380
     0
  9
$PSTYLEMODE
290
     1
  9
$FINGERPRINTGUID
  2
{42F63A57-2BC6-11D4-B81C-00B0D0305422}
  9
$VERSIONGUID
  2
{D8B302A0-868D-45E8-81A8-007B57C543E2}
  9
$EXTNAMES
290
     1
  9
$PSVPSCALE
 40
0.0
  9
$OLESTARTUP
290
     0
  0
ENDSEC
  0
SECTION
  2
CLASSES
  0
CLASS
  1
ACDBDICTIONARYWDFLT
  2
AcDbDictionaryWithDefault
  3
ObjectDBX Classes
 90
        0
280
     0
281
     0
  0
CLASS
  1
ACDBPLACEHOLDER
  2
AcDbPlaceHolder
  3
ObjectDBX Classes
 90
        0
280
     0
281
     0
  0
CLASS
  1
LAYOUT
  2
AcDbLayout
  3
ObjectDBX Classes
 90
        0
280
     0
281
     0
  0
CLASS
  1
DICTIONARYVAR
  2
AcDbDictionaryVar
  3
ObjectDBX Classes
 90
        0
280
     0
281
     0
  0
CLASS
  1
SORTENTSTABLE
  2
AcDbSortentsTable
  3
ObjectDBX Classes
 90
        0
280
     0
281
     0
  0
CLASS
  1
LAYER_INDEX
  2
AcDbLayerIndex
  3
ObjectDBX Classes
 90
        0
280
     0
281
     0
  0
CLASS
  1
SPATIAL_INDEX
  2
AcDbSpatialIndex
  3
ObjectDBX Classes
 90
        0
280
     0
281
     0
  0
CLASS
  1
IDBUFFER
  2
AcDbIdBuffer
  3
ObjectDBX Classes
 90
        0
280
     0
281
     0
  0
CLASS
  1
TABLESTYLE
  2
AcDbTableStyle
  3
ObjectDBX Classes
 90
     4095
280
     0
281
     0
  0
CLASS
  1
EXACXREFPANELOBJECT
  2
ExAcXREFPanelObject
  3
EXAC_ESW
 90
     1025
280
     0
281
     0
  0
CLASS
  1
MATERIAL
  2
AcDbMaterial
  3
ObjectDBX Classes
 90
     1153
280
     0
281
     0
  0
CLASS
  1
VISUALSTYLE
  2
AcDbVisualStyle
  3
ObjectDBX Classes
 90
     4095
280
     0
281
     0
  0
CLASS
  1
SCALE
  2
AcDbScale
  3
ObjectDBX Classes
 90
     1153
280
     0
281
     0
  0
CLASS
  1
MLEADERSTYLE
  2
AcDbMLeaderStyle
  3
ACDB_MLEADERSTYLE_CLASS
 90
     4095
280
     0
281
     0
  0
CLASS
  1
NPOCOLLECTION
  2
AcDbImpNonPersistentObjectsCollection
  3
ObjectDBX Classes
 90
     1153
280
     0
281
     0
  0
CLASS
  1
CELLSTYLEMAP
  2
AcDbCellStyleMap
  3
ObjectDBX Classes
 90
     1152
280
     0
281
     0
  0
CLASS
  1
ACME_DOCUMENT
  2
AcMeDbDoc
  3
AcMeServices
 90
     1024
280
     0
281
     0
  0
CLASS
  1
AMGSETTINGSOBJ
  2
AmgSettingsObj
  3
"AcadM|Product Description: AutoCAD Mechanical|Company: Autodesk, Inc."
 90
     1024
280
     0
281
     0
  0
CLASS
  1
ACMESCOPE
  2
AcMeScope
  3
AcMeServices
 90
     1024
280
     0
281
     0
  0
CLASS
  1
ACMECOMMANDHISTORY
  2
AcMeCommandHistory
  3
AcMeServices
 90
     1024
280
     0
281
     0
  0
CLASS
  1
ACIMSYSVARMAN
  2
AcImSysVarManager
  3
AcMeServices
 90
     1024
280
     0
281
     0
  0
CLASS
  1
ACIMINTSYSVAR
  2
AcImIntSysVar
  3
AcMeServices
 90
     1024
280
     0
281
     0
  0
CLASS
  1
ACMESTATEMGR
  2
AcMeStateMgr
  3
AcMeServices
 90
     1024
280
     0
281
     0
  0
CLASS
  1
ACDBENTITYCACHE
  2
AcMeEntityCache
  3
AcMeServices
 90
     1024
280
     0
281
     0
  0
CLASS
  1
ACGREFMASTER
  2
AcGrefMaster
  3
AcAttribServices
 90
     1024
280
     0
281
     0
  0
CLASS
  1
ACME_DATABASE
  2
AcMeDbDatabase
  3
AcMeServices
 90
     1024
280
     0
281
     0
  0
CLASS
  1
ACRFINSADJUSTERMGR
  2
AcRfInsAdjusterMgr
  3
AcMeServices
 90
     1024
280
     0
281
     0
  0
CLASS
  1
ACGREFACADMASTER
  2
AcGrefacadMaster
  3
AcGrefServices
 90
     1024
280
     0
281
     0
  0
CLASS
  1
AMDTMENUSTATEMGR
  2
AmdtMenuStateMgr
  3
McadcomServices
 90
     1024
280
     0
281
     0
  0
CLASS
  1
AMDTMCOMMENUSTATE
  2
AmdtMcomMenuState
  3
McadcomServices
 90
     1024
280
     0
281
     0
  0
CLASS
  1
AMIMASTER
  2
AmiMaster
  3
AmiServices
 90
     1024
280
     0
281
     0
  0
CLASS
  1
MAPIAMMOUDLE
  2
MApiAmModule
  3
MApiAmServices
 90
     1024
280
     0
281
     0
  0
CLASS
  1
ACIMSTRSYSVAR
  2
AcImStrSysVar
  3
AcMeServices
 90
     1024
280
     0
281
     0
  0
CLASS
  1
AMDTAMMENUSTATE
  2
AmdtAmMenuState
  3
DesignerAssemblies
 90
     1024
280
     0
281
     0
  0
CLASS
  1
ACAMPROJECT
  2
AcAmProject
  3
DesignerAssemblies
 90
     1024
280
     0
281
     0
  0
CLASS
  1
ACAMGRCOMPDEF
  2
AcAmGrCompDef
  3
DesignerAssemblies
 90
     1024
280
     0
281
     0
  0
CLASS
  1
ACAMCOMPDEF
  2
AcAmCompDef
  3
DesignerAssemblies
 90
     1024
280
     0
281
     0
  0
CLASS
  1
ACAMCOMPDEFMGR
  2
AcAmCompDefMgr
  3
DesignerAssemblies
 90
     1024
280
     0
281
     0
  0
CLASS
  1
AMCONTEXTMGR
  2
AcAmContextMgr
  3
DesignerAssemblies
 90
     1024
280
     0
281
     0
  0
CLASS
  1
ACAMCONTEXTMODELER
  2
AcAmContextModeler
  3
DesignerAssemblies
 90
     1024
280
     0
281
     0
  0
CLASS
  1
ACMDATADICTIONARY
  2
AcmDataDictionary
  3
"AcmSymBB|Product Description: AutoCAD Mechanical|Company: Autodesk, Inc."
 90
     1024
280
     0
281
     0
  0
CLASS
  1
ACAMGRCOMPDEFSET
  2
AcAmGrCompDefSet
  3
DesignerAssemblies
 90
     1024
280
     0
281
     0
  0
CLASS
  1
AMDTBROWSERDBTAB
  2
AmdtBrowserDbTab
  3
McadcomServices
 90
     1024
280
     0
281
     0
  0
CLASS
  1
CBROWSERAPPOBJECT
  2
CBrowserAppObject
  3
McadcomServices
 90
     1024
280
     0
281
     0
  0
CLASS
  1
DM_PLACEHOLDER
  2
AcDmSelsetPlaceholder
  3
McadcomServices
 90
     1024
280
     0
281
     0
  0
CLASS
  1
ACMSTANDARDISO
  2
AcmStandardISO
  3
"Amdt_StdImp|Product Description: AutoCAD Mechanical|Company: Autodesk, Inc."
 90
     1024
280
     0
281
     0
  0
CLASS
  1
AMDTEDGESTANDARDISO13715
  2
AmdtEdgeStdISO13715
  3
"Amdt_StdImp|Product Description: AutoCAD Mechanical|Company: Autodesk, Inc."
 90
     1024
280
     0
281
     0
  0
CLASS
  1
ACMSURFSTANDARDISO2002
  2
AcmSurfTextStdISO2002
  3
"Amdt_StdImp|Product Description: AutoCAD Mechanical|Company: Autodesk, Inc."
 90
     1024
280
     0
281
     0
  0
CLASS
  1
ACMFCFSTANDARDISO2004
  2
AcmFCFStdISO2004
  3
"Amdt_StdImp|Product Description: AutoCAD Mechanical|Company: Autodesk, Inc."
 90
     1024
280
     0
281
     0
  0
CLASS
  1
ACMWELDSTANDARDISO
  2
AcmWeldingStdISO
  3
"Amdt_StdImp|Product Description: AutoCAD Mechanical|Company: Autodesk, Inc."
 90
     1024
280
     0
281
     0
  0
CLASS
  1
ACMIDSTANDARDISO2004
  2
AcmIdStdISO2004
  3
"Amdt_StdImp|Product Description: AutoCAD Mechanical|Company: Autodesk, Inc."
 90
     1024
280
     0
281
     0
  0
CLASS
  1
ACMDATUMSTANDARDISO
  2
AcmDatumStdISO
  3
"Amdt_StdImp|Product Description: AutoCAD Mechanical|Company: Autodesk, Inc."
 90
     1024
280
     0
281
     0
  0
CLASS
  1
ACMBOMSTANDARDISO
  2
AcmBOMStdISO
  3
"Amdt_StdImp|Product Description: AutoCAD Mechanical|Company: Autodesk, Inc."
 90
     1024
280
     0
281
     0
  0
CLASS
  1
ACMDETAILSTANDARDISO
  2
AmdtDetailSymStdISO
  3
"Amdt_StdImp|Product Description: AutoCAD Mechanical|Company: Autodesk, Inc."
 90
     1024
280
     0
281
     0
  0
CLASS
  1
ACMSECTIONSTANDARDISO2001
  2
AmdtSectionSymStdISO2001
  3
"Amdt_StdImp|Product Description: AutoCAD Mechanical|Company: Autodesk, Inc."
 90
     1024
280
     0
281
     0
  0
CLASS
  1
ACMCENTERLINESTANDARDISO
  2
AmdtCenterLineStdISO
  3
"Amdt_StdImp|Product Description: AutoCAD Mechanical|Company: Autodesk, Inc."
 90
     1024
280
     0
281
     0
  0
CLASS
  1
ACMTHREADLINESTANDARDISO
  2
AmdtThreadLineStdISO
  3
"Amdt_StdImp|Product Description: AutoCAD Mechanical|Company: Autodesk, Inc."
 90
     1024
280
     0
281
     0
  0
CLASS
  1
ACMNOTESTANDARDISO
  2
AmdtNoteStdISO
  3
"Amdt_StdImp|Product Description: AutoCAD Mechanical|Company: Autodesk, Inc."
 90
     1024
280
     0
281
     0
  0
CLASS
  1
ACMTAPERSTANDARDISO
  2
AcmTaperStdISO
  3
"Amdt_StdImp|Product Description: AutoCAD Mechanical|Company: Autodesk, Inc."
 90
     1024
280
     0
281
     0
  0
CLASS
  1
ACMANOOTATIONVIEWSTANDARDISO
  2
AmdtAnViewStdISO
  3
"Amdt_StdImp|Product Description: AutoCAD Mechanical|Company: Autodesk, Inc."
 90
     1024
280
     0
281
     0
  0
CLASS
  1
ACAMGLAYSTD
  2
AcAmgLayStd
  3
"AmgLay|Product Description: AutoCAD Mechanical|Company: Autodesk, Inc."
 90
     1024
280
     0
281
     0
  0
CLASS
  1
ACAMGDIMSTD
  2
AcAmgDimStd
  3
"AmgDim|Product Description: AutoCAD Mechanical|Company: Autodesk, Inc."
 90
     1024
280
     0
281
     0
  0
CLASS
  1
AMGOBJPROPCFG
  2
AmgObjPropCfg
  3
"AmgLay|Product Description: AutoCAD Mechanical|Company: Autodesk, Inc."
 90
     1025
280
     0
281
     0
  0
CLASS
  1
ACAMGHOLECHARTSTDISO
  2
AcAmgHoleChartStdISO
  3
AmgDim|Product Description: AutoCAD Mechanical|Company: Autodesk, Inc.
 90
     1024
280
     0
281
     0
  0
CLASS
  1
ACAMGTITLESTD
  2
AcAmgTitleStd
  3
"AmgTitle|Product Description: AutoCAD Mechanical|Company: Autodesk, Inc."
 90
     4095
280
     0
281
     0
  0
CLASS
  1
AMDTNOTETEMPLATEDB
  2
AmdtNoteTemplateDB
  3
AcmSymBB|Product Description: AutoCAD Mechanical|Company: Autodesk, Inc.
 90
     1024
280
     0
281
     0
  0
CLASS
  1
ACAMGFILTERDAT
  2
AcAmgFilterDat
  3
"AcadM|Product Description: AutoCAD Mechanical|Company: Autodesk, Inc."
 90
     1024
280
     0
281
     0
  0
CLASS
  1
PLOTSETTINGS
  2
AcDbPlotSettings
  3
ObjectDBX Classes
 90
        0
280
     0
281
     0
  0
ENDSEC
  0
SECTION
  2
TABLES
  0
TABLE
  2
VPORT
  5
8
102
{ACAD_XDICTIONARY
360
D0B8
102
}
330
0
100
AcDbSymbolTable
 70
     1
  0
VPORT
  5
D051
330
8
100
AcDbSymbolTableRecord
100
AcDbViewportTableRecord
  2
*Active
 70
     0
 10
0.0
 20
0.0
 11
1.0
 21
1.0
 12
293.3713419411816
 22
282.749046824521
 13
0.0
 23
0.0
 14
10.0
 24
10.0
 15
10.0
 25
10.0
 16
0.0
 26
0.0
 36
1.0
 17
0.0
 27
0.0
 37
0.0
 40
413.1050147822081
 41
2.367830423940149
 42
50.0
 43
0.0
 44
0.0
 50
0.0
 51
0.0
 71
     0
 72
   100
 73
     1
 74
     2
 75
     0
 76
     0
 77
     0
 78
     0
281
     0
 65
     1
110
0.0
120
0.0
130
0.0
111
1.0
121
0.0
131
0.0
112
0.0
122
1.0
132
0.0
 79
     0
146
0.0
1001
ACAD_NAV_VCDISPLAY
1070
     3
  0
ENDTAB
  0
TABLE
  2
LTYPE
  5
5
330
0
100
AcDbSymbolTable
 70
    18
  0
LTYPE
  5
14
330
5
100
AcDbSymbolTableRecord
100
AcDbLinetypeTableRecord
  2
ByBlock
 70
     0
  3

 72
    65
 73
     0
 40
0.0
  0
LTYPE
  5
15
330
5
100
AcDbSymbolTableRecord
100
AcDbLinetypeTableRecord
  2
ByLayer
 70
     0
  3

 72
    65
 73
     0
 40
0.0
  0
LTYPE
  5
16
330
5
100
AcDbSymbolTableRecord
100
AcDbLinetypeTableRecord
  2
Continuous
 70
     0
  3
Solid line
 72
    65
 73
     0
 40
0.0
  0
LTYPE
  5
32
330
5
100
AcDbSymbolTableRecord
100
AcDbLinetypeTableRecord
  2
CENTER
 70
     0
  3
Center ____ _ ____ _ ____ _ ____ _ ____ _ ____
 72
    65
 73
     4
 40
50.8
 49
31.75
 74
     0
 49
-6.349999999999999
 74
     0
 49
6.349999999999999
 74
     0
 49
-6.349999999999999
 74
     0
  0
LTYPE
  5
E80
330
5
100
AcDbSymbolTableRecord
100
AcDbLinetypeTableRecord
  2
HIDDEN2
 70
     0
  3
Hidden (.5x) _ _ _ _ _ _ _ _ _ _ _ _ _ _ _ _ _
 72
    65
 73
     2
 40
4.762499999999999
 49
3.174999999999999
 74
     0
 49
-1.587499999999999
 74
     0
  0
LTYPE
  5
D10A
330
5
100
AcDbSymbolTableRecord
100
AcDbLinetypeTableRecord
  2
HIDDEN
 70
     0
  3
Hidden __ __ __ __ __ __ __ __ __ __ __ __ __ _
 72
    65
 73
     2
 40
9.524999999999998
 49
6.349999999999999
 74
     0
 49
-3.174999999999999
 74
     0
  0
LTYPE
  5
D10B
330
5
100
AcDbSymbolTableRecord
100
AcDbLinetypeTableRecord
  2
PHANTOM2
 70
     0
  3
Phantom (.5x) ___ _ _ ___ _ _ ___ _ _ ___ _ _
 72
    65
 73
     6
 40
31.75
 49
15.875
 74
     0
 49
-3.174999999999999
 74
     0
 49
3.174999999999999
 74
     0
 49
-3.174999999999999
 74
     0
 49
3.174999999999999
 74
     0
 49
-3.174999999999999
 74
     0
  0
LTYPE
  5
D132
330
5
100
AcDbSymbolTableRecord
100
AcDbLinetypeTableRecord
  2
DASHED
 70
     0
  3
Dashed __ __ __ __ __ __ __ __ __ __ __ __ __ _
 72
    65
 73
     2
 40
0.75
 49
0.5
 74
     0
 49
-0.25
 74
     0
  0
LTYPE
  5
D133
330
5
100
AcDbSymbolTableRecord
100
AcDbLinetypeTableRecord
  2
DOT
 70
     0
  3
Dot . . . . . . . . . . . . . . . . . . . . . .
 72
    65
 73
     2
 40
0.25
 49
0.0
 74
     0
 49
-0.25
 74
     0
  0
LTYPE
  5
D14A
330
5
100
AcDbSymbolTableRecord
100
AcDbLinetypeTableRecord
  2
AM_ISO02W050
 70
     0
  3
__ __ __ __ __ __ __ __ __ __ __ __ __ __ __
 72
    65
 73
     2
 40
7.5
 49
6.0
 74
     0
 49
-1.5
 74
     0
  0
LTYPE
  5
D14B
330
5
100
AcDbSymbolTableRecord
100
AcDbLinetypeTableRecord
  2
AM_ISO08W050
 70
     0
  3
____ . ____ . ____ . ____ . ____ . ____ . ____
 72
    65
 73
     4
 40
18.0
 49
12.0
 74
     0
 49
-1.5
 74
     0
 49
3.0
 74
     0
 49
-1.5
 74
     0
  0
LTYPE
  5
D14C
330
5
100
AcDbSymbolTableRecord
100
AcDbLinetypeTableRecord
  2
AM_ISO09W050
 70
     0
  3
_____ . . _____ . . _____ . . ____ .. ____
 72
    65
 73
     6
 40
22.5
 49
12.0
 74
     0
 49
-1.5
 74
     0
 49
3.0
 74
     0
 49
-1.5
 74
     0
 49
3.0
 74
     0
 49
-1.5
 74
     0
  0
LTYPE
  5
D14D
330
5
100
AcDbSymbolTableRecord
100
AcDbLinetypeTableRecord
  2
Amconstr
 70
     0
  3
_______________________
 72
    65
 73
     2
 40
9999.0
 49
9999.0
 74
     0
 49
0.0
 74
     0
  0
LTYPE
  5
D14E
330
5
100
AcDbSymbolTableRecord
100
AcDbLinetypeTableRecord
  2
AM_ISO08W050x2
 70
     0
  3
__ . __ . __ . __ . __ . __
 72
    65
 73
     4
 40
9.0
 49
6.0
 74
     0
 49
-0.75
 74
     0
 49
1.5
 74
     0
 49
-0.75
 74
     0
  0
LTYPE
  5
D14F
330
5
100
AcDbSymbolTableRecord
100
AcDbLinetypeTableRecord
  2
AM_ISO02W050x2
 70
     0
  3
 _ _ _ _ _ _ _ _ _ _ _ _
 72
    65
 73
     2
 40
3.75
 49
3.0
 74
     0
 49
-0.75
 74
     0
  0
LTYPE
  5
D152
330
5
100
AcDbSymbolTableRecord
100
AcDbLinetypeTableRecord
  2
Amzigzag
 70
     0
  3
/\/-/\/-/\/-/\/-/\/-/\/
 72
    65
 73
     2
 40
11.0001
 49
0.0001
 74
     4
 75
   136
340
D151
 46
0.04
 50
0.0
 44
0.0
 45
0.0
 49
-11.0
 74
     0
  0
LTYPE
  5
D161
330
5
100
AcDbSymbolTableRecord
100
AcDbLinetypeTableRecord
  2
ACISOWELD
 70
     0
  3
_ _ _ _ _
 72
    65
 73
     2
 40
2.0
 49
2.0
 74
     0
 49
-1.0
 74
     0
  0
LTYPE
  5
D162
330
5
100
AcDbSymbolTableRecord
100
AcDbLinetypeTableRecord
  2
ACISOTGL
 70
     0
  3
_ _ _ _ _
 72
    65
 73
     2
 40
3.0
 49
2.0
 74
     0
 49
-1.0
 74
     0
  0
LTYPE
  5
D163
330
5
100
AcDbSymbolTableRecord
100
AcDbLinetypeTableRecord
  2
ACISOTGB
 70
     0
  3
__ . . __ . .
 72
    65
 73
     6
 40
9.0
 49
4.0
 74
     0
 49
-1.0
 74
     0
 49
1.0
 74
     0
 49
-1.0
 74
     0
 49
1.0
 74
     0
 49
-1.0
 74
     0
  0
ENDTAB
  0
TABLE
  2
LAYER
  5
2
102
{ACAD_XDICTIONARY
360
A769
102
}
330
0
100
AcDbSymbolTable
 70
    11
  0
LAYER
  5
10
102
{ACAD_XDICTIONARY
360
D0A0
102
}
330
2
100
AcDbSymbolTableRecord
100
AcDbLayerTableRecord
  2
0
 70
     0
 62
     7
  6
Continuous
370
     0
390
F
  0
LAYER
  5
A1
330
2
100
AcDbSymbolTableRecord
100
AcDbLayerTableRecord
  2
Defpoints
 70
     0
 62
     7
  6
Continuous
290
     0
370
     0
390
F
  0
LAYER
  5
E85
102
{ACAD_XDICTIONARY
360
D0A2
102
}
330
2
100
AcDbSymbolTableRecord
100
AcDbLayerTableRecord
  2
Hidden
 70
     0
 62
     3
  6
HIDDEN2
370
     0
390
F
  0
LAYER
  5
E95
102
{ACAD_XDICTIONARY
360
D0A4
102
}
330
2
100
AcDbSymbolTableRecord
100
AcDbLayerTableRecord
  2
DIMENSION
 70
     0
 62
     1
  6
Continuous
370
     0
390
F
  0
LAYER
  5
8B01
102
{ACAD_XDICTIONARY
360
D0A6
102
}
330
2
100
AcDbSymbolTableRecord
100
AcDbLayerTableRecord
  2
TITLE
 70
     0
 62
     5
  6
Continuous
370
     0
390
F
  0
LAYER
  5
8B03
102
{ACAD_XDICTIONARY
360
D0A8
102
}
330
2
100
AcDbSymbolTableRecord
100
AcDbLayerTableRecord
  2
TEXT
 70
     0
 62
     6
  6
Continuous
370
     0
390
F
  0
LAYER
  5
8B04
102
{ACAD_XDICTIONARY
360
D0AA
102
}
330
2
100
AcDbSymbolTableRecord
100
AcDbLayerTableRecord
  2
CENTER
 70
     0
 62
     1
  6
CENTER
370
     0
390
F
  0
LAYER
  5
A761
102
{ACAD_XDICTIONARY
360
D0AC
102
}
330
2
100
AcDbSymbolTableRecord
100
AcDbLayerTableRecord
  2
COMPONENT
 70
     0
 62
     7
  6
Continuous
370
     0
390
F
  0
LAYER
  5
BE7C
102
{ACAD_XDICTIONARY
360
D0AE
102
}
330
2
100
AcDbSymbolTableRecord
100
AcDbLayerTableRecord
  2
Visible Edges(ISO)
 70
     0
 62
     7
  6
Continuous
370
     0
390
F
  0
LAYER
  5
C958
102
{ACAD_XDICTIONARY
360
D0B0
102
}
330
2
100
AcDbSymbolTableRecord
100
AcDbLayerTableRecord
  2
Hidden Edges(ISO)
 70
     0
 62
     7
  6
Continuous
370
     0
390
F
  0
ENDTAB
  0
TABLE
  2
STYLE
  5
3
330
0
100
AcDbSymbolTable
 70
     8
  0
STYLE
  5
11
330
3
100
AcDbSymbolTableRecord
100
AcDbTextStyleTableRecord
  2
Standard
 70
     0
 40
0.0
 41
1.0
 50
0.0
 71
     0
 42
2.5
  3
txt
  4

  0
STYLE
  5
E9C
330
3
100
AcDbSymbolTableRecord
100
AcDbTextStyleTableRecord
  2
ROMANS
 70
     0
 40
5.0
 41
1.0
 50
0.0
 71
     0
 42
5.0
  3
romans
  4

  0
STYLE
  5
1135
330
3
100
AcDbSymbolTableRecord
100
AcDbTextStyleTableRecord
  2
TEXTSTYLE_1
 70
     0
 40
0.0
 41
0.9
 50
0.0
 71
     0
 42
0.2
  3
txt
  4

  0
STYLE
  5
8B05
330
3
100
AcDbSymbolTableRecord
100
AcDbTextStyleTableRecord
  2
PANROMAN
 70
     0
 40
6.0
 41
1.0
 50
0.0
 71
     0
 42
6.0
  3
PAR_____.pfb
  4

  0
STYLE
  5
A762
330
3
100
AcDbSymbolTableRecord
100
AcDbTextStyleTableRecord
  2
Current-BSI
 70
     0
 40
0.0
 41
1.0
 50
0.0
 71
     0
 42
0.2
  3
ARIAL.TTF
  4

1001
ACAD
1000
Arial
1071
      256
  0
STYLE
  5
D151
330
3
100
AcDbSymbolTableRecord
100
AcDbTextStyleTableRecord
  2

 70
     1
 40
0.0
 41
1.0
 50
0.0
 71
     0
 42
2.5
  3
genltshp.shx
  4

  0
STYLE
  5
D15F
330
3
100
AcDbSymbolTableRecord
100
AcDbTextStyleTableRecord
  2
ACISOTS
 70
     0
 40
1.0
 41
1.0
 50
0.0
 71
     0
 42
2.5
  3
isocp.shx
  4

  0
STYLE
  5
D160
330
3
100
AcDbSymbolTableRecord
100
AcDbTextStyleTableRecord
  2
ACISOGDT
 70
     0
 40
0.0
 41
1.0
 50
0.0
 71
     0
 42
2.5
  3
amgdt.shx
  4

  0
ENDTAB
  0
TABLE
  2
VIEW
  5
6
330
0
100
AcDbSymbolTable
 70
     0
  0
ENDTAB
  0
TABLE
  2
UCS
  5
7
330
0
100
AcDbSymbolTable
 70
     0
  0
ENDTAB
  0
TABLE
  2
APPID
  5
9
330
0
100
AcDbSymbolTable
 70
    22
  0
APPID
  5
12
330
9
100
AcDbSymbolTableRecord
100
AcDbRegAppTableRecord
  2
ACAD
 70
     0
  0
APPID
  5
8B0A
330
9
100
AcDbSymbolTableRecord
100
AcDbRegAppTableRecord
  2
CONTENTTABDATA
 70
     0
  0
APPID
  5
8B0B
330
9
100
AcDbSymbolTableRecord
100
AcDbRegAppTableRecord
  2
CONTENTCURRENTTAB
 70
     0
  0
APPID
  5
8B0C
330
9
100
AcDbSymbolTableRecord
100
AcDbRegAppTableRecord
  2
CONTENTBLOCKDESCRIPTION
 70
     0
  0
APPID
  5
90C8
330
9
100
AcDbSymbolTableRecord
100
AcDbRegAppTableRecord
  2
ACAD_EXEMPT_FROM_CAD_STANDARDS
 70
     0
  0
APPID
  5
A764
330
9
100
AcDbSymbolTableRecord
100
AcDbRegAppTableRecord
  2
ACAD_PSEXT
 70
     0
  0
APPID
  5
A765
330
9
100
AcDbSymbolTableRecord
100
AcDbRegAppTableRecord
  2
ACAD_DSTYLE_DIMEXT_LENGTH
 70
     0
  0
APPID
  5
A766
330
9
100
AcDbSymbolTableRecord
100
AcDbRegAppTableRecord
  2
ACAD_DSTYLE_DIMEXT_ENABLED
 70
     0
  0
APPID
  5
A767
330
9
100
AcDbSymbolTableRecord
100
AcDbRegAppTableRecord
  2
ACAD_DSTYLE_DIMJOGGED_JOGANGLE_SYMBOL
 70
     0
  0
APPID
  5
A768
330
9
100
AcDbSymbolTableRecord
100
AcDbRegAppTableRecord
  2
ACAD_DSTYLE_DIMARC_LENGTH_SYMBOL
 70
     0
  0
APPID
  5
CAC6
330
9
100
AcDbSymbolTableRecord
100
AcDbRegAppTableRecord
  2
ACAD_DSTYLE_DIMTEXT_FILL
 70
     0
  0
APPID
  5
CAC9
330
9
100
AcDbSymbolTableRecord
100
AcDbRegAppTableRecord
  2
ACAD_DSTYLE_DIM_LINETYPE
 70
     0
  0
APPID
  5
CACA
330
9
100
AcDbSymbolTableRecord
100
AcDbRegAppTableRecord
  2
ACAD_DSTYLE_DIM_EXT1_LINETYPE
 70
     0
  0
APPID
  5
CACB
330
9
100
AcDbSymbolTableRecord
100
AcDbRegAppTableRecord
  2
ACAD_DSTYLE_DIM_EXT2_LINETYPE
 70
     0
  0
APPID
  5
D0EA
330
9
100
AcDbSymbolTableRecord
100
AcDbRegAppTableRecord
  2
ACAD_MLEADERVER
 70
     0
  0
APPID
  5
D103
330
9
100
AcDbSymbolTableRecord
100
AcDbRegAppTableRecord
  2
MCAD_NO_VIS
 70
     0
  0
APPID
  5
D104
330
9
100
AcDbSymbolTableRecord
100
AcDbRegAppTableRecord
  2
ACAD_TEMP_GRAPHIC
 70
     0
  0
APPID
  5
D110
330
9
100
AcDbSymbolTableRecord
100
AcDbRegAppTableRecord
  2
ACATTRIBSERVICES
 70
     0
  0
APPID
  5
D128
330
9
100
AcDbSymbolTableRecord
100
AcDbRegAppTableRecord
  2
DESIGNERASSEMBLIES
 70
     0
  0
APPID
  5
D147
330
9
100
AcDbSymbolTableRecord
100
AcDbRegAppTableRecord
  2
ACAD_DSTYLE_DIMJAG
 70
     0
  0
APPID
  5
D148
330
9
100
AcDbSymbolTableRecord
100
AcDbRegAppTableRecord
  2
ACAD_DSTYLE_DIMBREAK
 70
     0
  0
APPID
  5
D16A
330
9
100
AcDbSymbolTableRecord
100
AcDbRegAppTableRecord
  2
ACAD_NAV_VCDISPLAY
 70
     0
  0
ENDTAB
  0
TABLE
  2
DIMSTYLE
  5
A
330
0
100
AcDbSymbolTable
 70
     9
100
AcDbDimStyleTable
 71
     1
340
A763
  0
DIMSTYLE
105
E9E
330
A
100
AcDbSymbolTableRecord
100
AcDbDimStyleTableRecord
  2
STANDARD
 70
     0
 40
0.0
 41
3.0
 42
0.0
 43
0.0
 44
1.0
 45
1.0
 46
1.25
 73
     0
 74
     0
 77
     1
140
60.0
141
-3.0
143
0.039
146
0.0166666666666667
147
0.0
172
     1
174
     1
279
     2
284
     8
285
     8
286
     8
340
11
  0
DIMSTYLE
105
A763
102
{ACAD_REACTORS
330
CF66
330
CF67
330
CF68
330
CF69
330
CFE8
330
CFF5
102
}
330
A
100
AcDbSymbolTableRecord
100
AcDbDimStyleTableRecord
  2
DEFAULT-ISO
 70
     0
 41
3.5
 42
0.0
 43
6.0
 44
3.174999999999999
 45
0.00000001
 46
10.0
 73
     0
 77
     1
140
3.5
143
0.03937
147
0.762
171
     3
172
     1
176
     7
177
     7
178
     7
179
     2
271
     0
272
     0
274
     3
340
A762
371
    25
372
    25
1001
ACAD_DSTYLE_DIMJOGGED_JOGANGLE_SYMBOL
1070
   384
1040
0.7853981633974483
1001
ACAD_DSTYLE_DIMEXT_LENGTH
1070
   378
1040
3.174999999999999
  0
DIMSTYLE
105
D146
102
{ACAD_REACTORS
330
D135
102
}
330
A
100
AcDbSymbolTableRecord
100
AcDbDimStyleTableRecord
  2
AM_ISO
 70
     0
  4
"
 41
3.5
 42
1.0
 43
10.0
 44
1.0
 47
0.1
 48
0.1
 73
     0
 74
     0
 77
     1
 78
     8
 79
     2
140
3.5
141
0.0
143
0.0393701
146
0.71
147
1.5
172
     1
176
   256
177
   256
178
     2
271
     2
272
     3
274
     4
283
     0
284
     8
340
11
371
    -1
372
    -1
1001
ACAD_DSTYLE_DIMJAG
1070
   388
1040
1.5
1001
ACAD_DSTYLE_DIMBREAK
1070
   391
1040
3.75
1001
ACAD_DSTYLE_DIMARC_LENGTH_SYMBOL
1070
   379
1070
     1
1001
ACAD_DSTYLE_DIM_LINETYPE
1070
   380
1005
14
1001
ACAD_DSTYLE_DIM_EXT1_LINETYPE
1070
   381
1005
14
1001
ACAD_DSTYLE_DIM_EXT2_LINETYPE
1070
   382
1005
14
  0
DIMSTYLE
105
D153
330
A
100
AcDbSymbolTableRecord
100
AcDbDimStyleTableRecord
  2
AM_ISO$3
 70
     0
  4
"
 41
3.5
 42
1.0
 43
10.0
 44
1.0
 47
0.1
 48
0.1
 73
     0
 77
     1
 78
     8
 79
     2
140
3.5
141
0.0
143
0.0393701
146
0.71
147
1.5
176
   256
177
   256
178
     2
271
     2
272
     3
274
     4
283
     0
284
     8
288
     1
289
     0
340
11
371
    -1
372
    -1
1001
ACAD_DSTYLE_DIMBREAK
1070
   391
1040
3.75
1001
ACAD_DSTYLE_DIMJAG
1070
   388
1040
1.5
1001
ACAD_DSTYLE_DIMARC_LENGTH_SYMBOL
1070
   379
1070
     1
1001
ACAD_DSTYLE_DIM_LINETYPE
1070
   380
1005
14
1001
ACAD_DSTYLE_DIM_EXT1_LINETYPE
1070
   381
1005
14
1001
ACAD_DSTYLE_DIM_EXT2_LINETYPE
1070
   382
1005
14
  0
DIMSTYLE
105
D154
330
A
100
AcDbSymbolTableRecord
100
AcDbDimStyleTableRecord
  2
AM_ISO$4
 70
     0
  4
"
 41
3.5
 42
1.0
 43
10.0
 44
1.0
 47
0.1
 48
0.1
 73
     0
 77
     1
 78
     8
 79
     2
140
3.5
141
0.0
143
0.0393701
146
0.71
147
1.5
176
   256
177
   256
178
     2
271
     2
272
     3
274
     4
283
     0
284
     8
288
     1
289
     0
340
11
371
    -1
372
    -1
1001
ACAD_DSTYLE_DIMBREAK
1070
   391
1040
3.75
1001
ACAD_DSTYLE_DIMJAG
1070
   388
1040
1.5
1001
ACAD_DSTYLE_DIMARC_LENGTH_SYMBOL
1070
   379
1070
     1
1001
ACAD_DSTYLE_DIM_LINETYPE
1070
   380
1005
14
1001
ACAD_DSTYLE_DIM_EXT1_LINETYPE
1070
   381
1005
14
1001
ACAD_DSTYLE_DIM_EXT2_LINETYPE
1070
   382
1005
14
  0
DIMSTYLE
105
D155
330
A
100
AcDbSymbolTableRecord
100
AcDbDimStyleTableRecord
  2
AM_ISO$6
 70
     0
  4
"
 41
3.5
 42
1.0
 43
10.0
 44
1.0
 47
0.1
 48
0.1
 73
     0
 74
     0
 78
     8
 79
     2
140
3.5
141
0.0
143
0.0393701
146
0.71
147
1.5
172
     1
176
   256
177
   256
178
     2
271
     2
272
     3
274
     4
283
     0
284
     8
340
11
371
    -1
372
    -1
1001
ACAD_DSTYLE_DIMBREAK
1070
   391
1040
3.75
1001
ACAD_DSTYLE_DIMJAG
1070
   388
1040
1.5
1001
ACAD_DSTYLE_DIMARC_LENGTH_SYMBOL
1070
   379
1070
     1
1001
ACAD_DSTYLE_DIM_LINETYPE
1070
   380
1005
14
1001
ACAD_DSTYLE_DIM_EXT1_LINETYPE
1070
   381
1005
14
1001
ACAD_DSTYLE_DIM_EXT2_LINETYPE
1070
   382
1005
14
  0
DIMSTYLE
105
D156
330
A
100
AcDbSymbolTableRecord
100
AcDbDimStyleTableRecord
  2
AM_ISO$7
 70
     0
  4
"
 41
3.5
 42
1.0
 43
10.0
 44
1.0
 47
0.1
 48
0.1
 73
     0
 74
     0
 77
     1
 78
     8
 79
     2
140
3.5
141
0.0
143
0.0393701
146
0.71
147
1.5
172
     1
176
   256
177
   256
178
     2
271
     2
272
     3
274
     4
283
     0
284
     8
340
11
371
    -1
372
    -1
1001
ACAD_DSTYLE_DIMBREAK
1070
   391
1040
3.75
1001
ACAD_DSTYLE_DIMJAG
1070
   388
1040
1.5
1001
ACAD_DSTYLE_DIMARC_LENGTH_SYMBOL
1070
   379
1070
     1
1001
ACAD_DSTYLE_DIM_LINETYPE
1070
   380
1005
14
1001
ACAD_DSTYLE_DIM_EXT1_LINETYPE
1070
   381
1005
14
1001
ACAD_DSTYLE_DIM_EXT2_LINETYPE
1070
   382
1005
14
  0
DIMSTYLE
105
D157
330
A
100
AcDbSymbolTableRecord
100
AcDbDimStyleTableRecord
  2
AM_ISO$SF
 70
     0
  4
"
 41
3.5
 42
1.0
 43
10.0
 44
1.0
 47
0.1
 48
0.1
 73
     0
 74
     0
 75
     1
 76
     1
 77
     1
 78
     8
 79
     2
140
3.5
141
0.0
143
0.0393701
146
0.71
147
1.5
172
     1
176
   256
177
   256
178
     2
271
     2
272
     3
274
     4
283
     0
284
     8
340
11
371
    -1
372
    -1
1001
ACAD_DSTYLE_DIMBREAK
1070
   391
1040
3.75
1001
ACAD_DSTYLE_DIMJAG
1070
   388
1040
1.5
1001
ACAD_DSTYLE_DIMARC_LENGTH_SYMBOL
1070
   379
1070
     1
1001
ACAD_DSTYLE_DIM_LINETYPE
1070
   380
1005
14
1001
ACAD_DSTYLE_DIM_EXT1_LINETYPE
1070
   381
1005
14
1001
ACAD_DSTYLE_DIM_EXT2_LINETYPE
1070
   382
1005
14
  0
DIMSTYLE
105
D15C
330
A
100
AcDbSymbolTableRecord
100
AcDbDimStyleTableRecord
  2
AM_ISO$SH
 70
     0
  4
"
 41
3.5
 42
1.0
 43
10.0
 44
1.0
 47
0.1
 48
0.1
 73
     0
 74
     0
 75
     1
 76
     1
 77
     1
 78
     8
 79
     2
140
3.5
141
0.0
143
0.0393701
144
2.0
146
0.71
147
1.5
172
     1
173
     1
176
   256
177
   256
178
     2
271
     2
272
     3
274
     4
283
     0
284
     8
340
11
343
D158
371
    -1
372
    -1
1001
ACAD_DSTYLE_DIMBREAK
1070
   391
1040
3.75
1001
ACAD_DSTYLE_DIMJAG
1070
   388
1040
1.5
1001
ACAD_DSTYLE_DIMARC_LENGTH_SYMBOL
1070
   379
1070
     1
1001
ACAD_DSTYLE_DIM_LINETYPE
1070
   380
1005
14
1001
ACAD_DSTYLE_DIM_EXT1_LINETYPE
1070
   381
1005
14
1001
ACAD_DSTYLE_DIM_EXT2_LINETYPE
1070
   382
1005
14
  0
ENDTAB
  0
TABLE
  2
BLOCK_RECORD
  5
1
330
0
100
AcDbSymbolTable
 70
    10
  0
BLOCK_RECORD
  5
1F
102
{ACAD_XDICTIONARY
360
BE
102
}
330
1
100
AcDbSymbolTableRecord
100
AcDbBlockTableRecord
  2
*Model_Space
340
22
  0
BLOCK_RECORD
  5
1B
330
1
100
AcDbSymbolTableRecord
100
AcDbBlockTableRecord
  2
*Paper_Space
340
1E
  0
BLOCK_RECORD
  5
23
330
1
100
AcDbSymbolTableRecord
100
AcDbBlockTableRecord
  2
*Paper_Space0
340
26
  0
BLOCK_RECORD
  5
A6C6
102
{ACAD_XDICTIONARY
360
D1EB
102
}
330
1
100
AcDbSymbolTableRecord
100
AcDbBlockTableRecord
  2
Header box
340
0
310
2800000020000000200000000100080000000000000400000000000000000000000000000000000000000000000080000080000000808000800000008000800080800000C0C0C000C0DCC000F0CAA6000020400000206000002080000020A0000020C0000020E00000400000004020000040400000406000004080000040A0
310
000040C0000040E00000600000006020000060400000606000006080000060A0000060C0000060E00000800000008020000080400000806000008080000080A0000080C0000080E00000A0000000A0200000A0400000A0600000A0800000A0A00000A0C00000A0E00000C0000000C0200000C0400000C0600000C0800000C0
310
A00000C0C00000C0E00000E0000000E0200000E0400000E0600000E0800000E0A00000E0C00000E0E00040000000400020004000400040006000400080004000A0004000C0004000E00040200000402020004020400040206000402080004020A0004020C0004020E000404000004040200040404000404060004040800040
310
40A0004040C0004040E00040600000406020004060400040606000406080004060A0004060C0004060E00040800000408020004080400040806000408080004080A0004080C0004080E00040A0000040A0200040A0400040A0600040A0800040A0A00040A0C00040A0E00040C0000040C0200040C0400040C0600040C08000
310
40C0A00040C0C00040C0E00040E0000040E0200040E0400040E0600040E0800040E0A00040E0C00040E0E00080000000800020008000400080006000800080008000A0008000C0008000E00080200000802020008020400080206000802080008020A0008020C0008020E00080400000804020008040400080406000804080
310
008040A0008040C0008040E00080600000806020008060400080606000806080008060A0008060C0008060E00080800000808020008080400080806000808080008080A0008080C0008080E00080A0000080A0200080A0400080A0600080A0800080A0A00080A0C00080A0E00080C0000080C0200080C0400080C0600080C0
310
800080C0A00080C0C00080C0E00080E0000080E0200080E0400080E0600080E0800080E0A00080E0C00080E0E000C0000000C0002000C0004000C0006000C0008000C000A000C000C000C000E000C0200000C0202000C0204000C0206000C0208000C020A000C020C000C020E000C0400000C0402000C0404000C0406000C0
310
408000C040A000C040C000C040E000C0600000C0602000C0604000C0606000C0608000C060A000C060C000C060E000C0800000C0802000C0804000C0806000C0808000C080A000C080C000C080E000C0A00000C0A02000C0A04000C0A06000C0A08000C0A0A000C0A0C000C0A0E000C0C00000C0C02000C0C04000C0C06000
310
C0C08000C0C0A000F0FBFF00A4A0A000808080000000FF0000FF000000FFFF00FF000000FF00FF00FFFF0000FFFFFF00FFFFFFFFFFFFFFFFFFFFFFFFFFFFFFFFFFFFFFFFFFFFFFFFFFFFFFFFFFFFFFFFFFFFFFFFFFFFFFFFFFFFFFFFFFFFFFFFFFFFFFFFFFFFFFFFFFFFFFFFFFFFFFFFFFFFFFFFFFFFFFFFFFFFFFFFFFFFFF
310
FFFFFFFFFFFFFFFFFFFFFFFFFFFFFFFFFFFFFFFFFFFFFFFFFFFFFFFFFFFFFFFFFFFFFFFFFFFFFFFFFFFFFFFFFFFFFFFFFFFFFFFFFFFFFFFFFFFFFFFFFFFFFFFFFFFFFFFFFFFFFFFFFFFFFFFFFFFFFFFFFFFFFFFFFFFFFFFFFFFFFFFFFFFFFFFFFFFFFFFFFFFFFFFFFFFFFFFFFFFFFFFFFFFFFFFFFFFFFFFFFFFFFFFFFFFFFF
310
FFFFFFFFFFFFFFFFFFFFFFFFFFFFFFFFFFFFFFFFFFFFFFFFFFFFFFFFFFFFFFFFFFFFFFFFFFFFFFFFFFFFFFFFFFFFFFFFFFFFFFFFFFFFFFFFFFFFFFFFFFFFFFFFFFFFFFFFFFFFFFFFFFFFFFFFFFFFFFFFFFFFFFFFFFFFFFFFFFFFFFFFFFFFFFFFFFFFFFFFFFFFFFFFFFFFFFFFFFFFFFFFFFFFFFFFFFFFFFFFFFFFFFFFFFFFFF
310
FFFFFFFFFFFFFFFFFFFFFFFFFFFFFFFFFFFFFFFFFFFFFFFFFFFFFFFFFFFFFFFFFFFFFFFFFFFFFFFFFFFFFFFFFFFFFFFFFFFFFFFF000000000000000000000000000000000000000000000000000000000000FFFF0000000000000000000000FFFFFFFF00000000000000000000FFFFFFFF00FFFF0000000000000000000000
310
FFFFFF0000000000000000000000FFFFFFFF00FFFF000000000000FFFFFFFF00FF00000000000000000000000000000000FF00FFFF0000000000000000000000FFFFF9F9F9F9F9F9F9F9F9F9F9F9F9F9FFFF00FFFF000000000000000000000000FF000000FFF9F9F9F9F9F90000000000FF00FFFF0000000000FFFFFFFFFF
310
000000000000000000000000000000000000FF00FFFF000000000000000000000000000000000000000000000000000000000000FFFFFFFFFFFFFFFFFFFFFFFFFFFFFFFFFFFFFFFFFFFFFFFFFFFFFFFFFFFFFFFFFFFFFFFFFFFFFFFFFFFFFFFFFFFFFFFFFFFFFFFFFFFFFFFFFFFFFFFFFFFFFFFFFFFFFFFFFFFFFFFFFFFFFF
310
FFFFFFFFFFFFFFFFFFFFFFFFFFFFFFFFFFFFFFFFFFFFFFFFFFFFFFFFFFFFFFFFFFFFFFFFFFFFFFFFFFFFFFFFFFFFFFFFFFFFFFFFFFFFFFFFFFFFFFFFFFFFFFFFFFFFFFFFFFFFFFFFFFFFFFFFFFFFFFFFFFFFFFFFFFFFFFFFFFFFFFFFFFFFFFFFFFFFFFFFFFFFFFFFFFFFFFFFFFFFFFFFFFFFFFFFFFFFFFFFFFFFFFFFFFFFFF
310
FFFFFFFFFFFFFFFFFFFFFFFFFFFFFFFFFFFFFFFFFFFFFFFFFFFFFFFFFFFFFFFFFFFFFFFFFFFFFFFFFFFFFFFFFFFFFFFFFFFFFFFFFFFFFFFFFFFFFFFFFFFFFFFFFFFFFFFFFFFFFFFFFFFFFFFFFFFFFFFFFFFFFFFFFFFFFFFFFFFFFFFFFFFFFFFFFFFFFFFFFFFFFFFFFFFFFFFFFFFFFFFFFFFFFFFFFFFFFFFFFFFFFFFFFFFFFF
310
FFFFFFFFFFFFFFFFFFFFFFFFFFFFFFFFFFFFFFFFFFFFFFFFFFFFFFFFFFFFFFFFFFFFFFFFFFFFFFFFFFFFFFFFFFFFFFFFFFFFFFFFFFFFFFFF
102
{BLKREFS
331
B3FF
102
}
1001
ACAD
1000
DesignCenter Data
1002
{
1070
     1
1070
     1
1002
}
  0
BLOCK_RECORD
  5
CF6C
330
1
100
AcDbSymbolTableRecord
100
AcDbBlockTableRecord
  2
*D2
340
0
  0
BLOCK_RECORD
  5
CF78
330
1
100
AcDbSymbolTableRecord
100
AcDbBlockTableRecord
  2
*D3
340
0
  0
BLOCK_RECORD
  5
CF84
330
1
100
AcDbSymbolTableRecord
100
AcDbBlockTableRecord
  2
*D4
340
0
  0
BLOCK_RECORD
  5
CF90
330
1
100
AcDbSymbolTableRecord
100
AcDbBlockTableRecord
  2
*D5
340
0
  0
BLOCK_RECORD
  5
CFE9
330
1
100
AcDbSymbolTableRecord
100
AcDbBlockTableRecord
  2
*D6
340
0
  0
BLOCK_RECORD
  5
CFF6
330
1
100
AcDbSymbolTableRecord
100
AcDbBlockTableRecord
  2
*D7
340
0
  0
BLOCK_RECORD
  5
D158
330
1
100
AcDbSymbolTableRecord
100
AcDbBlockTableRecord
  2
GENAXEH
340
0
  0
ENDTAB
  0
ENDSEC
  0
SECTION
  2
BLOCKS
  0
BLOCK
  5
20
330
1F
100
AcDbEntity
  8
0
100
AcDbBlockBegin
  2
*Model_Space
 70
     0
 10
0.0
 20
0.0
 30
0.0
  3
*Model_Space
  1

  0
ENDBLK
  5
21
330
1F
100
AcDbEntity
  8
0
100
AcDbBlockEnd
  0
BLOCK
  5
1C
330
1B
100
AcDbEntity
 67
     1
  8
0
100
AcDbBlockBegin
  2
*Paper_Space
 70
     0
 10
0.0
 20
0.0
 30
0.0
  3
*Paper_Space
  1

  0
ENDBLK
  5
1D
330
1B
100
AcDbEntity
 67
     1
  8
0
100
AcDbBlockEnd
  0
BLOCK
  5
24
330
23
100
AcDbEntity
 67
     1
  8
0
100
AcDbBlockBegin
  2
*Paper_Space0
 70
     0
 10
0.0
 20
0.0
 30
0.0
  3
*Paper_Space0
  1

  0
ENDBLK
  5
25
330
23
100
AcDbEntity
 67
     1
  8
0
100
AcDbBlockEnd
  0
BLOCK
  5
A6C7
330
A6C6
100
AcDbEntity
  8
0
100
AcDbBlockBegin
  2
Header box
 70
     0
 10
0.0
 20
0.0
 30
0.0
  3
Header box
  1

  0
LINE
  5
A6C8
330
A6C6
100
AcDbEntity
  8
TITLE
 62
     7
100
AcDbLine
 10
-190.354389389498
 20
37.36171237533517
 30
0.0
 11
-190.354389389498
 21
64.52598166812913
 31
0.0
  0
TEXT
  5
A6C9
330
A6C6
100
AcDbEntity
  8
TITLE
 62
     7
100
AcDbText
 10
-287.1013364054666
 20
64.8908240119622
 30
0.0
 40
3.7
  1
Description:
  7
ROMANS
100
AcDbText
  0
LINE
  5
A6CA
330
A6C6
100
AcDbEntity
  8
TITLE
 62
     7
100
AcDbLine
 10
-0.0000000000002274
 20
70.0
 30
0.0
 11
-0.0000000000004547
 21
0.0
 31
0.0
  0
LINE
  5
A6CB
330
A6C6
100
AcDbEntity
  8
TITLE
 62
     7
100
AcDbLine
 10
-290.354389389498
 20
0.0000000000002274
 30
0.0
 11
-0.0000000000004547
 21
0.0
 31
0.0
  0
LINE
  5
A6CC
330
A6C6
100
AcDbEntity
  8
TITLE
 62
     7
100
AcDbLine
 10
-290.3543893894982
 20
12.00000000000023
 30
0.0
 11
-190.354389389498
 21
12.0
 31
0.0
  0
LINE
  5
A6CD
330
A6C6
100
AcDbEntity
  8
TITLE
 62
     7
100
AcDbLine
 10
-290.3543893894982
 20
24.0
 30
0.0
 11
-190.354389389498
 21
24.0
 31
0.0
  0
LINE
  5
A6CE
330
A6C6
100
AcDbEntity
  8
TITLE
 62
     7
100
AcDbLine
 10
-290.3543893894982
 20
36.00000000000046
 30
0.0
 11
-190.354389389498
 21
36.0
 31
0.0
  0
LINE
  5
A6CF
330
A6C6
100
AcDbEntity
  8
TITLE
 62
     7
100
AcDbLine
 10
-290.3543893894982
 20
48.0
 30
0.0
 11
-190.354389389498
 21
48.0
 31
0.0
  0
TEXT
  5
A6D0
330
A6C6
100
AcDbEntity
  8
TITLE
 62
     7
100
AcDbText
 10
-137.4172993428619
 20
11.61849069373284
 30
0.0
 40
4.234726746318611
  1
...........................................
  7
ROMANS
100
AcDbText
  0
TEXT
  5
A6D1
330
A6C6
100
AcDbEntity
  8
TITLE
 62
     7
100
AcDbText
 10
-131.415438903773
 20
5.698054340877206
 30
0.0
 40
4.5
  1
www.pchenderson.com
  7
ROMANS
100
AcDbText
  0
TEXT
  5
A6D2
330
A6C6
100
AcDbEntity
  8
TITLE
 62
     7
100
AcDbText
 10
-183.248621162917
 20
45.45580816069559
 30
0.0
 40
20.68663584605062
  1
H                 N
  7
PANROMAN
 72
     1
 11
-93.4850250908471
 21
45.45580816069559
 31
0.0
100
AcDbText
  0
TEXT
  5
A6D3
330
A6C6
100
AcDbEntity
  8
TITLE
 62
     7
100
AcDbText
 10
-160.6591259430001
 20
51.18151386659019
 30
0.0
 40
13.79109056403374
  1
ENDERSO
 41
1.550658378555863
  7
PANROMAN
 72
     5
 11
-25.43890099333157
 21
51.18151386659019
 31
0.0
100
AcDbText
  0
TEXT
  5
A6D4
330
A6C6
100
AcDbEntity
  8
TITLE
 62
     7
100
AcDbText
 10
-164.9093286797538
 20
20.76367819511722
 30
0.0
 40
3.223667419342889
  1
Telephone: (0191) 3770701  Fax No.: (0191) 3771309
  7
ROMANS
 72
     1
 11
-94.37241538508443
 21
20.76367819511722
 31
0.0
100
AcDbText
  0
HATCH
  5
A6D6
330
A6C6
100
AcDbEntity
  8
TITLE
 62
     7
100
AcDbHatch
 10
0.0
 20
0.0
 30
0.0
210
0.0
220
0.0
230
1.0
  2
SOLID
 70
     1
 71
     0
 91
        1
 92
        7
 72
     0
 73
     1
 93
       10
 10
-115.5859924744936
 20
43.41746872639896
 10
-115.5859924744936
 20
42.84283995289661
 10
-107.8656348729791
 20
40.77417636829159
 10
-97.63414295541998
 20
40.77417636829159
 10
-105.3545005569335
 20
42.84283995289752
 10
-80.99644005894379
 20
42.84283995289752
 10
-88.71679766045827
 20
40.77417636829159
 10
-78.48530574289816
 20
40.77417636829159
 10
-70.76494814138368
 20
42.84283995289797
 10
-70.76494814138368
 20
43.41746872639896
 97
        0
 75
     0
 76
     1
 47
0.1131583265264065
 98
        1
 10
-79.97928254073258
 20
42.34027325150373
1001
ACAD
1010
0.0
1020
0.0
1030
0.0
  0
LINE
  5
A6D7
330
A6C6
100
AcDbEntity
  8
TITLE
 62
     7
100
AcDbLine
 10
-80.99644005894379
 20
42.84283995289752
 30
0.0
 11
-105.3545005569335
 21
42.84283995289752
 31
0.0
  0
LINE
  5
A6D8
330
A6C6
100
AcDbEntity
  8
TITLE
 62
     7
100
AcDbLine
 10
-105.3545005569335
 20
42.84283995289752
 30
0.0
 11
-97.63414295542089
 21
40.77417636829159
 31
0.0
  0
LINE
  5
A6D9
330
A6C6
100
AcDbEntity
  8
TITLE
 62
     7
100
AcDbLine
 10
-97.63414295542089
 20
40.77417636829159
 30
0.0
 11
-107.8656348729791
 21
40.77417636829159
 31
0.0
  0
LINE
  5
A6DA
330
A6C6
100
AcDbEntity
  8
TITLE
 62
     7
100
AcDbLine
 10
-107.8656348729791
 20
40.77417636829159
 30
0.0
 11
-115.5859924744936
 21
42.84283995289661
 31
0.0
  0
HATCH
  5
A6DB
330
A6C6
100
AcDbEntity
  8
TITLE
 62
     1
100
AcDbHatch
 10
0.0
 20
0.0
 30
0.0
210
0.0
220
0.0
230
1.0
  2
SOLID
 70
     1
 71
     0
 91
        1
 92
        7
 72
     0
 73
     1
 93
       10
 10
-97.63414295542089
 20
47.59720165536373
 10
-107.8656348729805
 20
47.59720165536373
 10
-115.5859924744941
 20
45.52853807075962
 10
-115.5859924744941
 20
44.95390929725817
 10
-70.76494814138413
 20
44.95390929725772
 10
-70.76494814138413
 20
45.52853807075962
 10
-78.48530574289816
 20
47.59720165536373
 10
-88.71679766045962
 20
47.59720165536373
 10
-80.99644005894379
 20
45.52853807075962
 10
-105.354500556934
 20
45.52853807075962
 97
        0
 75
     0
 76
     1
 47
0.0479659346309796
 98
        1
 10
-105.5000160774734
 20
46.441489113658
1001
ACAD
1010
0.0
1020
0.0
1030
0.0
  0
LINE
  5
A6DC
330
A6C6
100
AcDbEntity
  8
TITLE
 62
     1
100
AcDbLine
 10
-115.5859924744941
 20
44.95390929725817
 30
0.0
 11
-115.5859924744941
 21
45.52853807075962
 31
0.0
  0
LINE
  5
A6DD
330
A6C6
100
AcDbEntity
  8
TITLE
 62
     1
100
AcDbLine
 10
-115.5859924744941
 20
45.52853807075962
 30
0.0
 11
-107.8656348729805
 21
47.59720165536373
 31
0.0
  0
LINE
  5
A6DE
330
A6C6
100
AcDbEntity
  8
TITLE
 62
     1
100
AcDbLine
 10
-107.8656348729805
 20
47.59720165536373
 30
0.0
 11
-97.63414295541952
 21
47.59720165536373
 31
0.0
  0
LINE
  5
A6DF
330
A6C6
100
AcDbEntity
  8
TITLE
 62
     1
100
AcDbLine
 10
-97.63414295541952
 20
47.59720165536373
 30
0.0
 11
-105.3545005569335
 21
45.52853807075962
 31
0.0
  0
LINE
  5
A6E0
330
A6C6
100
AcDbEntity
  8
TITLE
 62
     1
100
AcDbLine
 10
-105.3545005569335
 20
45.52853807075962
 30
0.0
 11
-80.9964400589456
 21
45.52853807075962
 31
0.0
  0
LINE
  5
A6E1
330
A6C6
100
AcDbEntity
  8
TITLE
 62
     1
100
AcDbLine
 10
-80.9964400589456
 20
45.52853807075962
 30
0.0
 11
-88.71679766045827
 21
47.59720165536373
 31
0.0
  0
LINE
  5
A6E2
330
A6C6
100
AcDbEntity
  8
TITLE
 62
     1
100
AcDbLine
 10
-88.71679766045827
 20
47.59720165536373
 30
0.0
 11
-78.48530574289816
 21
47.59720165536373
 31
0.0
  0
LINE
  5
A6E3
330
A6C6
100
AcDbEntity
  8
TITLE
 62
     1
100
AcDbLine
 10
-78.48530574289816
 20
47.59720165536373
 30
0.0
 11
-70.76494814138413
 21
45.52853807075962
 31
0.0
  0
LINE
  5
A6E4
330
A6C6
100
AcDbEntity
  8
TITLE
 62
     7
100
AcDbLine
 10
-70.76494814138368
 20
43.41746872639851
 30
0.0
 11
-70.76494814138368
 21
42.84283995289752
 31
0.0
  0
LINE
  5
A6E5
330
A6C6
100
AcDbEntity
  8
TITLE
 62
     7
100
AcDbLine
 10
-70.76494814138368
 20
42.84283995289752
 30
0.0
 11
-78.48530574289816
 21
40.77417636829159
 31
0.0
  0
LINE
  5
A6E6
330
A6C6
100
AcDbEntity
  8
TITLE
 62
     7
100
AcDbLine
 10
-78.48530574289816
 20
40.77417636829159
 30
0.0
 11
-88.71679766045781
 21
40.77417636829159
 31
0.0
  0
LINE
  5
A6E7
330
A6C6
100
AcDbEntity
  8
TITLE
 62
     7
100
AcDbLine
 10
-88.71679766045781
 20
40.77417636829159
 30
0.0
 11
-80.99644005894379
 21
42.84283995289752
 31
0.0
  0
LINE
  5
A6E8
330
A6C6
100
AcDbEntity
  8
TITLE
 62
     1
100
AcDbLine
 10
-78.48530574289816
 20
47.59720165536373
 30
0.0
 11
-88.71679766045827
 21
47.59720165536373
 31
0.0
  0
LINE
  5
A6E9
330
A6C6
100
AcDbEntity
  8
TITLE
 62
     7
100
AcDbLine
 10
-88.71679766045781
 20
40.77417636829159
 30
0.0
 11
-78.48530574289816
 21
40.77417636829159
 31
0.0
  0
TEXT
  5
A6EA
330
A6C6
100
AcDbEntity
  8
TITLE
 62
     7
100
AcDbText
 10
-168.3225696533116
 20
27.53846024074653
 30
0.0
 40
2.93060674485717
  1
P.C.HENDERSON LIMITED, BOWBURN, DURHAM DH6 5NG ENGLAND
  7
ROMANS
 72
     1
 11
-94.56896657440621
 21
27.53846024074653
 31
0.0
100
AcDbText
  0
LINE
  5
A6EB
330
A6C6
100
AcDbEntity
  8
TITLE
 62
     1
100
AcDbLine
 10
-70.76494814138413
 20
44.95390929725772
 30
0.0
 11
-70.76494814138413
 21
45.52853807075962
 31
0.0
  0
LINE
  5
A6EC
330
A6C6
100
AcDbEntity
  8
TITLE
 62
     7
100
AcDbLine
 10
-190.354389389498
 20
69.99999999999977
 30
0.0
 11
-190.354389389498
 21
0.0
 31
0.0
  0
LINE
  5
A6ED
330
A6C6
100
AcDbEntity
  8
TITLE
 62
     7
100
AcDbLine
 10
-239.9999999999977
 20
48.0
 30
0.0
 11
-239.9999999999977
 21
0.0
 31
0.0
  0
LINE
  5
A6EE
330
A6C6
100
AcDbEntity
  8
TITLE
 62
     7
100
AcDbLine
 10
-290.354389389498
 20
69.99999999999977
 30
0.0
 11
-290.354389389498
 21
0.0
 31
0.0
  0
LINE
  5
A6EF
330
A6C6
100
AcDbEntity
  8
TITLE
 62
     7
100
AcDbLine
 10
-115.5859924744936
 20
43.41746872639851
 30
0.0
 11
-70.76494814138368
 21
43.41746872639851
 31
0.0
  0
LINE
  5
A6F0
330
A6C6
100
AcDbEntity
  8
TITLE
 62
     1
100
AcDbLine
 10
-115.5859924744941
 20
44.95390929725817
 30
0.0
 11
-70.76494814138413
 21
44.95390929725772
 31
0.0
  0
LINE
  5
A6F1
330
A6C6
100
AcDbEntity
  8
TITLE
 62
     7
100
AcDbLine
 10
-115.5859924744936
 20
43.41746872639851
 30
0.0
 11
-115.5859924744936
 21
42.84283995289661
 31
0.0
  0
HATCH
  5
A6F2
330
A6C6
100
AcDbEntity
  8
TITLE
 62
     1
100
AcDbHatch
 10
0.0
 20
0.0
 30
0.0
210
0.0
220
0.0
230
1.0
  2
SOLID
 70
     1
 71
     0
 91
        2
 92
        7
 72
     0
 73
     1
 93
        4
 10
-115.5859924744936
 20
43.67354215487558
 10
-115.5859924744941
 20
44.69783586878157
 10
-156.9592641665954
 20
44.69783586878157
 10
-156.9592641665958
 20
43.67354215487558
 97
        0
 92
        7
 72
     0
 73
     1
 93
        4
 10
-70.76494814138413
 20
44.69783586878157
 10
-70.76494814138505
 20
43.67354215487558
 10
-29.39167644928375
 20
43.67354215487558
 10
-29.39167644928284
 20
44.69783586878157
 97
        0
 75
     0
 76
     1
 47
0.1442957942446049
 98
        2
 10
-127.7427916639813
 20
44.10861404230536
 10
-54.69428705162091
 20
44.25641509796605
1001
ACAD
1010
0.0
1020
0.0
1030
0.0
  0
LINE
  5
A6F3
330
A6C6
100
AcDbEntity
  8
TITLE
 62
     1
100
AcDbLine
 10
-115.5859924744941
 20
44.69783586878157
 30
0.0
 11
-156.9592641665954
 21
44.69783586878157
 31
0.0
  0
LINE
  5
A6F4
330
A6C6
100
AcDbEntity
  8
TITLE
 62
     1
100
AcDbLine
 10
-115.5859924744941
 20
43.67354215487512
 30
0.0
 11
-156.9592641665958
 21
43.67354215487512
 31
0.0
  0
LINE
  5
A6F5
330
A6C6
100
AcDbEntity
  8
TITLE
 62
     1
100
AcDbLine
 10
-115.5859924744941
 20
44.69783586878157
 30
0.0
 11
-115.5859924744936
 21
43.67354215487512
 31
0.0
  0
LINE
  5
A6F6
330
A6C6
100
AcDbEntity
  8
TITLE
 62
     1
100
AcDbLine
 10
-156.9592641665958
 20
43.67354215487512
 30
0.0
 11
-156.9592641665954
 21
44.69783586878157
 31
0.0
  0
LINE
  5
A6F7
330
A6C6
100
AcDbEntity
  8
TITLE
 62
     1
100
AcDbLine
 10
-29.39167644928375
 20
44.69783586878111
 30
0.0
 11
-70.76494814138413
 21
44.69783586878111
 31
0.0
  0
LINE
  5
A6F8
330
A6C6
100
AcDbEntity
  8
TITLE
 62
     1
100
AcDbLine
 10
-29.39167644928375
 20
43.67354215487512
 30
0.0
 11
-70.76494814138413
 21
43.67354215487512
 31
0.0
  0
LINE
  5
A6F9
330
A6C6
100
AcDbEntity
  8
TITLE
 62
     1
100
AcDbLine
 10
-29.39167644928375
 20
44.69783586878111
 30
0.0
 11
-29.39167644928284
 21
43.67354215487512
 31
0.0
  0
LINE
  5
A6FA
330
A6C6
100
AcDbEntity
  8
TITLE
 62
     1
100
AcDbLine
 10
-70.76494814138505
 20
43.67354215487512
 30
0.0
 11
-70.76494814138413
 21
44.69783586878111
 31
0.0
  0
LINE
  5
A6FB
330
A6C6
100
AcDbEntity
  8
TITLE
 62
     7
100
AcDbLine
 10
-190.354389389498
 20
-0.0000000000004547
 30
0.0
 11
0.0
 21
0.0
 31
0.0
  0
LINE
  5
A6FC
330
A6C6
100
AcDbEntity
  8
TITLE
 62
     7
100
AcDbLine
 10
-290.354389389498
 20
69.99999999999977
 30
0.0
 11
-0.0000000000002274
 21
70.0
 31
0.0
  0
TEXT
  5
A6FD
330
A6C6
100
AcDbEntity
  8
TITLE
 62
     7
100
AcDbText
 10
-287.1013364054666
 20
40.04460132198028
 30
0.0
 40
3.7
  1
PCH-code:
  7
ROMANS
100
AcDbText
  0
TEXT
  5
A6FE
330
A6C6
100
AcDbEntity
  8
TITLE
 62
     7
100
AcDbText
 10
-287.1013364054666
 20
27.78324803682199
 30
0.0
 40
3.7
  1
CAD-scale:
  7
ROMANS
100
AcDbText
  0
TEXT
  5
A6FF
330
A6C6
100
AcDbEntity
  8
TITLE
 62
     7
100
AcDbText
 10
-287.1013364054666
 20
16.34866787757346
 30
0.0
 40
3.7
  1
Drawing-size:
  7
ROMANS
100
AcDbText
  0
TEXT
  5
A700
330
A6C6
100
AcDbEntity
  8
TITLE
 62
     7
100
AcDbText
 10
-287.1013364054666
 20
4.155613950414135
 30
0.0
 40
3.7
  1
Revision:
  7
ROMANS
100
AcDbText
  0
ENDBLK
  5
A701
330
A6C6
100
AcDbEntity
  8
0
100
AcDbBlockEnd
  0
BLOCK
  5
CF76
330
CF6C
100
AcDbEntity
  8
0
 62
     0
100
AcDbBlockBegin
  2
*D2
 70
     1
 10
0.0
 20
0.0
 30
0.0
  3
*D2
  1

  0
LINE
  5
D010
330
CF6C
100
AcDbEntity
  8
DIMENSION
 62
     7
370
    25
100
AcDbLine
 10
218.8769543103824
 20
246.5394065079779
 30
0.0
 11
218.8769543103824
 21
273.7877045612291
 31
0.0
  0
LINE
  5
D011
330
CF6C
100
AcDbEntity
  8
DIMENSION
 62
     7
370
    25
100
AcDbLine
 10
265.8769543103824
 20
246.5394065079779
 30
0.0
 11
265.8769543103824
 21
273.7877045612291
 31
0.0
  0
LINE
  5
D012
330
CF6C
100
AcDbEntity
  8
DIMENSION
 62
     7
370
    25
100
AcDbLine
 10
222.3769543103824
 20
270.6127045612291
 30
0.0
 11
262.3769543103824
 21
270.6127045612291
 31
0.0
  0
SOLID
  5
D013
330
CF6C
100
AcDbEntity
  8
DIMENSION
 62
     7
100
AcDbTrace
 10
222.3769543103824
 20
271.1960378945624
 30
0.0
 11
222.3769543103824
 21
270.0293712278957
 31
0.0
 12
218.8769543103824
 22
270.6127045612291
 32
0.0
 13
218.8769543103824
 23
270.6127045612291
 33
0.0
  0
SOLID
  5
D014
330
CF6C
100
AcDbEntity
  8
DIMENSION
 62
     7
100
AcDbTrace
 10
262.3769543103824
 20
271.1960378945624
 30
0.0
 11
262.3769543103824
 21
270.0293712278957
 31
0.0
 12
265.8769543103824
 22
270.6127045612291
 32
0.0
 13
265.8769543103824
 23
270.6127045612291
 33
0.0
  0
MTEXT
  5
D015
330
CF6C
100
AcDbEntity
  8
DIMENSION
 62
     7
100
AcDbMText
 10
242.3769543103824
 20
273.161710018255
 30
0.0
 40
3.5
 41
0.0
 71
     5
 72
     1
  1
\A1;48
  7
Current-BSI
 73
     1
 44
1.0
1001
ACAD
1000
MTEXTBEGIN
1070
    73
1070
     1
1070
    44
1040
1.0
1070
    74
1070
     0
1000
MTEXTEND
  0
POINT
  5
D016
330
CF6C
100
AcDbEntity
  8
Defpoints
 62
     0
100
AcDbPoint
 10
218.8769543103824
 20
246.5394065079779
 30
0.0
  0
POINT
  5
D017
330
CF6C
100
AcDbEntity
  8
Defpoints
 62
     0
100
AcDbPoint
 10
265.8769543103824
 20
246.5394065079779
 30
0.0
  0
POINT
  5
D018
330
CF6C
100
AcDbEntity
  8
Defpoints
 62
     0
100
AcDbPoint
 10
265.8769543103824
 20
270.6127045612291
 30
0.0
  0
ENDBLK
  5
CF77
330
CF6C
100
AcDbEntity
  8
0
 62
     0
100
AcDbBlockEnd
  0
BLOCK
  5
CF82
330
CF78
100
AcDbEntity
  8
0
 62
     0
100
AcDbBlockBegin
  2
*D3
 70
     1
 10
0.0
 20
0.0
 30
0.0
  3
*D3
  1

  0
LINE
  5
D019
330
CF78
100
AcDbEntity
  8
DIMENSION
 62
     7
370
    25
100
AcDbLine
 10
218.8769543103824
 20
246.5394065079779
 30
0.0
 11
188.313610424171
 21
246.5394065079779
 31
0.0
  0
LINE
  5
D01A
330
CF78
100
AcDbEntity
  8
DIMENSION
 62
     7
370
    25
100
AcDbLine
 10
228.8769543103824
 20
179.5394065079778
 30
0.0
 11
188.313610424171
 21
179.5394065079779
 31
0.0
  0
LINE
  5
D01B
330
CF78
100
AcDbEntity
  8
DIMENSION
 62
     7
370
    25
100
AcDbLine
 10
191.488610424171
 20
243.0394065079779
 30
0.0
 11
191.488610424171
 21
183.0394065079778
 31
0.0
  0
SOLID
  5
D01C
330
CF78
100
AcDbEntity
  8
DIMENSION
 62
     7
100
AcDbTrace
 10
190.9052770908377
 20
243.0394065079779
 30
0.0
 11
192.0719437575044
 21
243.0394065079779
 31
0.0
 12
191.488610424171
 22
246.5394065079779
 32
0.0
 13
191.488610424171
 23
246.5394065079779
 33
0.0
  0
SOLID
  5
D01D
330
CF78
100
AcDbEntity
  8
DIMENSION
 62
     7
100
AcDbTrace
 10
190.9052770908377
 20
183.0394065079778
 30
0.0
 11
192.0719437575043
 21
183.0394065079778
 31
0.0
 12
191.488610424171
 22
179.5394065079779
 32
0.0
 13
191.488610424171
 23
179.5394065079779
 33
0.0
  0
MTEXT
  5
D01E
330
CF78
100
AcDbEntity
  8
DIMENSION
 62
     7
100
AcDbMText
 10
188.9396049671451
 20
213.0394065079779
 30
0.0
 40
3.5
 41
0.0
 71
     5
 72
     1
  1
\A1;67
  7
Current-BSI
 11
0.0000000000000001
 21
1.0
 31
0.0
 73
     1
 44
1.0
1001
ACAD
1000
MTEXTBEGIN
1070
    73
1070
     1
1070
    44
1040
1.0
1070
    74
1070
     0
1000
MTEXTEND
  0
POINT
  5
D01F
330
CF78
100
AcDbEntity
  8
Defpoints
 62
     0
100
AcDbPoint
 10
218.8769543103824
 20
246.5394065079779
 30
0.0
  0
POINT
  5
D020
330
CF78
100
AcDbEntity
  8
Defpoints
 62
     0
100
AcDbPoint
 10
228.8769543103824
 20
179.5394065079778
 30
0.0
  0
POINT
  5
D021
330
CF78
100
AcDbEntity
  8
Defpoints
 62
     0
100
AcDbPoint
 10
191.488610424171
 20
179.5394065079779
 30
0.0
  0
ENDBLK
  5
CF83
330
CF78
100
AcDbEntity
  8
0
 62
     0
100
AcDbBlockEnd
  0
BLOCK
  5
CF8E
330
CF84
100
AcDbEntity
  8
0
 62
     0
100
AcDbBlockBegin
  2
*D4
 70
     1
 10
0.0
 20
0.0
 30
0.0
  3
*D4
  1

  0
LINE
  5
D022
330
CF84
100
AcDbEntity
  8
DIMENSION
 62
     7
370
    25
100
AcDbLine
 10
323.5845603253753
 20
248.7333947884196
 30
0.0
 11
323.5845603253753
 21
260.4032577633994
 31
0.0
  0
LINE
  5
D023
330
CF84
100
AcDbEntity
  8
DIMENSION
 62
     7
370
    25
100
AcDbLine
 10
383.5845603253754
 20
248.7333947884196
 30
0.0
 11
383.5845603253754
 21
260.4032577633994
 31
0.0
  0
LINE
  5
D024
330
CF84
100
AcDbEntity
  8
DIMENSION
 62
     7
370
    25
100
AcDbLine
 10
327.0845603253753
 20
257.2282577633994
 30
0.0
 11
380.0845603253754
 21
257.2282577633994
 31
0.0
  0
SOLID
  5
D025
330
CF84
100
AcDbEntity
  8
DIMENSION
 62
     7
100
AcDbTrace
 10
327.0845603253753
 20
257.8115910967327
 30
0.0
 11
327.0845603253753
 21
256.6449244300661
 31
0.0
 12
323.5845603253753
 22
257.2282577633994
 32
0.0
 13
323.5845603253753
 23
257.2282577633994
 33
0.0
  0
SOLID
  5
D026
330
CF84
100
AcDbEntity
  8
DIMENSION
 62
     7
100
AcDbTrace
 10
380.0845603253754
 20
257.8115910967327
 30
0.0
 11
380.0845603253754
 21
256.6449244300661
 31
0.0
 12
383.5845603253754
 22
257.2282577633994
 32
0.0
 13
383.5845603253754
 23
257.2282577633994
 33
0.0
  0
MTEXT
  5
D027
330
CF84
100
AcDbEntity
  8
DIMENSION
 62
     7
100
AcDbMText
 10
353.5845603253754
 20
259.7772632204253
 30
0.0
 40
3.5
 41
0.0
 71
     5
 72
     1
  1
\A1;60
  7
Current-BSI
 73
     1
 44
1.0
1001
ACAD
1000
MTEXTBEGIN
1070
    73
1070
     1
1070
    44
1040
1.0
1070
    74
1070
     0
1000
MTEXTEND
  0
POINT
  5
D028
330
CF84
100
AcDbEntity
  8
Defpoints
 62
     0
100
AcDbPoint
 10
323.5845603253753
 20
248.7333947884196
 30
0.0
  0
POINT
  5
D029
330
CF84
100
AcDbEntity
  8
Defpoints
 62
     0
100
AcDbPoint
 10
383.5845603253754
 20
248.7333947884196
 30
0.0
  0
POINT
  5
D02A
330
CF84
100
AcDbEntity
  8
Defpoints
 62
     0
100
AcDbPoint
 10
383.5845603253754
 20
257.2282577633994
 30
0.0
  0
ENDBLK
  5
CF8F
330
CF84
100
AcDbEntity
  8
0
 62
     0
100
AcDbBlockEnd
  0
BLOCK
  5
CF9A
330
CF90
100
AcDbEntity
  8
0
 62
     0
100
AcDbBlockBegin
  2
*D5
 70
     1
 10
0.0
 20
0.0
 30
0.0
  3
*D5
  1

  0
LINE
  5
D02B
330
CF90
100
AcDbEntity
  8
DIMENSION
 62
     7
370
    25
100
AcDbLine
 10
316.0845603253786
 20
246.5394065079779
 30
0.0
 11
316.0845603253786
 21
273.539844456357
 31
0.0
  0
LINE
  5
D02C
330
CF90
100
AcDbEntity
  8
DIMENSION
 62
     7
370
    25
100
AcDbLine
 10
391.0845603253786
 20
246.5394065079779
 30
0.0
 11
391.0845603253786
 21
273.539844456357
 31
0.0
  0
LINE
  5
D02D
330
CF90
100
AcDbEntity
  8
DIMENSION
 62
     7
370
    25
100
AcDbLine
 10
319.5845603253786
 20
270.364844456357
 30
0.0
 11
387.5845603253786
 21
270.364844456357
 31
0.0
  0
SOLID
  5
D02E
330
CF90
100
AcDbEntity
  8
DIMENSION
 62
     7
100
AcDbTrace
 10
319.5845603253786
 20
270.9481777896903
 30
0.0
 11
319.5845603253786
 21
269.7815111230237
 31
0.0
 12
316.0845603253786
 22
270.364844456357
 32
0.0
 13
316.0845603253786
 23
270.364844456357
 33
0.0
  0
SOLID
  5
D02F
330
CF90
100
AcDbEntity
  8
DIMENSION
 62
     7
100
AcDbTrace
 10
387.5845603253786
 20
270.9481777896903
 30
0.0
 11
387.5845603253786
 21
269.7815111230237
 31
0.0
 12
391.0845603253786
 22
270.364844456357
 32
0.0
 13
391.0845603253786
 23
270.364844456357
 33
0.0
  0
MTEXT
  5
D030
330
CF90
100
AcDbEntity
  8
DIMENSION
 62
     7
100
AcDbMText
 10
353.5845603253786
 20
272.9066875668618
 30
0.0
 40
3.5
 41
0.0
 71
     5
 72
     1
  1
\A1;75
  7
Current-BSI
 73
     1
 44
1.0
1001
ACAD
1000
MTEXTBEGIN
1070
    73
1070
     1
1070
    44
1040
1.0
1070
    74
1070
     0
1000
MTEXTEND
  0
POINT
  5
D031
330
CF90
100
AcDbEntity
  8
Defpoints
 62
     0
100
AcDbPoint
 10
316.0845603253786
 20
246.5394065079779
 30
0.0
  0
POINT
  5
D032
330
CF90
100
AcDbEntity
  8
Defpoints
 62
     0
100
AcDbPoint
 10
391.0845603253786
 20
246.5394065079779
 30
0.0
  0
POINT
  5
D033
330
CF90
100
AcDbEntity
  8
Defpoints
 62
     0
100
AcDbPoint
 10
391.0845603253786
 20
270.364844456357
 30
0.0
  0
ENDBLK
  5
CF9B
330
CF90
100
AcDbEntity
  8
0
 62
     0
100
AcDbBlockEnd
  0
BLOCK
  5
CFF3
330
CFE9
100
AcDbEntity
  8
0
 62
     0
100
AcDbBlockBegin
  2
*D6
 70
     1
 10
0.0
 20
0.0
 30
0.0
  3
*D6
  1

  0
LINE
  5
D034
330
CFE9
100
AcDbEntity
  8
DIMENSION
 62
     7
370
    25
100
AcDbLine
 10
236.8269543103814
 20
183.5394065079788
 30
0.0
 11
236.8269543103814
 21
163.008636680753
 31
0.0
  0
LINE
  5
D035
330
CFE9
100
AcDbEntity
  8
DIMENSION
 62
     7
370
    25
100
AcDbLine
 10
247.9269543103834
 20
183.5394065079788
 30
0.0
 11
247.9269543103834
 21
163.008636680753
 31
0.0
  0
LINE
  5
D036
330
CFE9
100
AcDbEntity
  8
DIMENSION
 62
     7
370
    25
100
AcDbLine
 10
240.3269543103814
 20
166.183636680753
 30
0.0
 11
244.4269543103834
 21
166.183636680753
 31
0.0
  0
SOLID
  5
D037
330
CFE9
100
AcDbEntity
  8
DIMENSION
 62
     7
100
AcDbTrace
 10
240.3269543103814
 20
166.7669700140863
 30
0.0
 11
240.3269543103814
 21
165.6003033474196
 31
0.0
 12
236.8269543103814
 22
166.183636680753
 32
0.0
 13
236.8269543103814
 23
166.183636680753
 33
0.0
  0
SOLID
  5
D038
330
CFE9
100
AcDbEntity
  8
DIMENSION
 62
     7
100
AcDbTrace
 10
244.4269543103834
 20
166.7669700140863
 30
0.0
 11
244.4269543103834
 21
165.6003033474196
 31
0.0
 12
247.9269543103834
 22
166.183636680753
 32
0.0
 13
247.9269543103834
 23
166.183636680753
 33
0.0
  0
MTEXT
  5
D039
330
CFE9
100
AcDbEntity
  8
DIMENSION
 62
     7
100
AcDbMText
 10
242.3769543103824
 20
168.7027990272741
 30
0.0
 40
3.5
 41
0.0
 71
     5
 72
     1
  1
\A1;11
  7
Current-BSI
 73
     1
 44
1.0
1001
ACAD
1000
MTEXTBEGIN
1070
    73
1070
     1
1070
    44
1040
1.0
1070
    74
1070
     0
1000
MTEXTEND
  0
POINT
  5
D03A
330
CFE9
100
AcDbEntity
  8
Defpoints
 62
     0
100
AcDbPoint
 10
236.8269543103814
 20
183.5394065079788
 30
0.0
  0
POINT
  5
D03B
330
CFE9
100
AcDbEntity
  8
Defpoints
 62
     0
100
AcDbPoint
 10
247.9269543103834
 20
183.5394065079788
 30
0.0
  0
POINT
  5
D03C
330
CFE9
100
AcDbEntity
  8
Defpoints
 62
     0
100
AcDbPoint
 10
247.9269543103834
 20
166.183636680753
 30
0.0
  0
ENDBLK
  5
CFF4
330
CFE9
100
AcDbEntity
  8
0
 62
     0
100
AcDbBlockEnd
  0
BLOCK
  5
D002
330
CFF6
100
AcDbEntity
  8
0
 62
     0
100
AcDbBlockBegin
  2
*D7
 70
     1
 10
0.0
 20
0.0
 30
0.0
  3
*D7
  1

  0
LINE
  5
D03D
330
CFF6
100
AcDbEntity
  8
DIMENSION
 62
     7
370
    25
100
AcDbLine
 10
391.0845603253786
 20
246.5394065079779
 30
0.0
 11
408.5007233062174
 21
246.5394065079779
 31
0.0
  0
LINE
  5
D03E
330
CFF6
100
AcDbEntity
  8
DIMENSION
 62
     7
370
    25
100
AcDbLine
 10
391.0845603253786
 20
240.0394065079779
 30
0.0
 11
408.5007233062174
 21
240.0394065079779
 31
0.0
  0
LINE
  5
D03F
330
CFF6
100
AcDbEntity
  8
DIMENSION
 62
     7
370
    25
100
AcDbLine
 10
405.3257233062174
 20
250.0394065079779
 30
0.0
 11
405.3257233062174
 21
253.5394065079779
 31
0.0
  0
LINE
  5
D040
330
CFF6
100
AcDbEntity
  8
DIMENSION
 62
     7
370
    25
100
AcDbLine
 10
405.3257233062174
 20
236.5394065079779
 30
0.0
 11
405.3257233062174
 21
233.0394065079779
 31
0.0
  0
LINE
  5
D041
330
CFF6
100
AcDbEntity
  8
DIMENSION
 62
     7
370
    25
100
AcDbLine
 10
405.3257233062174
 20
246.5394065079779
 30
0.0
 11
405.3257233062174
 21
240.0394065079779
 31
0.0
  0
SOLID
  5
D042
330
CFF6
100
AcDbEntity
  8
DIMENSION
 62
     7
100
AcDbTrace
 10
404.7423899728841
 20
250.0394065079779
 30
0.0
 11
405.9090566395507
 21
250.0394065079779
 31
0.0
 12
405.3257233062174
 22
246.5394065079779
 32
0.0
 13
405.3257233062174
 23
246.5394065079779
 33
0.0
  0
SOLID
  5
D043
330
CFF6
100
AcDbEntity
  8
DIMENSION
 62
     7
100
AcDbTrace
 10
404.7423899728841
 20
236.5394065079779
 30
0.0
 11
405.9090566395507
 21
236.5394065079779
 31
0.0
 12
405.3257233062174
 22
240.0394065079779
 32
0.0
 13
405.3257233062174
 23
240.0394065079779
 33
0.0
  0
MTEXT
  5
D044
330
CFF6
100
AcDbEntity
  8
DIMENSION
 62
     7
100
AcDbMText
 10
402.8137233062174
 20
243.2894065079779
 30
0.0
 40
3.5
 41
0.0
 71
     5
 72
     1
  1
\A1;7
  7
Current-BSI
 11
0.0000000000000001
 21
1.0
 31
0.0
 73
     1
 44
1.0
1001
ACAD
1000
MTEXTBEGIN
1070
    73
1070
     1
1070
    44
1040
1.0
1070
    74
1070
     0
1000
MTEXTEND
  0
POINT
  5
D045
330
CFF6
100
AcDbEntity
  8
Defpoints
 62
     0
100
AcDbPoint
 10
391.0845603253786
 20
246.5394065079779
 30
0.0
  0
POINT
  5
D046
330
CFF6
100
AcDbEntity
  8
Defpoints
 62
     0
100
AcDbPoint
 10
391.0845603253786
 20
240.0394065079779
 30
0.0
  0
POINT
  5
D047
330
CFF6
100
AcDbEntity
  8
Defpoints
 62
     0
100
AcDbPoint
 10
405.3257233062174
 20
240.0394065079779
 30
0.0
  0
ENDBLK
  5
D003
330
CFF6
100
AcDbEntity
  8
0
 62
     0
100
AcDbBlockEnd
  0
BLOCK
  5
D15A
330
D158
100
AcDbEntity
  8
0
 62
     0
100
AcDbBlockBegin
  2
GENAXEH
 70
     0
 10
0.0
 20
0.0
 30
0.0
  3
GENAXEH
  1

  0
LINE
  5
D159
330
D158
100
AcDbEntity
  8
0
100
AcDbLine
 10
-1.0
 20
0.0
 30
0.0
 11
1.0
 21
0.0
 31
0.0
  0
ENDBLK
  5
D15B
330
D158
100
AcDbEntity
  8
0
 62
     0
100
AcDbBlockEnd
  0
ENDSEC
  0
SECTION
  2
ENTITIES
  0
TEXT
  5
24D3
330
1F
100
AcDbEntity
  8
0
  6
Continuous
 62
     7
370
    -3
100
AcDbText
 10
-66.0966112499043
 20
405.6268835456228
 30
0.0
 40
2.5
  1
 
 41
0.9
 72
     5
 11
-63.84661124990429
 21
405.6268835456228
 31
0.0
100
AcDbText
  0
TEXT
  5
24D4
330
1F
100
AcDbEntity
  8
0
  6
Continuous
 62
     7
370
    -3
100
AcDbText
 10
-49.04661124990432
 20
405.6268835456228
 30
0.0
 40
2.5
  1
 
 41
0.9
 72
     5
 11
-46.79661124990431
 21
405.6268835456228
 31
0.0
100
AcDbText
  0
TEXT
  5
24D5
330
1F
100
AcDbEntity
  8
0
  6
Continuous
 62
     7
370
    -3
100
AcDbText
 10
-35.74661124990431
 20
405.6268835456228
 30
0.0
 40
2.5
  1
 
 41
0.9
 72
     5
 11
-33.49661124990431
 21
405.6268835456228
 31
0.0
100
AcDbText
  0
TEXT
  5
24DB
330
1F
100
AcDbEntity
  8
0
  6
Continuous
 62
     7
370
    -3
100
AcDbText
 10
-49.2466112499043
 20
395.7262803547229
 30
0.0
 40
3.5
  1
 
 41
0.9000000000000015
 72
     5
 11
-46.0966112499043
 21
395.7262803547229
 31
0.0
100
AcDbText
  0
TEXT
  5
24DC
330
1F
100
AcDbEntity
  8
0
  6
Continuous
 62
     7
370
    -3
100
AcDbText
 10
-49.2466112499043
 20
385.0262803547229
 30
0.0
 40
3.5
  1
 
 41
0.9000000000000015
 72
     5
 11
-46.0966112499043
 21
385.0262803547229
 31
0.0
100
AcDbText
  0
TEXT
  5
24E8
330
1F
100
AcDbEntity
  8
0
  6
Continuous
 62
     7
370
    -3
100
AcDbText
 10
135.2301326998957
 20
399.0893608700229
 30
0.0
 40
3.0
  1
 
 41
0.899999999999996
 72
     5
 11
137.9301326998957
 21
399.0893608700229
 31
0.0
100
AcDbText
  0
TEXT
  5
24E9
330
1F
100
AcDbEntity
  8
0
  6
Continuous
 62
     7
370
    -3
100
AcDbText
 10
134.7801326998957
 20
404.7393608700229
 30
0.0
 40
4.0
  1
 
 41
0.8999999999999914
 72
     5
 11
138.3801326998957
 21
404.7393608700229
 31
0.0
100
AcDbText
  0
TEXT
  5
2841
330
1F
100
AcDbEntity
  8
0
  6
Continuous
 62
     7
370
    -3
100
AcDbText
 10
937.4515353925906
 20
38.17384233355558
 30
0.0
 40
2.5
  1
 
 41
0.9
 72
     5
 11
939.7015353925906
 21
38.17384233355558
 31
0.0
100
AcDbText
  0
TEXT
  5
2842
330
1F
100
AcDbEntity
  8
0
  6
Continuous
 62
     7
370
    -3
100
AcDbText
 10
954.5015353925904
 20
38.17384233355558
 30
0.0
 40
2.5
  1
 
 41
0.9
 72
     5
 11
956.7515353925905
 21
38.17384233355558
 31
0.0
100
AcDbText
  0
TEXT
  5
2843
330
1F
100
AcDbEntity
  8
0
  6
Continuous
 62
     7
370
    -3
100
AcDbText
 10
967.8015353925905
 20
38.17384233355558
 30
0.0
 40
2.5
  1
 
 41
0.9
 72
     5
 11
970.0515353925906
 21
38.17384233355558
 31
0.0
100
AcDbText
  0
TEXT
  5
2849
330
1F
100
AcDbEntity
  8
0
  6
Continuous
 62
     7
370
    -3
100
AcDbText
 10
954.3015353925905
 20
28.27323914265557
 30
0.0
 40
3.5
  1
 
 41
0.8999999999999934
 72
     5
 11
957.4515353925905
 21
28.27323914265557
 31
0.0
100
AcDbText
  0
TEXT
  5
284A
330
1F
100
AcDbEntity
  8
0
  6
Continuous
 62
     7
370
    -3
100
AcDbText
 10
954.3015353925905
 20
17.57323914265557
 30
0.0
 40
3.5
  1
 
 41
0.8999999999999934
 72
     5
 11
957.4515353925905
 21
17.57323914265557
 31
0.0
100
AcDbText
  0
TEXT
  5
2856
330
1F
100
AcDbEntity
  8
0
  6
Continuous
 62
     7
370
    -3
100
AcDbText
 10
1138.77827934239
 20
31.63631965795558
 30
0.0
 40
3.0
  1
 
 41
0.900000000000015
 72
     5
 11
1141.47827934239
 21
31.63631965795558
 31
0.0
100
AcDbText
  0
TEXT
  5
2857
330
1F
100
AcDbEntity
  8
0
  6
Continuous
 62
     7
370
    -3
100
AcDbText
 10
1138.32827934239
 20
37.28631965795557
 30
0.0
 40
4.0
  1
 
 41
0.9000000000000341
 72
     5
 11
1141.928279342391
 21
37.28631965795557
 31
0.0
100
AcDbText
  0
TEXT
  5
75F5
330
1F
100
AcDbEntity
  8
0
  6
Continuous
 62
     7
370
    -3
100
AcDbText
 10
-79.53944253003147
 20
367.6886396669046
 30
0.0
 40
2.5
  1
 
 41
0.9
 72
     5
 11
-77.28944253003146
 21
367.6886396669046
 31
0.0
100
AcDbText
  0
TEXT
  5
75F6
330
1F
100
AcDbEntity
  8
0
  6
Continuous
 62
     7
370
    -3
100
AcDbText
 10
-62.48944253003148
 20
367.6886396669046
 30
0.0
 40
2.5
  1
 
 41
0.9
 72
     5
 11
-60.23944253003148
 21
367.6886396669046
 31
0.0
100
AcDbText
  0
TEXT
  5
75F7
330
1F
100
AcDbEntity
  8
0
  6
Continuous
 62
     7
370
    -3
100
AcDbText
 10
-49.18944253003147
 20
367.6886396669046
 30
0.0
 40
2.5
  1
 
 41
0.9
 72
     5
 11
-46.93944253003147
 21
367.6886396669046
 31
0.0
100
AcDbText
  0
TEXT
  5
75F8
330
1F
100
AcDbEntity
  8
0
  6
Continuous
 62
     7
370
    -3
100
AcDbText
 10
-62.68944253003147
 20
357.7880364760046
 30
0.0
 40
3.5
  1
 
 41
0.9000000000000015
 72
     5
 11
-59.53944253003147
 21
357.7880364760046
 31
0.0
100
AcDbText
  0
TEXT
  5
75F9
330
1F
100
AcDbEntity
  8
0
  6
Continuous
 62
     7
370
    -3
100
AcDbText
 10
-62.68944253003147
 20
347.0880364760045
 30
0.0
 40
3.5
  1
 
 41
0.9000000000000015
 72
     5
 11
-59.53944253003147
 21
347.0880364760045
 31
0.0
100
AcDbText
  0
TEXT
  5
75FA
330
1F
100
AcDbEntity
  8
0
  6
Continuous
 62
     7
370
    -3
100
AcDbText
 10
121.7873014197685
 20
361.1511169913046
 30
0.0
 40
3.0
  1
 
 41
0.899999999999996
 72
     5
 11
124.4873014197685
 21
361.1511169913046
 31
0.0
100
AcDbText
  0
TEXT
  5
75FB
330
1F
100
AcDbEntity
  8
0
  6
Continuous
 62
     7
370
    -3
100
AcDbText
 10
121.3373014197685
 20
366.8011169913046
 30
0.0
 40
4.0
  1
 
 41
0.8999999999999914
 72
     5
 11
124.9373014197685
 21
366.8011169913046
 31
0.0
100
AcDbText
  0
TEXT
  5
75FC
330
1F
100
AcDbEntity
  8
0
  6
Continuous
 62
     7
370
    -3
100
AcDbText
 10
924.0087041124635
 20
0.235598454837266
 30
0.0
 40
2.5
  1
 
 41
0.9
 72
     5
 11
926.2587041124634
 21
0.235598454837266
 31
0.0
100
AcDbText
  0
TEXT
  5
75FD
330
1F
100
AcDbEntity
  8
0
  6
Continuous
 62
     7
370
    -3
100
AcDbText
 10
941.0587041124633
 20
0.235598454837266
 30
0.0
 40
2.5
  1
 
 41
0.9
 72
     5
 11
943.3087041124634
 21
0.235598454837266
 31
0.0
100
AcDbText
  0
TEXT
  5
75FE
330
1F
100
AcDbEntity
  8
0
  6
Continuous
 62
     7
370
    -3
100
AcDbText
 10
954.3587041124634
 20
0.235598454837266
 30
0.0
 40
2.5
  1
 
 41
0.9
 72
     5
 11
956.6087041124633
 21
0.235598454837266
 31
0.0
100
AcDbText
  0
TEXT
  5
75FF
330
1F
100
AcDbEntity
  8
0
  6
Continuous
 62
     7
370
    -3
100
AcDbText
 10
940.8587041124635
 20
-9.665004736062737
 30
0.0
 40
3.5
  1
 
 41
0.8999999999999934
 72
     5
 11
944.0087041124634
 21
-9.665004736062737
 31
0.0
100
AcDbText
  0
TEXT
  5
7600
330
1F
100
AcDbEntity
  8
0
  6
Continuous
 62
     7
370
    -3
100
AcDbText
 10
940.8587041124635
 20
-20.36500473606274
 30
0.0
 40
3.5
  1
 
 41
0.8999999999999934
 72
     5
 11
944.0087041124634
 21
-20.36500473606274
 31
0.0
100
AcDbText
  0
TEXT
  5
7601
330
1F
100
AcDbEntity
  8
0
  6
Continuous
 62
     7
370
    -3
100
AcDbText
 10
1125.335448062263
 20
-6.301924220762735
 30
0.0
 40
3.0
  1
 
 41
0.900000000000015
 72
     5
 11
1128.035448062263
 21
-6.301924220762735
 31
0.0
100
AcDbText
  0
TEXT
  5
7602
330
1F
100
AcDbEntity
  8
0
  6
Continuous
 62
     7
370
    -3
100
AcDbText
 10
1124.885448062263
 20
-0.6519242207627372
 30
0.0
 40
4.0
  1
 
 41
0.9000000000000341
 72
     5
 11
1128.485448062263
 21
-0.6519242207627372
 31
0.0
100
AcDbText
  0
TEXT
  5
7664
330
1F
100
AcDbEntity
  8
0
  6
Continuous
 62
     7
370
    -3
100
AcDbText
 10
12.07675204446195
 20
401.7073045424243
 30
0.0
 40
2.5
  1
 
 41
0.9
 72
     5
 11
14.32675204446195
 21
401.7073045424243
 31
0.0
100
AcDbText
  0
TEXT
  5
7665
330
1F
100
AcDbEntity
  8
0
  6
Continuous
 62
     7
370
    -3
100
AcDbText
 10
29.12675204446194
 20
401.7073045424243
 30
0.0
 40
2.5
  1
 
 41
0.9
 72
     5
 11
31.37675204446194
 21
401.7073045424243
 31
0.0
100
AcDbText
  0
TEXT
  5
7666
330
1F
100
AcDbEntity
  8
0
  6
Continuous
 62
     7
370
    -3
100
AcDbText
 10
42.42675204446195
 20
401.7073045424243
 30
0.0
 40
2.5
  1
 
 41
0.9
 72
     5
 11
44.67675204446194
 21
401.7073045424243
 31
0.0
100
AcDbText
  0
TEXT
  5
7667
330
1F
100
AcDbEntity
  8
0
  6
Continuous
 62
     7
370
    -3
100
AcDbText
 10
28.92675204446195
 20
391.8067013515244
 30
0.0
 40
3.5
  1
 
 41
0.9000000000000015
 72
     5
 11
32.07675204446196
 21
391.8067013515244
 31
0.0
100
AcDbText
  0
TEXT
  5
7668
330
1F
100
AcDbEntity
  8
0
  6
Continuous
 62
     7
370
    -3
100
AcDbText
 10
28.92675204446195
 20
381.1067013515243
 30
0.0
 40
3.5
  1
 
 41
0.9000000000000015
 72
     5
 11
32.07675204446196
 21
381.1067013515243
 31
0.0
100
AcDbText
  0
TEXT
  5
7669
330
1F
100
AcDbEntity
  8
0
  6
Continuous
 62
     7
370
    -3
100
AcDbText
 10
213.403495994262
 20
395.1697818668244
 30
0.0
 40
3.0
  1
 
 41
0.899999999999996
 72
     5
 11
216.1034959942619
 21
395.1697818668244
 31
0.0
100
AcDbText
  0
TEXT
  5
766A
330
1F
100
AcDbEntity
  8
0
  6
Continuous
 62
     7
370
    -3
100
AcDbText
 10
212.953495994262
 20
400.8197818668243
 30
0.0
 40
4.0
  1
 
 41
0.8999999999999914
 72
     5
 11
216.5534959942619
 21
400.8197818668243
 31
0.0
100
AcDbText
  0
TEXT
  5
766B
330
1F
100
AcDbEntity
  8
0
  6
Continuous
 62
     7
370
    -3
100
AcDbText
 10
1015.624898686957
 20
34.25426333035705
 30
0.0
 40
2.5
  1
 
 41
0.9
 72
     5
 11
1017.874898686957
 21
34.25426333035705
 31
0.0
100
AcDbText
  0
TEXT
  5
766C
330
1F
100
AcDbEntity
  8
0
  6
Continuous
 62
     7
370
    -3
100
AcDbText
 10
1032.674898686956
 20
34.25426333035705
 30
0.0
 40
2.5
  1
 
 41
0.9
 72
     5
 11
1034.924898686957
 21
34.25426333035705
 31
0.0
100
AcDbText
  0
TEXT
  5
766D
330
1F
100
AcDbEntity
  8
0
  6
Continuous
 62
     7
370
    -3
100
AcDbText
 10
1045.974898686957
 20
34.25426333035705
 30
0.0
 40
2.5
  1
 
 41
0.9
 72
     5
 11
1048.224898686957
 21
34.25426333035705
 31
0.0
100
AcDbText
  0
TEXT
  5
766E
330
1F
100
AcDbEntity
  8
0
  6
Continuous
 62
     7
370
    -3
100
AcDbText
 10
1032.474898686957
 20
24.35366013945705
 30
0.0
 40
3.5
  1
 
 41
0.899999999999961
 72
     5
 11
1035.624898686957
 21
24.35366013945705
 31
0.0
100
AcDbText
  0
TEXT
  5
766F
330
1F
100
AcDbEntity
  8
0
  6
Continuous
 62
     7
370
    -3
100
AcDbText
 10
1032.474898686957
 20
13.65366013945705
 30
0.0
 40
3.5
  1
 
 41
0.899999999999961
 72
     5
 11
1035.624898686957
 21
13.65366013945705
 31
0.0
100
AcDbText
  0
TEXT
  5
7670
330
1F
100
AcDbEntity
  8
0
  6
Continuous
 62
     7
370
    -3
100
AcDbText
 10
1216.951642636757
 20
27.71674065475705
 30
0.0
 40
3.0
  1
 
 41
0.900000000000015
 72
     5
 11
1219.651642636757
 21
27.71674065475705
 31
0.0
100
AcDbText
  0
TEXT
  5
7671
330
1F
100
AcDbEntity
  8
0
  6
Continuous
 62
     7
370
    -3
100
AcDbText
 10
1216.501642636757
 20
33.36674065475705
 30
0.0
 40
4.0
  1
 
 41
0.9000000000000341
 72
     5
 11
1220.101642636757
 21
33.36674065475705
 31
0.0
100
AcDbText
  0
TEXT
  5
8CEA
330
1F
100
AcDbEntity
  8
0
  6
Continuous
 62
     7
370
    -3
100
AcDbText
 10
127.7054187129383
 20
490.2568636082961
 30
0.0
 40
2.5
  1
 
 41
0.9
 72
     5
 11
129.9554187129383
 21
490.2568636082961
 31
0.0
100
AcDbText
  0
TEXT
  5
8CEB
330
1F
100
AcDbEntity
  8
0
  6
Continuous
 62
     7
370
    -3
100
AcDbText
 10
144.7554187129383
 20
490.2568636082961
 30
0.0
 40
2.5
  1
 
 41
0.9
 72
     5
 11
147.0054187129383
 21
490.2568636082961
 31
0.0
100
AcDbText
  0
TEXT
  5
8CEC
330
1F
100
AcDbEntity
  8
0
  6
Continuous
 62
     7
370
    -3
100
AcDbText
 10
158.0554187129383
 20
490.2568636082961
 30
0.0
 40
2.5
  1
 
 41
0.9
 72
     5
 11
160.3054187129383
 21
490.2568636082961
 31
0.0
100
AcDbText
  0
TEXT
  5
8CED
330
1F
100
AcDbEntity
  8
0
  6
Continuous
 62
     7
370
    -3
100
AcDbText
 10
144.5554187129383
 20
480.3562604173962
 30
0.0
 40
3.5
  1
 
 41
0.9000000000000015
 72
     5
 11
147.7054187129383
 21
480.3562604173962
 31
0.0
100
AcDbText
  0
TEXT
  5
8CEE
330
1F
100
AcDbEntity
  8
0
  6
Continuous
 62
     7
370
    -3
100
AcDbText
 10
144.5554187129383
 20
469.6562604173961
 30
0.0
 40
3.5
  1
 
 41
0.9000000000000015
 72
     5
 11
147.7054187129383
 21
469.6562604173961
 31
0.0
100
AcDbText
  0
TEXT
  5
8CEF
330
1F
100
AcDbEntity
  8
0
  6
Continuous
 62
     7
370
    -3
100
AcDbText
 10
329.0321626627384
 20
483.7193409326962
 30
0.0
 40
3.0
  1
 
 41
0.899999999999996
 72
     5
 11
331.7321626627383
 21
483.7193409326962
 31
0.0
100
AcDbText
  0
TEXT
  5
8CF0
330
1F
100
AcDbEntity
  8
0
  6
Continuous
 62
     7
370
    -3
100
AcDbText
 10
328.5821626627384
 20
489.3693409326962
 30
0.0
 40
4.0
  1
 
 41
0.8999999999999914
 72
     5
 11
332.1821626627383
 21
489.3693409326962
 31
0.0
100
AcDbText
  0
TEXT
  5
8CF1
330
1F
100
AcDbEntity
  8
0
  6
Continuous
 62
     7
370
    -3
100
AcDbText
 10
1131.253565355433
 20
122.8038223962289
 30
0.0
 40
2.5
  1
 
 41
0.9
 72
     5
 11
1133.503565355433
 21
122.8038223962289
 31
0.0
100
AcDbText
  0
TEXT
  5
8CF2
330
1F
100
AcDbEntity
  8
0
  6
Continuous
 62
     7
370
    -3
100
AcDbText
 10
1148.303565355433
 20
122.8038223962289
 30
0.0
 40
2.5
  1
 
 41
0.9
 72
     5
 11
1150.553565355433
 21
122.8038223962289
 31
0.0
100
AcDbText
  0
TEXT
  5
8CF3
330
1F
100
AcDbEntity
  8
0
  6
Continuous
 62
     7
370
    -3
100
AcDbText
 10
1161.603565355433
 20
122.8038223962289
 30
0.0
 40
2.5
  1
 
 41
0.9
 72
     5
 11
1163.853565355433
 21
122.8038223962289
 31
0.0
100
AcDbText
  0
TEXT
  5
8CF4
330
1F
100
AcDbEntity
  8
0
  6
Continuous
 62
     7
370
    -3
100
AcDbText
 10
1148.103565355433
 20
112.9032192053289
 30
0.0
 40
3.5
  1
 
 41
0.9000000000000259
 72
     5
 11
1151.253565355433
 21
112.9032192053289
 31
0.0
100
AcDbText
  0
TEXT
  5
8CF5
330
1F
100
AcDbEntity
  8
0
  6
Continuous
 62
     7
370
    -3
100
AcDbText
 10
1148.103565355433
 20
102.2032192053289
 30
0.0
 40
3.5
  1
 
 41
0.9000000000000259
 72
     5
 11
1151.253565355433
 21
102.2032192053289
 31
0.0
100
AcDbText
  0
TEXT
  5
8CF6
330
1F
100
AcDbEntity
  8
0
  6
Continuous
 62
     7
370
    -3
100
AcDbText
 10
1332.580309305233
 20
116.2662997206289
 30
0.0
 40
3.0
  1
 
 41
0.900000000000015
 72
     5
 11
1335.280309305233
 21
116.2662997206289
 31
0.0
100
AcDbText
  0
TEXT
  5
8CF7
330
1F
100
AcDbEntity
  8
0
  6
Continuous
 62
     7
370
    -3
100
AcDbText
 10
1332.130309305233
 20
121.9162997206289
 30
0.0
 40
4.0
  1
 
 41
0.9000000000000341
 72
     5
 11
1335.730309305233
 21
121.9162997206289
 31
0.0
100
AcDbText
  0
TEXT
  5
8D0F
330
1F
100
AcDbEntity
  8
0
  6
Continuous
 62
     7
370
    -3
100
AcDbText
 10
114.2625874328112
 20
452.3186197295778
 30
0.0
 40
2.5
  1
 
 41
0.9
 72
     5
 11
116.5125874328112
 21
452.3186197295778
 31
0.0
100
AcDbText
  0
TEXT
  5
8D10
330
1F
100
AcDbEntity
  8
0
  6
Continuous
 62
     7
370
    -3
100
AcDbText
 10
131.3125874328112
 20
452.3186197295778
 30
0.0
 40
2.5
  1
 
 41
0.9
 72
     5
 11
133.5625874328111
 21
452.3186197295778
 31
0.0
100
AcDbText
  0
TEXT
  5
8D11
330
1F
100
AcDbEntity
  8
0
  6
Continuous
 62
     7
370
    -3
100
AcDbText
 10
144.6125874328112
 20
452.3186197295778
 30
0.0
 40
2.5
  1
 
 41
0.9
 72
     5
 11
146.8625874328111
 21
452.3186197295778
 31
0.0
100
AcDbText
  0
TEXT
  5
8D12
330
1F
100
AcDbEntity
  8
0
  6
Continuous
 62
     7
370
    -3
100
AcDbText
 10
131.1125874328112
 20
442.4180165386779
 30
0.0
 40
3.5
  1
 
 41
0.9000000000000015
 72
     5
 11
134.2625874328112
 21
442.4180165386779
 31
0.0
100
AcDbText
  0
TEXT
  5
8D13
330
1F
100
AcDbEntity
  8
0
  6
Continuous
 62
     7
370
    -3
100
AcDbText
 10
131.1125874328112
 20
431.7180165386779
 30
0.0
 40
3.5
  1
 
 41
0.9000000000000015
 72
     5
 11
134.2625874328112
 21
431.7180165386779
 31
0.0
100
AcDbText
  0
TEXT
  5
8D14
330
1F
100
AcDbEntity
  8
0
  6
Continuous
 62
     7
370
    -3
100
AcDbText
 10
315.5893313826112
 20
445.7810970539779
 30
0.0
 40
3.0
  1
 
 41
0.899999999999996
 72
     5
 11
318.2893313826112
 21
445.7810970539779
 31
0.0
100
AcDbText
  0
TEXT
  5
8D15
330
1F
100
AcDbEntity
  8
0
  6
Continuous
 62
     7
370
    -3
100
AcDbText
 10
315.1393313826112
 20
451.4310970539779
 30
0.0
 40
4.0
  1
 
 41
0.8999999999999914
 72
     5
 11
318.7393313826112
 21
451.4310970539779
 31
0.0
100
AcDbText
  0
TEXT
  5
8D16
330
1F
100
AcDbEntity
  8
0
  6
Continuous
 62
     7
370
    -3
100
AcDbText
 10
1117.810734075306
 20
84.86557851751058
 30
0.0
 40
2.5
  1
 
 41
0.9
 72
     5
 11
1120.060734075306
 21
84.86557851751058
 31
0.0
100
AcDbText
  0
TEXT
  5
8D17
330
1F
100
AcDbEntity
  8
0
  6
Continuous
 62
     7
370
    -3
100
AcDbText
 10
1134.860734075306
 20
84.86557851751058
 30
0.0
 40
2.5
  1
 
 41
0.9
 72
     5
 11
1137.110734075306
 21
84.86557851751058
 31
0.0
100
AcDbText
  0
TEXT
  5
8D18
330
1F
100
AcDbEntity
  8
0
  6
Continuous
 62
     7
370
    -3
100
AcDbText
 10
1148.160734075306
 20
84.86557851751058
 30
0.0
 40
2.5
  1
 
 41
0.9
 72
     5
 11
1150.410734075306
 21
84.86557851751058
 31
0.0
100
AcDbText
  0
TEXT
  5
8D19
330
1F
100
AcDbEntity
  8
0
  6
Continuous
 62
     7
370
    -3
100
AcDbText
 10
1134.660734075306
 20
74.96497532661059
 30
0.0
 40
3.5
  1
 
 41
0.899999999999961
 72
     5
 11
1137.810734075306
 21
74.96497532661059
 31
0.0
100
AcDbText
  0
TEXT
  5
8D1A
330
1F
100
AcDbEntity
  8
0
  6
Continuous
 62
     7
370
    -3
100
AcDbText
 10
1134.660734075306
 20
64.26497532661059
 30
0.0
 40
3.5
  1
 
 41
0.899999999999961
 72
     5
 11
1137.810734075306
 21
64.26497532661059
 31
0.0
100
AcDbText
  0
TEXT
  5
8D1B
330
1F
100
AcDbEntity
  8
0
  6
Continuous
 62
     7
370
    -3
100
AcDbText
 10
1319.137478025106
 20
78.32805584191058
 30
0.0
 40
3.0
  1
 
 41
0.900000000000015
 72
     5
 11
1321.837478025106
 21
78.32805584191058
 31
0.0
100
AcDbText
  0
TEXT
  5
8D1C
330
1F
100
AcDbEntity
  8
0
  6
Continuous
 62
     7
370
    -3
100
AcDbText
 10
1318.687478025106
 20
83.97805584191059
 30
0.0
 40
4.0
  1
 
 41
0.9000000000000341
 72
     5
 11
1322.287478025106
 21
83.97805584191059
 31
0.0
100
AcDbText
  0
TEXT
  5
8D1D
330
1F
100
AcDbEntity
  8
0
  6
Continuous
 62
     7
370
    -3
100
AcDbText
 10
205.8787820073046
 20
486.3372846050976
 30
0.0
 40
2.5
  1
 
 41
0.9
 72
     5
 11
208.1287820073046
 21
486.3372846050976
 31
0.0
100
AcDbText
  0
TEXT
  5
8D1E
330
1F
100
AcDbEntity
  8
0
  6
Continuous
 62
     7
370
    -3
100
AcDbText
 10
222.9287820073046
 20
486.3372846050976
 30
0.0
 40
2.5
  1
 
 41
0.9
 72
     5
 11
225.1787820073046
 21
486.3372846050976
 31
0.0
100
AcDbText
  0
TEXT
  5
8D1F
330
1F
100
AcDbEntity
  8
0
  6
Continuous
 62
     7
370
    -3
100
AcDbText
 10
236.2287820073046
 20
486.3372846050976
 30
0.0
 40
2.5
  1
 
 41
0.9
 72
     5
 11
238.4787820073046
 21
486.3372846050976
 31
0.0
100
AcDbText
  0
TEXT
  5
8D20
330
1F
100
AcDbEntity
  8
0
  6
Continuous
 62
     7
370
    -3
100
AcDbText
 10
222.7287820073046
 20
476.4366814141977
 30
0.0
 40
3.5
  1
 
 41
0.9000000000000015
 72
     5
 11
225.8787820073046
 21
476.4366814141977
 31
0.0
100
AcDbText
  0
TEXT
  5
8D21
330
1F
100
AcDbEntity
  8
0
  6
Continuous
 62
     7
370
    -3
100
AcDbText
 10
222.7287820073046
 20
465.7366814141976
 30
0.0
 40
3.5
  1
 
 41
0.9000000000000015
 72
     5
 11
225.8787820073046
 21
465.7366814141976
 31
0.0
100
AcDbText
  0
TEXT
  5
8D22
330
1F
100
AcDbEntity
  8
0
  6
Continuous
 62
     7
370
    -3
100
AcDbText
 10
407.2055259571046
 20
479.7997619294977
 30
0.0
 40
3.0
  1
 
 41
0.899999999999996
 72
     5
 11
409.9055259571046
 21
479.7997619294977
 31
0.0
100
AcDbText
  0
TEXT
  5
8D23
330
1F
100
AcDbEntity
  8
0
  6
Continuous
 62
     7
370
    -3
100
AcDbText
 10
406.7555259571046
 20
485.4497619294977
 30
0.0
 40
4.0
  1
 
 41
0.8999999999999914
 72
     5
 11
410.3555259571045
 21
485.4497619294977
 31
0.0
100
AcDbText
  0
TEXT
  5
8D24
330
1F
100
AcDbEntity
  8
0
  6
Continuous
 62
     7
370
    -3
100
AcDbText
 10
1209.426928649799
 20
118.8842433930304
 30
0.0
 40
2.5
  1
 
 41
0.9
 72
     5
 11
1211.676928649799
 21
118.8842433930304
 31
0.0
100
AcDbText
  0
TEXT
  5
8D25
330
1F
100
AcDbEntity
  8
0
  6
Continuous
 62
     7
370
    -3
100
AcDbText
 10
1226.476928649799
 20
118.8842433930304
 30
0.0
 40
2.5
  1
 
 41
0.9
 72
     5
 11
1228.726928649799
 21
118.8842433930304
 31
0.0
100
AcDbText
  0
TEXT
  5
8D26
330
1F
100
AcDbEntity
  8
0
  6
Continuous
 62
     7
370
    -3
100
AcDbText
 10
1239.776928649799
 20
118.8842433930304
 30
0.0
 40
2.5
  1
 
 41
0.9
 72
     5
 11
1242.0269286498
 21
118.8842433930304
 31
0.0
100
AcDbText
  0
TEXT
  5
8D27
330
1F
100
AcDbEntity
  8
0
  6
Continuous
 62
     7
370
    -3
100
AcDbText
 10
1226.2769286498
 20
108.9836402021304
 30
0.0
 40
3.5
  1
 
 41
0.899999999999961
 72
     5
 11
1229.426928649799
 21
108.9836402021304
 31
0.0
100
AcDbText
  0
TEXT
  5
8D28
330
1F
100
AcDbEntity
  8
0
  6
Continuous
 62
     7
370
    -3
100
AcDbText
 10
1226.2769286498
 20
98.28364020213038
 30
0.0
 40
3.5
  1
 
 41
0.899999999999961
 72
     5
 11
1229.426928649799
 21
98.28364020213038
 31
0.0
100
AcDbText
  0
TEXT
  5
8D29
330
1F
100
AcDbEntity
  8
0
  6
Continuous
 62
     7
370
    -3
100
AcDbText
 10
1410.753672599599
 20
112.3467207174303
 30
0.0
 40
3.0
  1
 
 41
0.900000000000015
 72
     5
 11
1413.453672599599
 21
112.3467207174303
 31
0.0
100
AcDbText
  0
TEXT
  5
8D2A
330
1F
100
AcDbEntity
  8
0
  6
Continuous
 62
     7
370
    -3
100
AcDbText
 10
1410.303672599599
 20
117.9967207174303
 30
0.0
 40
4.0
  1
 
 41
0.9000000000000341
 72
     5
 11
1413.903672599599
 21
117.9967207174303
 31
0.0
100
AcDbText
  0
TEXT
  5
8D66
330
1F
100
AcDbEntity
  8
0
  6
Continuous
 62
     7
370
    -3
100
AcDbText
 10
-35724.54779924528
 20
4782.953127938831
 30
0.0
 40
2.5
  1
 
 41
0.9
 72
     5
 11
-35722.29779924528
 21
4782.953127938831
 31
0.0
100
AcDbText
  0
TEXT
  5
8D67
330
1F
100
AcDbEntity
  8
0
  6
Continuous
 62
     7
370
    -3
100
AcDbText
 10
-35707.49779924529
 20
4782.953127938831
 30
0.0
 40
2.5
  1
 
 41
0.9
 72
     5
 11
-35705.24779924529
 21
4782.953127938831
 31
0.0
100
AcDbText
  0
TEXT
  5
8D68
330
1F
100
AcDbEntity
  8
0
  6
Continuous
 62
     7
370
    -3
100
AcDbText
 10
-35694.19779924528
 20
4782.953127938831
 30
0.0
 40
2.5
  1
 
 41
0.9
 72
     5
 11
-35691.94779924528
 21
4782.953127938831
 31
0.0
100
AcDbText
  0
TEXT
  5
8D69
330
1F
100
AcDbEntity
  8
0
  6
Continuous
 62
     7
370
    -3
100
AcDbText
 10
-35707.69779924528
 20
4773.052524747932
 30
0.0
 40
3.5
  1
 
 41
0.9000000000004158
 72
     5
 11
-35704.54779924528
 21
4773.052524747932
 31
0.0
100
AcDbText
  0
TEXT
  5
8D6A
330
1F
100
AcDbEntity
  8
0
  6
Continuous
 62
     7
370
    -3
100
AcDbText
 10
-35707.69779924528
 20
4762.352524747932
 30
0.0
 40
3.5
  1
 
 41
0.9000000000004158
 72
     5
 11
-35704.54779924528
 21
4762.352524747932
 31
0.0
100
AcDbText
  0
TEXT
  5
8D6B
330
1F
100
AcDbEntity
  8
0
  6
Continuous
 62
     7
370
    -3
100
AcDbText
 10
-35523.22105529549
 20
4776.415605263231
 30
0.0
 40
3.0
  1
 
 41
0.9000000000014551
 72
     5
 11
-35520.52105529548
 21
4776.415605263231
 31
0.0
100
AcDbText
  0
TEXT
  5
8D6C
330
1F
100
AcDbEntity
  8
0
  6
Continuous
 62
     7
370
    -3
100
AcDbText
 10
-35523.67105529548
 20
4782.065605263232
 30
0.0
 40
4.0
  1
 
 41
0.8999999999996362
 72
     5
 11
-35520.07105529549
 21
4782.065605263232
 31
0.0
100
AcDbText
  0
TEXT
  5
8D6D
330
1F
100
AcDbEntity
  8
0
  6
Continuous
 62
     7
370
    -3
100
AcDbText
 10
-34720.99965260279
 20
4415.500086726765
 30
0.0
 40
2.5
  1
 
 41
0.9
 72
     5
 11
-34718.74965260279
 21
4415.500086726765
 31
0.0
100
AcDbText
  0
TEXT
  5
8D6E
330
1F
100
AcDbEntity
  8
0
  6
Continuous
 62
     7
370
    -3
100
AcDbText
 10
-34703.94965260279
 20
4415.500086726765
 30
0.0
 40
2.5
  1
 
 41
0.9
 72
     5
 11
-34701.69965260279
 21
4415.500086726765
 31
0.0
100
AcDbText
  0
TEXT
  5
8D6F
330
1F
100
AcDbEntity
  8
0
  6
Continuous
 62
     7
370
    -3
100
AcDbText
 10
-34690.64965260279
 20
4415.500086726765
 30
0.0
 40
2.5
  1
 
 41
0.9
 72
     5
 11
-34688.39965260279
 21
4415.500086726765
 31
0.0
100
AcDbText
  0
TEXT
  5
8D70
330
1F
100
AcDbEntity
  8
0
  6
Continuous
 62
     7
370
    -3
100
AcDbText
 10
-34704.14965260279
 20
4405.599483535865
 30
0.0
 40
3.5
  1
 
 41
0.9000000000004158
 72
     5
 11
-34700.99965260279
 21
4405.599483535865
 31
0.0
100
AcDbText
  0
TEXT
  5
8D71
330
1F
100
AcDbEntity
  8
0
  6
Continuous
 62
     7
370
    -3
100
AcDbText
 10
-34704.14965260279
 20
4394.899483535865
 30
0.0
 40
3.5
  1
 
 41
0.9000000000004158
 72
     5
 11
-34700.99965260279
 21
4394.899483535865
 31
0.0
100
AcDbText
  0
TEXT
  5
8D72
330
1F
100
AcDbEntity
  8
0
  6
Continuous
 62
     7
370
    -3
100
AcDbText
 10
-34519.67290865299
 20
4408.962564051164
 30
0.0
 40
3.0
  1
 
 41
0.8999999999990297
 72
     5
 11
-34516.97290865299
 21
4408.962564051164
 31
0.0
100
AcDbText
  0
TEXT
  5
8D73
330
1F
100
AcDbEntity
  8
0
  6
Continuous
 62
     7
370
    -3
100
AcDbText
 10
-34520.12290865299
 20
4414.612564051164
 30
0.0
 40
4.0
  1
 
 41
0.8999999999996362
 72
     5
 11
-34516.52290865299
 21
4414.612564051164
 31
0.0
100
AcDbText
  0
TEXT
  5
8D74
330
1F
100
AcDbEntity
  8
0
  6
Continuous
 62
     7
370
    -3
100
AcDbText
 10
493.2337990972103
 20
289.1830220889136
 30
0.0
 40
2.5
  1
 
 41
0.9
 72
     5
 11
495.4837990972102
 21
289.1830220889136
 31
0.0
100
AcDbText
  0
TEXT
  5
8D75
330
1F
100
AcDbEntity
  8
0
  6
Continuous
 62
     7
370
    -3
100
AcDbText
 10
510.2837990972059
 20
289.1830220889136
 30
0.0
 40
2.5
  1
 
 41
0.9
 72
     5
 11
512.5337990972059
 21
289.1830220889136
 31
0.0
100
AcDbText
  0
TEXT
  5
8D76
330
1F
100
AcDbEntity
  8
0
  6
Continuous
 62
     7
370
    -3
100
AcDbText
 10
523.5837990972088
 20
289.1830220889136
 30
0.0
 40
2.5
  1
 
 41
0.9
 72
     5
 11
525.8337990972088
 21
289.1830220889136
 31
0.0
100
AcDbText
  0
TEXT
  5
8D77
330
1F
100
AcDbEntity
  8
0
  6
Continuous
 62
     7
370
    -3
100
AcDbText
 10
510.0837990972088
 20
279.2824188980134
 30
0.0
 40
3.5
  1
 
 41
0.9000000000004158
 72
     5
 11
513.2337990972103
 21
279.2824188980134
 31
0.0
100
AcDbText
  0
TEXT
  5
8D78
330
1F
100
AcDbEntity
  8
0
  6
Continuous
 62
     7
370
    -3
100
AcDbText
 10
510.0837990972088
 20
268.5824188980135
 30
0.0
 40
3.5
  1
 
 41
0.9000000000004158
 72
     5
 11
513.2337990972103
 21
268.5824188980135
 31
0.0
100
AcDbText
  0
TEXT
  5
8D79
330
1F
100
AcDbEntity
  8
0
  6
Continuous
 62
     7
370
    -3
100
AcDbText
 10
694.5605430470043
 20
282.6454994133136
 30
0.0
 40
3.0
  1
 
 41
0.9000000000014551
 72
     5
 11
697.2605430470086
 21
282.6454994133136
 31
0.0
100
AcDbText
  0
TEXT
  5
8D7A
330
1F
100
AcDbEntity
  8
0
  6
Continuous
 62
     7
370
    -3
100
AcDbText
 10
694.1105430470072
 20
288.2954994133137
 30
0.0
 40
4.0
  1
 
 41
0.8999999999996362
 72
     5
 11
697.7105430470057
 21
288.2954994133137
 31
0.0
100
AcDbText
  0
TEXT
  5
8D7B
330
1F
100
AcDbEntity
  8
0
  6
Continuous
 62
     7
370
    -3
100
AcDbText
 10
1496.7819457397
 20
-78.27001912315393
 30
0.0
 40
2.5
  1
 
 41
0.9
 72
     5
 11
1499.0319457397
 21
-78.27001912315393
 31
0.0
100
AcDbText
  0
TEXT
  5
8D7C
330
1F
100
AcDbEntity
  8
0
  6
Continuous
 62
     7
370
    -3
100
AcDbText
 10
1513.831945739703
 20
-78.27001912315393
 30
0.0
 40
2.5
  1
 
 41
0.9
 72
     5
 11
1516.081945739703
 21
-78.27001912315393
 31
0.0
100
AcDbText
  0
TEXT
  5
8D7D
330
1F
100
AcDbEntity
  8
0
  6
Continuous
 62
     7
370
    -3
100
AcDbText
 10
1527.131945739698
 20
-78.27001912315393
 30
0.0
 40
2.5
  1
 
 41
0.9
 72
     5
 11
1529.381945739699
 21
-78.27001912315393
 31
0.0
100
AcDbText
  0
TEXT
  5
8D7E
330
1F
100
AcDbEntity
  8
0
  6
Continuous
 62
     7
370
    -3
100
AcDbText
 10
1513.631945739699
 20
-88.17062231405419
 30
0.0
 40
3.5
  1
 
 41
0.9000000000004158
 72
     5
 11
1516.7819457397
 21
-88.17062231405419
 31
0.0
100
AcDbText
  0
TEXT
  5
8D7F
330
1F
100
AcDbEntity
  8
0
  6
Continuous
 62
     7
370
    -3
100
AcDbText
 10
1513.631945739699
 20
-98.87062231405401
 30
0.0
 40
3.5
  1
 
 41
0.9000000000004158
 72
     5
 11
1516.7819457397
 21
-98.87062231405401
 31
0.0
100
AcDbText
  0
TEXT
  5
8D80
330
1F
100
AcDbEntity
  8
0
  6
Continuous
 62
     7
370
    -3
100
AcDbText
 10
1698.108689689501
 20
-84.80754179875351
 30
0.0
 40
3.0
  1
 
 41
0.8999999999990297
 72
     5
 11
1700.808689689498
 21
-84.80754179875351
 31
0.0
100
AcDbText
  0
TEXT
  5
8D81
330
1F
100
AcDbEntity
  8
0
  6
Continuous
 62
     7
370
    -3
100
AcDbText
 10
1697.658689689504
 20
-79.15754179875387
 30
0.0
 40
4.0
  1
 
 41
0.8999999999996362
 72
     5
 11
1701.258689689503
 21
-79.15754179875387
 31
0.0
100
AcDbText
  0
TEXT
  5
8D82
330
1F
100
AcDbEntity
  8
0
  6
Continuous
 62
     7
370
    -3
100
AcDbText
 10
479.7909678170783
 20
251.2447782101948
 30
0.0
 40
2.5
  1
 
 41
0.9
 72
     5
 11
482.0409678170783
 21
251.2447782101948
 31
0.0
100
AcDbText
  0
TEXT
  5
8D83
330
1F
100
AcDbEntity
  8
0
  6
Continuous
 62
     7
370
    -3
100
AcDbText
 10
496.8409678170813
 20
251.2447782101948
 30
0.0
 40
2.5
  1
 
 41
0.9
 72
     5
 11
499.0909678170813
 21
251.2447782101948
 31
0.0
100
AcDbText
  0
TEXT
  5
8D84
330
1F
100
AcDbEntity
  8
0
  6
Continuous
 62
     7
370
    -3
100
AcDbText
 10
510.1409678170768
 20
251.2447782101948
 30
0.0
 40
2.5
  1
 
 41
0.9
 72
     5
 11
512.3909678170768
 21
251.2447782101948
 31
0.0
100
AcDbText
  0
TEXT
  5
8D85
330
1F
100
AcDbEntity
  8
0
  6
Continuous
 62
     7
370
    -3
100
AcDbText
 10
496.6409678170768
 20
241.3441750192955
 30
0.0
 40
3.5
  1
 
 41
0.9000000000004158
 72
     5
 11
499.7909678170783
 21
241.3441750192955
 31
0.0
100
AcDbText
  0
TEXT
  5
8D86
330
1F
100
AcDbEntity
  8
0
  6
Continuous
 62
     7
370
    -3
100
AcDbText
 10
496.6409678170768
 20
230.6441750192947
 30
0.0
 40
3.5
  1
 
 41
0.9000000000004158
 72
     5
 11
499.7909678170783
 21
230.6441750192947
 31
0.0
100
AcDbText
  0
TEXT
  5
8D87
330
1F
100
AcDbEntity
  8
0
  6
Continuous
 62
     7
370
    -3
100
AcDbText
 10
681.1177117668797
 20
244.7072555345952
 30
0.0
 40
3.0
  1
 
 41
0.8999999999990297
 72
     5
 11
683.8177117668768
 21
244.7072555345952
 31
0.0
100
AcDbText
  0
TEXT
  5
8D88
330
1F
100
AcDbEntity
  8
0
  6
Continuous
 62
     7
370
    -3
100
AcDbText
 10
680.6677117668826
 20
250.3572555345948
 30
0.0
 40
4.0
  1
 
 41
0.8999999999996362
 72
     5
 11
684.2677117668811
 21
250.3572555345948
 31
0.0
100
AcDbText
  0
TEXT
  5
8D89
330
1F
100
AcDbEntity
  8
0
  6
Continuous
 62
     7
370
    -3
100
AcDbText
 10
1483.339114459575
 20
-116.2082630018718
 30
0.0
 40
2.5
  1
 
 41
0.9
 72
     5
 11
1485.589114459575
 21
-116.2082630018718
 31
0.0
100
AcDbText
  0
TEXT
  5
8D8A
330
1F
100
AcDbEntity
  8
0
  6
Continuous
 62
     7
370
    -3
100
AcDbText
 10
1500.389114459571
 20
-116.2082630018718
 30
0.0
 40
2.5
  1
 
 41
0.9
 72
     5
 11
1502.639114459571
 21
-116.2082630018718
 31
0.0
100
AcDbText
  0
TEXT
  5
8D8B
330
1F
100
AcDbEntity
  8
0
  6
Continuous
 62
     7
370
    -3
100
AcDbText
 10
1513.689114459574
 20
-116.2082630018718
 30
0.0
 40
2.5
  1
 
 41
0.9
 72
     5
 11
1515.939114459574
 21
-116.2082630018718
 31
0.0
100
AcDbText
  0
TEXT
  5
8D8C
330
1F
100
AcDbEntity
  8
0
  6
Continuous
 62
     7
370
    -3
100
AcDbText
 10
1500.189114459574
 20
-126.1088661927721
 30
0.0
 40
3.5
  1
 
 41
0.9000000000004158
 72
     5
 11
1503.339114459575
 21
-126.1088661927721
 31
0.0
100
AcDbText
  0
TEXT
  5
8D8D
330
1F
100
AcDbEntity
  8
0
  6
Continuous
 62
     7
370
    -3
100
AcDbText
 10
1500.189114459574
 20
-136.8088661927719
 30
0.0
 40
3.5
  1
 
 41
0.9000000000004158
 72
     5
 11
1503.339114459575
 21
-136.8088661927719
 31
0.0
100
AcDbText
  0
TEXT
  5
8D8E
330
1F
100
AcDbEntity
  8
0
  6
Continuous
 62
     7
370
    -3
100
AcDbText
 10
1684.665858409377
 20
-122.7457856774723
 30
0.0
 40
3.0
  1
 
 41
0.8999999999990297
 72
     5
 11
1687.365858409374
 21
-122.7457856774723
 31
0.0
100
AcDbText
  0
TEXT
  5
8D8F
330
1F
100
AcDbEntity
  8
0
  6
Continuous
 62
     7
370
    -3
100
AcDbText
 10
1684.215858409372
 20
-117.0957856774718
 30
0.0
 40
4.0
  1
 
 41
0.9000000000014551
 72
     5
 11
1687.815858409378
 21
-117.0957856774718
 31
0.0
100
AcDbText
  0
TEXT
  5
8D90
330
1F
100
AcDbEntity
  8
0
  6
Continuous
 62
     7
370
    -3
100
AcDbText
 10
571.4071623915754
 20
285.263443085715
 30
0.0
 40
2.5
  1
 
 41
0.9
 72
     5
 11
573.6571623915754
 21
285.263443085715
 31
0.0
100
AcDbText
  0
TEXT
  5
8D91
330
1F
100
AcDbEntity
  8
0
  6
Continuous
 62
     7
370
    -3
100
AcDbText
 10
588.457162391571
 20
285.263443085715
 30
0.0
 40
2.5
  1
 
 41
0.9
 72
     5
 11
590.707162391571
 21
285.263443085715
 31
0.0
100
AcDbText
  0
TEXT
  5
8D92
330
1F
100
AcDbEntity
  8
0
  6
Continuous
 62
     7
370
    -3
100
AcDbText
 10
601.7571623915739
 20
285.263443085715
 30
0.0
 40
2.5
  1
 
 41
0.9
 72
     5
 11
604.0071623915739
 21
285.263443085715
 31
0.0
100
AcDbText
  0
TEXT
  5
8D93
330
1F
100
AcDbEntity
  8
0
  6
Continuous
 62
     7
370
    -3
100
AcDbText
 10
588.2571623915739
 20
275.3628398948152
 30
0.0
 40
3.5
  1
 
 41
0.9000000000004158
 72
     5
 11
591.4071623915754
 21
275.3628398948152
 31
0.0
100
AcDbText
  0
TEXT
  5
8D94
330
1F
100
AcDbEntity
  8
0
  6
Continuous
 62
     7
370
    -3
100
AcDbText
 10
588.2571623915739
 20
264.6628398948145
 30
0.0
 40
3.5
  1
 
 41
0.9000000000004158
 72
     5
 11
591.4071623915754
 21
264.6628398948145
 31
0.0
100
AcDbText
  0
TEXT
  5
8D95
330
1F
100
AcDbEntity
  8
0
  6
Continuous
 62
     7
370
    -3
100
AcDbText
 10
772.7339063413767
 20
278.725920410115
 30
0.0
 40
3.0
  1
 
 41
0.8999999999990297
 72
     5
 11
775.4339063413738
 21
278.725920410115
 31
0.0
100
AcDbText
  0
TEXT
  5
8D96
330
1F
100
AcDbEntity
  8
0
  6
Continuous
 62
     7
370
    -3
100
AcDbText
 10
772.2839063413723
 20
284.3759204101151
 30
0.0
 40
4.0
  1
 
 41
0.8999999999996362
 72
     5
 11
775.8839063413708
 21
284.3759204101151
 31
0.0
100
AcDbText
  0
TEXT
  5
8D97
330
1F
100
AcDbEntity
  8
0
  6
Continuous
 62
     7
370
    -3
100
AcDbText
 10
1574.955309034065
 20
-82.18959812635205
 30
0.0
 40
2.5
  1
 
 41
0.9
 72
     5
 11
1577.205309034065
 21
-82.18959812635205
 31
0.0
100
AcDbText
  0
TEXT
  5
8D98
330
1F
100
AcDbEntity
  8
0
  6
Continuous
 62
     7
370
    -3
100
AcDbText
 10
1592.005309034068
 20
-82.18959812635205
 30
0.0
 40
2.5
  1
 
 41
0.9
 72
     5
 11
1594.255309034068
 21
-82.18959812635205
 31
0.0
100
AcDbText
  0
TEXT
  5
8D99
330
1F
100
AcDbEntity
  8
0
  6
Continuous
 62
     7
370
    -3
100
AcDbText
 10
1605.305309034071
 20
-82.18959812635205
 30
0.0
 40
2.5
  1
 
 41
0.9
 72
     5
 11
1607.555309034071
 21
-82.18959812635205
 31
0.0
100
AcDbText
  0
TEXT
  5
8D9A
330
1F
100
AcDbEntity
  8
0
  6
Continuous
 62
     7
370
    -3
100
AcDbText
 10
1591.805309034071
 20
-92.0902013172523
 30
0.0
 40
3.5
  1
 
 41
0.8999999999983369
 72
     5
 11
1594.955309034065
 21
-92.0902013172523
 31
0.0
100
AcDbText
  0
TEXT
  5
8D9B
330
1F
100
AcDbEntity
  8
0
  6
Continuous
 62
     7
370
    -3
100
AcDbText
 10
1591.805309034071
 20
-102.7902013172521
 30
0.0
 40
3.5
  1
 
 41
0.8999999999983369
 72
     5
 11
1594.955309034065
 21
-102.7902013172521
 31
0.0
100
AcDbText
  0
TEXT
  5
8D9C
330
1F
100
AcDbEntity
  8
0
  6
Continuous
 62
     7
370
    -3
100
AcDbText
 10
1776.282052983867
 20
-88.72712080195254
 30
0.0
 40
3.0
  1
 
 41
0.9000000000014551
 72
     5
 11
1778.982052983871
 21
-88.72712080195254
 31
0.0
100
AcDbText
  0
TEXT
  5
8D9D
330
1F
100
AcDbEntity
  8
0
  6
Continuous
 62
     7
370
    -3
100
AcDbText
 10
1775.832052983869
 20
-83.077120801952
 30
0.0
 40
4.0
  1
 
 41
0.8999999999996362
 72
     5
 11
1779.432052983868
 21
-83.077120801952
 31
0.0
100
AcDbText
  0
TEXT
  5
8D9E
330
1F
100
AcDbEntity
  8
0
  6
Continuous
 62
     7
370
    -3
100
AcDbText
 10
1082.412008154346
 20
66.12648294910503
 30
0.0
 40
2.5
  1
 
 41
0.9
  7
TEXTSTYLE_1
 72
     5
 11
1084.662008154346
 21
66.12648294910503
 31
0.0
100
AcDbText
  0
TEXT
  5
8D9F
330
1F
100
AcDbEntity
  8
0
  6
Continuous
 62
     7
370
    -3
100
AcDbText
 10
1099.462008154342
 20
66.12648294910503
 30
0.0
 40
2.5
  1
 
 41
0.9
  7
TEXTSTYLE_1
 72
     5
 11
1101.712008154342
 21
66.12648294910503
 31
0.0
100
AcDbText
  0
TEXT
  5
8DA0
330
1F
100
AcDbEntity
  8
0
  6
Continuous
 62
     7
370
    -3
100
AcDbText
 10
1099.262008154345
 20
56.22587975820568
 30
0.0
 40
3.5
  1
 
 41
0.9000000000004158
  7
TEXTSTYLE_1
 72
     5
 11
1102.412008154346
 21
56.22587975820568
 31
0.0
100
AcDbText
  0
TEXT
  5
8DA1
330
1F
100
AcDbEntity
  8
0
  6
Continuous
 62
     7
370
    -3
100
AcDbText
 10
1099.262008154345
 20
45.52587975820495
 30
0.0
 40
3.5
  1
 
 41
0.9000000000004158
  7
TEXTSTYLE_1
 72
     5
 11
1102.412008154346
 21
45.52587975820495
 31
0.0
100
AcDbText
  0
TEXT
  5
8DA2
330
1F
100
AcDbEntity
  8
0
  6
Continuous
 62
     7
370
    -3
100
AcDbText
 10
1283.738752104147
 20
59.58896027350545
 30
0.0
 40
3.0
  1
 
 41
0.8999999999990299
  7
TEXTSTYLE_1
 72
     5
 11
1286.438752104144
 21
59.58896027350545
 31
0.0
100
AcDbText
  0
TEXT
  5
8DA3
330
1F
100
AcDbEntity
  8
0
  6
Continuous
 62
     7
370
    -3
100
AcDbText
 10
1283.288752104143
 20
65.23896027350509
 30
0.0
 40
4.0
  1
 
 41
0.8999999999996362
  7
TEXTSTYLE_1
 72
     5
 11
1286.888752104142
 21
65.23896027350509
 31
0.0
100
AcDbText
  0
TEXT
  5
8DEC
330
1F
100
AcDbEntity
  8
TITLE
 62
     7
370
    -3
100
AcDbText
 10
925.1743374267599
 20
-141.6609757733438
 30
0.0
 40
5.4
  1
 
  7
ROMANS
 72
     1
 11
927.8743374267598
 21
-138.9609757733438
 31
0.0
100
AcDbText
 73
     2
  0
TEXT
  5
8DF7
330
1F
100
AcDbEntity
  8
TITLE
 62
     7
370
    -3
100
AcDbText
 10
1612.532658391263
 20
-146.2648410814105
 30
0.0
 40
3.24
  1

  7
ROMANS
100
AcDbText
  0
TEXT
  5
8DF8
330
1F
100
AcDbEntity
  8
TEXT
 62
     7
370
    -3
100
AcDbText
 10
1662.863326967754
 20
91.28649199016434
 30
0.0
 40
3.24
  1
 
 50
37.00000000012129
 41
0.8
100
AcDbText
  0
TEXT
  5
8DF9
330
1F
100
AcDbEntity
  8
TEXT
 62
     7
370
    -3
100
AcDbText
 10
1697.076180122081
 20
70.32208942337309
 30
0.0
 40
3.24
  1
 
 50
37.00000000012129
 41
0.8
100
AcDbText
  0
TEXT
  5
8DFA
330
1F
100
AcDbEntity
  8
TITLE
 62
     7
370
    -3
100
AcDbText
 10
2102.424865905235
 20
90.11583128510059
 30
0.0
 40
1.08
  1
 
  7
ROMANS
 72
     1
 11
2102.964865905235
 21
90.65583128510059
 31
0.0
100
AcDbText
 73
     2
  0
TEXT
  5
8DFB
330
1F
100
AcDbEntity
  8
TITLE
 62
     7
370
    -3
100
AcDbText
 10
2060.698919688535
 20
86.77601974513198
 30
0.0
 40
0.6480000000000002
  1
 
  7
ROMANS
100
AcDbText
  0
TEXT
  5
8DFC
330
1F
100
AcDbEntity
  8
TITLE
 62
     7
370
    -3
100
AcDbText
 10
2241.803381596025
 20
91.57484261501425
 30
0.0
 40
1.08
  1
 
  7
ROMANS
 72
     1
 11
2242.343381596025
 21
92.11484261501425
 31
0.0
100
AcDbText
 73
     2
  0
TEXT
  5
8DFD
330
1F
100
AcDbEntity
  8
TITLE
 62
     7
370
    -3
100
AcDbText
 10
2200.077435379326
 20
88.23503107504654
 30
0.0
 40
0.6480000000000002
  1
 
  7
ROMANS
100
AcDbText
  0
TEXT
  5
8DFE
330
1F
100
AcDbEntity
  8
TEXT
 62
     7
370
    -3
100
AcDbText
 10
2154.13641772303
 20
164.6301508293921
 30
0.0
 40
0.4320000000000001
  1
 
100
AcDbText
  0
TEXT
  5
8DFF
330
1F
100
AcDbEntity
  8
TEXT
 62
     7
370
    -3
100
AcDbText
 10
2073.816407924942
 20
111.600992164168
 30
0.0
 40
0.6480000000000002
  1
 
  7
ROMANS
 72
     1
 11
2074.140407924943
 21
111.924992164168
 31
0.0
100
AcDbText
 73
     2
  0
TEXT
  5
8E00
330
1F
100
AcDbEntity
  8
TEXT
 62
     7
370
    -3
100
AcDbText
 10
2080.877889984289
 20
111.600992164168
 30
0.0
 40
0.6480000000000002
  1
 
  7
ROMANS
 72
     1
 11
2081.20188998429
 21
111.924992164168
 31
0.0
100
AcDbText
 73
     2
  0
TEXT
  5
8E01
330
1F
100
AcDbEntity
  8
TEXT
 62
     7
370
    -3
100
AcDbText
 10
2073.816407924942
 20
112.8969921641682
 30
0.0
 40
0.6480000000000002
  1
 
  7
ROMANS
 72
     1
 11
2074.140407924943
 21
113.2209921641682
 31
0.0
100
AcDbText
 73
     2
  0
TEXT
  5
8E02
330
1F
100
AcDbEntity
  8
TEXT
 62
     7
370
    -3
100
AcDbText
 10
2080.877889984289
 20
112.8969921641682
 30
0.0
 40
0.6480000000000002
  1
 
  7
ROMANS
 72
     1
 11
2081.20188998429
 21
113.2209921641682
 31
0.0
100
AcDbText
 73
     2
  0
TEXT
  5
8E03
330
1F
100
AcDbEntity
  8
TEXT
 62
     7
370
    -3
100
AcDbText
 10
2073.816407924942
 20
109.0089921641683
 30
0.0
 40
0.6480000000000002
  1
 
  7
ROMANS
 72
     1
 11
2074.140407924943
 21
109.3329921641683
 31
0.0
100
AcDbText
 73
     2
  0
TEXT
  5
8E04
330
1F
100
AcDbEntity
  8
TEXT
 62
     7
370
    -3
100
AcDbText
 10
2080.877889984289
 20
109.0089921641683
 30
0.0
 40
0.6480000000000002
  1
 
  7
ROMANS
 72
     1
 11
2081.20188998429
 21
109.3329921641683
 31
0.0
100
AcDbText
 73
     2
  0
TEXT
  5
8E05
330
1F
100
AcDbEntity
  8
TEXT
 62
     7
370
    -3
100
AcDbText
 10
2089.588379290641
 20
109.0089921641683
 30
0.0
 40
0.6480000000000002
  1
 
  7
ROMANS
 72
     1
 11
2089.912379290641
 21
109.3329921641683
 31
0.0
100
AcDbText
 73
     2
  0
TEXT
  5
8E06
330
1F
100
AcDbEntity
  8
TEXT
 62
     7
370
    -3
100
AcDbText
 10
2073.816407924942
 20
110.3049921641677
 30
0.0
 40
0.6480000000000002
  1
 
  7
ROMANS
 72
     1
 11
2074.140407924943
 21
110.6289921641677
 31
0.0
100
AcDbText
 73
     2
  0
TEXT
  5
8E07
330
1F
100
AcDbEntity
  8
TEXT
 62
     7
370
    -3
100
AcDbText
 10
2080.877889984289
 20
110.3049921641677
 30
0.0
 40
0.6480000000000002
  1
 
  7
ROMANS
 72
     1
 11
2081.20188998429
 21
110.6289921641677
 31
0.0
100
AcDbText
 73
     2
  0
TEXT
  5
8E08
330
1F
100
AcDbEntity
  8
TEXT
 62
     7
370
    -3
100
AcDbText
 10
2089.588379290641
 20
110.3049921641677
 30
0.0
 40
0.6480000000000002
  1
 
  7
ROMANS
 72
     1
 11
2089.912379290641
 21
110.6289921641677
 31
0.0
100
AcDbText
 73
     2
  0
TEXT
  5
8E09
330
1F
100
AcDbEntity
  8
TEXT
 62
     7
370
    -3
100
AcDbText
 10
2073.816407924942
 20
107.712992164168
 30
0.0
 40
0.6480000000000002
  1
 
  7
ROMANS
 72
     1
 11
2074.140407924943
 21
108.036992164168
 31
0.0
100
AcDbText
 73
     2
  0
TEXT
  5
8E0A
330
1F
100
AcDbEntity
  8
TEXT
 62
     7
370
    -3
100
AcDbText
 10
2080.877889984289
 20
107.712992164168
 30
0.0
 40
0.6480000000000002
  1
 
  7
ROMANS
 72
     1
 11
2081.20188998429
 21
108.036992164168
 31
0.0
100
AcDbText
 73
     2
  0
TEXT
  5
8E0B
330
1F
100
AcDbEntity
  8
TEXT
 62
     7
370
    -3
100
AcDbText
 10
2089.588379290641
 20
107.712992164168
 30
0.0
 40
0.6480000000000002
  1
 
  7
ROMANS
 72
     1
 11
2089.912379290641
 21
108.036992164168
 31
0.0
100
AcDbText
 73
     2
  0
TEXT
  5
8E18
330
1F
100
AcDbEntity
  8
0
  6
Continuous
 62
     7
370
    -3
100
AcDbText
 10
670.9752079582633
 20
234.9580882725262
 30
0.0
 40
2.5
  1
 
 41
0.9
 72
     5
 11
673.2252079582633
 21
234.9580882725262
 31
0.0
100
AcDbText
  0
TEXT
  5
8E19
330
1F
100
AcDbEntity
  8
0
  6
Continuous
 62
     7
370
    -3
100
AcDbText
 10
688.0252079582589
 20
234.9580882725262
 30
0.0
 40
2.5
  1
 
 41
0.9
 72
     5
 11
690.2752079582589
 21
234.9580882725262
 31
0.0
100
AcDbText
  0
TEXT
  5
8E1A
330
1F
100
AcDbEntity
  8
0
  6
Continuous
 62
     7
370
    -3
100
AcDbText
 10
701.3252079582619
 20
234.9580882725262
 30
0.0
 40
2.5
  1
 
 41
0.9
 72
     5
 11
703.5752079582619
 21
234.9580882725262
 31
0.0
100
AcDbText
  0
TEXT
  5
8E1B
330
1F
100
AcDbEntity
  8
0
  6
Continuous
 62
     7
370
    -3
100
AcDbText
 10
687.8252079582619
 20
225.0574850816259
 30
0.0
 40
3.5
  1
 
 41
0.9000000000004158
 72
     5
 11
690.9752079582633
 21
225.0574850816259
 31
0.0
100
AcDbText
  0
TEXT
  5
8E1C
330
1F
100
AcDbEntity
  8
0
  6
Continuous
 62
     7
370
    -3
100
AcDbText
 10
687.8252079582619
 20
214.3574850816261
 30
0.0
 40
3.5
  1
 
 41
0.9000000000004158
 72
     5
 11
690.9752079582633
 21
214.3574850816261
 31
0.0
100
AcDbText
  0
TEXT
  5
8E1D
330
1F
100
AcDbEntity
  8
0
  6
Continuous
 62
     7
370
    -3
100
AcDbText
 10
872.3019519080574
 20
228.4205655969257
 30
0.0
 40
3.0
  1
 
 41
0.9000000000014551
 72
     5
 11
875.0019519080618
 21
228.4205655969257
 31
0.0
100
AcDbText
  0
TEXT
  5
8E1E
330
1F
100
AcDbEntity
  8
0
  6
Continuous
 62
     7
370
    -3
100
AcDbText
 10
871.8519519080603
 20
234.0705655969263
 30
0.0
 40
4.0
  1
 
 41
0.8999999999996362
 72
     5
 11
875.4519519080588
 21
234.0705655969263
 31
0.0
100
AcDbText
  0
TEXT
  5
8E1F
330
1F
100
AcDbEntity
  8
0
  6
Continuous
 62
     7
370
    -3
100
AcDbText
 10
1674.523354600753
 20
-132.4949529395413
 30
0.0
 40
2.5
  1
 
 41
0.9
 72
     5
 11
1676.773354600753
 21
-132.4949529395413
 31
0.0
100
AcDbText
  0
TEXT
  5
8E20
330
1F
100
AcDbEntity
  8
0
  6
Continuous
 62
     7
370
    -3
100
AcDbText
 10
1691.573354600756
 20
-132.4949529395413
 30
0.0
 40
2.5
  1
 
 41
0.9
 72
     5
 11
1693.823354600756
 21
-132.4949529395413
 31
0.0
100
AcDbText
  0
TEXT
  5
8E21
330
1F
100
AcDbEntity
  8
0
  6
Continuous
 62
     7
370
    -3
100
AcDbText
 10
1704.873354600752
 20
-132.4949529395413
 30
0.0
 40
2.5
  1
 
 41
0.9
 72
     5
 11
1707.123354600752
 21
-132.4949529395413
 31
0.0
100
AcDbText
  0
TEXT
  5
8E22
330
1F
100
AcDbEntity
  8
0
  6
Continuous
 62
     7
370
    -3
100
AcDbText
 10
1691.373354600752
 20
-142.3955561304416
 30
0.0
 40
3.5
  1
 
 41
0.9000000000004158
 72
     5
 11
1694.523354600753
 21
-142.3955561304416
 31
0.0
100
AcDbText
  0
TEXT
  5
8E23
330
1F
100
AcDbEntity
  8
0
  6
Continuous
 62
     7
370
    -3
100
AcDbText
 10
1691.373354600752
 20
-153.0955561304414
 30
0.0
 40
3.5
  1
 
 41
0.9000000000004158
 72
     5
 11
1694.523354600753
 21
-153.0955561304414
 31
0.0
100
AcDbText
  0
TEXT
  5
8E24
330
1F
100
AcDbEntity
  8
0
  6
Continuous
 62
     7
370
    -3
100
AcDbText
 10
1875.850098550554
 20
-139.0324756151409
 30
0.0
 40
3.0
  1
 
 41
0.8999999999990297
 72
     5
 11
1878.550098550552
 21
-139.0324756151409
 31
0.0
100
AcDbText
  0
TEXT
  5
8E25
330
1F
100
AcDbEntity
  8
0
  6
Continuous
 62
     7
370
    -3
100
AcDbText
 10
1875.400098550557
 20
-133.3824756151413
 30
0.0
 40
4.0
  1
 
 41
0.8999999999996362
 72
     5
 11
1879.000098550556
 21
-133.3824756151413
 31
0.0
100
AcDbText
  0
TEXT
  5
8E26
330
1F
100
AcDbEntity
  8
0
  6
Continuous
 62
     7
370
    -3
100
AcDbText
 10
762.5914025327531
 20
268.976753148046
 30
0.0
 40
2.5
  1
 
 41
0.9
 72
     5
 11
764.8414025327531
 21
268.976753148046
 31
0.0
100
AcDbText
  0
TEXT
  5
8E27
330
1F
100
AcDbEntity
  8
0
  6
Continuous
 62
     7
370
    -3
100
AcDbText
 10
779.641402532756
 20
268.976753148046
 30
0.0
 40
2.5
  1
 
 41
0.9
 72
     5
 11
781.891402532756
 21
268.976753148046
 31
0.0
100
AcDbText
  0
TEXT
  5
8E28
330
1F
100
AcDbEntity
  8
0
  6
Continuous
 62
     7
370
    -3
100
AcDbText
 10
792.9414025327517
 20
268.976753148046
 30
0.0
 40
2.5
  1
 
 41
0.9
 72
     5
 11
795.1914025327517
 21
268.976753148046
 31
0.0
100
AcDbText
  0
TEXT
  5
8E29
330
1F
100
AcDbEntity
  8
0
  6
Continuous
 62
     7
370
    -3
100
AcDbText
 10
779.4414025327516
 20
259.0761499571457
 30
0.0
 40
3.5
  1
 
 41
0.9000000000004158
 72
     5
 11
782.5914025327531
 21
259.0761499571457
 31
0.0
100
AcDbText
  0
TEXT
  5
8E2A
330
1F
100
AcDbEntity
  8
0
  6
Continuous
 62
     7
370
    -3
100
AcDbText
 10
779.4414025327516
 20
248.3761499571459
 30
0.0
 40
3.5
  1
 
 41
0.9000000000004158
 72
     5
 11
782.5914025327531
 21
248.3761499571459
 31
0.0
100
AcDbText
  0
TEXT
  5
8E2B
330
1F
100
AcDbEntity
  8
0
  6
Continuous
 62
     7
370
    -3
100
AcDbText
 10
963.9181464825544
 20
262.4392304724455
 30
0.0
 40
3.0
  1
 
 41
0.8999999999990297
 72
     5
 11
966.6181464825514
 21
262.4392304724455
 31
0.0
100
AcDbText
  0
TEXT
  5
8E2C
330
1F
100
AcDbEntity
  8
0
  6
Continuous
 62
     7
370
    -3
100
AcDbText
 10
963.4681464825501
 20
268.089230472446
 30
0.0
 40
4.0
  1
 
 41
0.9000000000014551
 72
     5
 11
967.0681464825559
 21
268.089230472446
 31
0.0
100
AcDbText
  0
TEXT
  5
8E2D
330
1F
100
AcDbEntity
  8
0
  6
Continuous
 62
     7
370
    -3
100
AcDbText
 10
1766.13954917525
 20
-98.47628806402155
 30
0.0
 40
2.5
  1
 
 41
0.9
 72
     5
 11
1768.38954917525
 21
-98.47628806402155
 31
0.0
100
AcDbText
  0
TEXT
  5
8E2E
330
1F
100
AcDbEntity
  8
0
  6
Continuous
 62
     7
370
    -3
100
AcDbText
 10
1783.189549175246
 20
-98.47628806402155
 30
0.0
 40
2.5
  1
 
 41
0.9
 72
     5
 11
1785.439549175246
 21
-98.47628806402155
 31
0.0
100
AcDbText
  0
TEXT
  5
8E2F
330
1F
100
AcDbEntity
  8
0
  6
Continuous
 62
     7
370
    -3
100
AcDbText
 10
1796.489549175249
 20
-98.47628806402155
 30
0.0
 40
2.5
  1
 
 41
0.9
 72
     5
 11
1798.739549175249
 21
-98.47628806402155
 31
0.0
100
AcDbText
  0
TEXT
  5
8E30
330
1F
100
AcDbEntity
  8
0
  6
Continuous
 62
     7
370
    -3
100
AcDbText
 10
1782.989549175249
 20
-108.3768912549218
 30
0.0
 40
3.5
  1
 
 41
0.9000000000004158
 72
     5
 11
1786.13954917525
 21
-108.3768912549218
 31
0.0
100
AcDbText
  0
TEXT
  5
8E31
330
1F
100
AcDbEntity
  8
0
  6
Continuous
 62
     7
370
    -3
100
AcDbText
 10
1782.989549175249
 20
-119.0768912549216
 30
0.0
 40
3.5
  1
 
 41
0.9000000000004158
 72
     5
 11
1786.13954917525
 21
-119.0768912549216
 31
0.0
100
AcDbText
  0
TEXT
  5
8E32
330
1F
100
AcDbEntity
  8
0
  6
Continuous
 62
     7
370
    -3
100
AcDbText
 10
1967.466293125051
 20
-105.0138107396211
 30
0.0
 40
3.0
  1
 
 41
0.8999999999990297
 72
     5
 11
1970.166293125049
 21
-105.0138107396211
 31
0.0
100
AcDbText
  0
TEXT
  5
8E33
330
1F
100
AcDbEntity
  8
0
  6
Continuous
 62
     7
370
    -3
100
AcDbText
 10
1967.016293125047
 20
-99.3638107396215
 30
0.0
 40
4.0
  1
 
 41
0.8999999999996362
 72
     5
 11
1970.616293125045
 21
-99.3638107396215
 31
0.0
100
AcDbText
  0
TEXT
  5
8E34
330
1F
100
AcDbEntity
  8
0
  6
Continuous
 62
     7
370
    -3
100
AcDbText
 10
702.1215044413495
 20
285.1803396877461
 30
0.0
 40
2.5
  1
 
 41
0.9
 72
     5
 11
704.3715044413495
 21
285.1803396877461
 31
0.0
100
AcDbText
  0
TEXT
  5
8E35
330
1F
100
AcDbEntity
  8
0
  6
Continuous
 62
     7
370
    -3
100
AcDbText
 10
719.1715044413451
 20
285.1803396877461
 30
0.0
 40
2.5
  1
 
 41
0.9
 72
     5
 11
721.4215044413451
 21
285.1803396877461
 31
0.0
100
AcDbText
  0
TEXT
  5
8E36
330
1F
100
AcDbEntity
  8
0
  6
Continuous
 62
     7
370
    -3
100
AcDbText
 10
732.4715044413481
 20
285.1803396877461
 30
0.0
 40
2.5
  1
 
 41
0.9
 72
     5
 11
734.7215044413481
 21
285.1803396877461
 31
0.0
100
AcDbText
  0
TEXT
  5
8E37
330
1F
100
AcDbEntity
  8
0
  6
Continuous
 62
     7
370
    -3
100
AcDbText
 10
718.9715044413481
 20
275.2797364968459
 30
0.0
 40
3.5
  1
 
 41
0.9000000000004158
 72
     5
 11
722.1215044413495
 21
275.2797364968459
 31
0.0
100
AcDbText
  0
TEXT
  5
8E38
330
1F
100
AcDbEntity
  8
0
  6
Continuous
 62
     7
370
    -3
100
AcDbText
 10
718.9715044413481
 20
264.5797364968461
 30
0.0
 40
3.5
  1
 
 41
0.9000000000004158
 72
     5
 11
722.1215044413495
 21
264.5797364968461
 31
0.0
100
AcDbText
  0
TEXT
  5
8E39
330
1F
100
AcDbEntity
  8
0
  6
Continuous
 62
     7
370
    -3
100
AcDbText
 10
903.4482483911435
 20
278.6428170121457
 30
0.0
 40
3.0
  1
 
 41
0.9000000000014551
 72
     5
 11
906.1482483911479
 21
278.6428170121457
 31
0.0
100
AcDbText
  0
TEXT
  5
8E3A
330
1F
100
AcDbEntity
  8
0
  6
Continuous
 62
     7
370
    -3
100
AcDbText
 10
902.9982483911465
 20
284.2928170121462
 30
0.0
 40
4.0
  1
 
 41
0.8999999999996362
 72
     5
 11
906.5982483911451
 21
284.2928170121462
 31
0.0
100
AcDbText
  0
TEXT
  5
8E3B
330
1F
100
AcDbEntity
  8
0
  6
Continuous
 62
     7
370
    -3
100
AcDbText
 10
1705.669651083839
 20
-82.2727015243214
 30
0.0
 40
2.5
  1
 
 41
0.9
 72
     5
 11
1707.919651083839
 21
-82.2727015243214
 31
0.0
100
AcDbText
  0
TEXT
  5
8E3C
330
1F
100
AcDbEntity
  8
0
  6
Continuous
 62
     7
370
    -3
100
AcDbText
 10
1722.719651083842
 20
-82.2727015243214
 30
0.0
 40
2.5
  1
 
 41
0.9
 72
     5
 11
1724.969651083842
 21
-82.2727015243214
 31
0.0
100
AcDbText
  0
TEXT
  5
8E3D
330
1F
100
AcDbEntity
  8
0
  6
Continuous
 62
     7
370
    -3
100
AcDbText
 10
1736.019651083838
 20
-82.2727015243214
 30
0.0
 40
2.5
  1
 
 41
0.9
 72
     5
 11
1738.269651083838
 21
-82.2727015243214
 31
0.0
100
AcDbText
  0
TEXT
  5
8E3E
330
1F
100
AcDbEntity
  8
0
  6
Continuous
 62
     7
370
    -3
100
AcDbText
 10
1722.519651083838
 20
-92.17330471522165
 30
0.0
 40
3.5
  1
 
 41
0.9000000000004158
 72
     5
 11
1725.669651083839
 21
-92.17330471522165
 31
0.0
100
AcDbText
  0
TEXT
  5
8E3F
330
1F
100
AcDbEntity
  8
0
  6
Continuous
 62
     7
370
    -3
100
AcDbText
 10
1722.519651083838
 20
-102.8733047152215
 30
0.0
 40
3.5
  1
 
 41
0.9000000000004158
 72
     5
 11
1725.669651083839
 21
-102.8733047152215
 31
0.0
100
AcDbText
  0
TEXT
  5
8E40
330
1F
100
AcDbEntity
  8
0
  6
Continuous
 62
     7
370
    -3
100
AcDbText
 10
1906.996395033641
 20
-88.81022419992097
 30
0.0
 40
3.0
  1
 
 41
0.8999999999990297
 72
     5
 11
1909.696395033638
 21
-88.81022419992097
 31
0.0
100
AcDbText
  0
TEXT
  5
8E41
330
1F
100
AcDbEntity
  8
0
  6
Continuous
 62
     7
370
    -3
100
AcDbText
 10
1906.546395033643
 20
-83.16022419992135
 30
0.0
 40
4.0
  1
 
 41
0.8999999999996362
 72
     5
 11
1910.146395033642
 21
-83.16022419992135
 31
0.0
100
AcDbText
  0
TEXT
  5
8E42
330
1F
100
AcDbEntity
  8
0
  6
Continuous
 62
     7
370
    -3
100
AcDbText
 10
793.7376990158393
 20
319.1990045632659
 30
0.0
 40
2.5
  1
 
 41
0.9
 72
     5
 11
795.9876990158393
 21
319.1990045632659
 31
0.0
100
AcDbText
  0
TEXT
  5
8E43
330
1F
100
AcDbEntity
  8
0
  6
Continuous
 62
     7
370
    -3
100
AcDbText
 10
810.7876990158422
 20
319.1990045632659
 30
0.0
 40
2.5
  1
 
 41
0.9
 72
     5
 11
813.0376990158422
 21
319.1990045632659
 31
0.0
100
AcDbText
  0
TEXT
  5
8E44
330
1F
100
AcDbEntity
  8
0
  6
Continuous
 62
     7
370
    -3
100
AcDbText
 10
824.0876990158378
 20
319.1990045632659
 30
0.0
 40
2.5
  1
 
 41
0.9
 72
     5
 11
826.3376990158379
 21
319.1990045632659
 31
0.0
100
AcDbText
  0
TEXT
  5
8E45
330
1F
100
AcDbEntity
  8
0
  6
Continuous
 62
     7
370
    -3
100
AcDbText
 10
810.5876990158378
 20
309.2984013723657
 30
0.0
 40
3.5
  1
 
 41
0.9000000000004158
 72
     5
 11
813.7376990158394
 21
309.2984013723657
 31
0.0
100
AcDbText
  0
TEXT
  5
8E46
330
1F
100
AcDbEntity
  8
0
  6
Continuous
 62
     7
370
    -3
100
AcDbText
 10
810.5876990158378
 20
298.5984013723658
 30
0.0
 40
3.5
  1
 
 41
0.9000000000004158
 72
     5
 11
813.7376990158394
 21
298.5984013723658
 31
0.0
100
AcDbText
  0
TEXT
  5
8E47
330
1F
100
AcDbEntity
  8
0
  6
Continuous
 62
     7
370
    -3
100
AcDbText
 10
995.0644429656406
 20
312.6614818876659
 30
0.0
 40
3.0
  1
 
 41
0.8999999999990297
 72
     5
 11
997.7644429656377
 21
312.6614818876659
 31
0.0
100
AcDbText
  0
TEXT
  5
8E48
330
1F
100
AcDbEntity
  8
0
  6
Continuous
 62
     7
370
    -3
100
AcDbText
 10
994.6144429656362
 20
318.311481887666
 30
0.0
 40
4.0
  1
 
 41
0.9000000000014551
 72
     5
 11
998.214442965642
 21
318.311481887666
 31
0.0
100
AcDbText
  0
TEXT
  5
8E49
330
1F
100
AcDbEntity
  8
0
  6
Continuous
 62
     7
370
    -3
100
AcDbText
 10
1797.285845658336
 20
-48.25403664880162
 30
0.0
 40
2.5
  1
 
 41
0.9
 72
     5
 11
1799.535845658336
 21
-48.25403664880162
 31
0.0
100
AcDbText
  0
TEXT
  5
8E4A
330
1F
100
AcDbEntity
  8
0
  6
Continuous
 62
     7
370
    -3
100
AcDbText
 10
1814.335845658332
 20
-48.25403664880162
 30
0.0
 40
2.5
  1
 
 41
0.9
 72
     5
 11
1816.585845658332
 21
-48.25403664880162
 31
0.0
100
AcDbText
  0
TEXT
  5
8E4B
330
1F
100
AcDbEntity
  8
0
  6
Continuous
 62
     7
370
    -3
100
AcDbText
 10
1827.635845658335
 20
-48.25403664880162
 30
0.0
 40
2.5
  1
 
 41
0.9
 72
     5
 11
1829.885845658335
 21
-48.25403664880162
 31
0.0
100
AcDbText
  0
TEXT
  5
8E4C
330
1F
100
AcDbEntity
  8
0
  6
Continuous
 62
     7
370
    -3
100
AcDbText
 10
1814.135845658335
 20
-58.15463983970187
 30
0.0
 40
3.5
  1
 
 41
0.9000000000004158
 72
     5
 11
1817.285845658336
 21
-58.15463983970187
 31
0.0
100
AcDbText
  0
TEXT
  5
8E4D
330
1F
100
AcDbEntity
  8
0
  6
Continuous
 62
     7
370
    -3
100
AcDbText
 10
1814.135845658335
 20
-68.85463983970169
 30
0.0
 40
3.5
  1
 
 41
0.9000000000004158
 72
     5
 11
1817.285845658336
 21
-68.85463983970169
 31
0.0
100
AcDbText
  0
TEXT
  5
8E4E
330
1F
100
AcDbEntity
  8
0
  6
Continuous
 62
     7
370
    -3
100
AcDbText
 10
1998.612589608138
 20
-54.79155932440119
 30
0.0
 40
3.0
  1
 
 41
0.8999999999990297
 72
     5
 11
2001.312589608135
 21
-54.79155932440119
 31
0.0
100
AcDbText
  0
TEXT
  5
8E4F
330
1F
100
AcDbEntity
  8
0
  6
Continuous
 62
     7
370
    -3
100
AcDbText
 10
1998.162589608133
 20
-49.14155932440156
 30
0.0
 40
4.0
  1
 
 41
0.8999999999996362
 72
     5
 11
2001.762589608132
 21
-49.14155932440156
 31
0.0
100
AcDbText
  0
TEXT
  5
8E50
330
1F
100
AcDbEntity
  8
0
  6
Continuous
 62
     7
370
    -3
100
AcDbText
 10
1283.205830158122
 20
9.363166342358795
 30
0.0
 40
2.5
  1
 
 41
0.9
  7
TEXTSTYLE_1
 72
     5
 11
1285.455830158122
 21
9.363166342358795
 31
0.0
100
AcDbText
  0
TEXT
  5
8E51
330
1F
100
AcDbEntity
  8
0
  6
Continuous
 62
     7
370
    -3
100
AcDbText
 10
1300.255830158118
 20
9.363166342358795
 30
0.0
 40
2.5
  1
 
 41
0.9
  7
TEXTSTYLE_1
 72
     5
 11
1302.505830158118
 21
9.363166342358795
 31
0.0
100
AcDbText
  0
TEXT
  5
8E52
330
1F
100
AcDbEntity
  8
0
  6
Continuous
 62
     7
370
    -3
100
AcDbText
 10
1300.055830158121
 20
-0.5374368485414607
 30
0.0
 40
3.5
  1
 
 41
0.9000000000004158
  7
TEXTSTYLE_1
 72
     5
 11
1303.205830158122
 21
-0.5374368485414607
 31
0.0
100
AcDbText
  0
TEXT
  5
8E53
330
1F
100
AcDbEntity
  8
0
  6
Continuous
 62
     7
370
    -3
100
AcDbText
 10
1300.055830158121
 20
-11.23743684854128
 30
0.0
 40
3.5
  1
 
 41
0.9000000000004158
  7
TEXTSTYLE_1
 72
     5
 11
1303.205830158122
 21
-11.23743684854128
 31
0.0
100
AcDbText
  0
TEXT
  5
8E54
330
1F
100
AcDbEntity
  8
0
  6
Continuous
 62
     7
370
    -3
100
AcDbText
 10
1484.532574107923
 20
2.82564366675831
 30
0.0
 40
3.0
  1
 
 41
0.8999999999990297
  7
TEXTSTYLE_1
 72
     5
 11
1487.23257410792
 21
2.82564366675831
 31
0.0
100
AcDbText
  0
TEXT
  5
8E55
330
1F
100
AcDbEntity
  8
0
  6
Continuous
 62
     7
370
    -3
100
AcDbText
 10
1484.082574107919
 20
8.475643666757946
 30
0.0
 40
4.0
  1
 
 41
0.8999999999996362
  7
TEXTSTYLE_1
 72
     5
 11
1487.682574107918
 21
8.475643666757946
 31
0.0
100
AcDbText
  0
TEXT
  5
B3FA
330
1F
100
AcDbEntity
  8
0
 62
     7
100
AcDbText
 10
175.4791549439281
 20
130.6464521699588
 30
0.0
 40
4.5
  1
4A/290 BRACKET
100
AcDbText
1001
ACAD
1000
ACAD_MTEXT_DEFINED_HEIGHT_BEGIN
1070
    46
1040
0.0
1000
ACAD_MTEXT_DEFINED_HEIGHT_END
  0
TEXT
  5
B3FB
330
1F
100
AcDbEntity
  8
0
 62
     7
100
AcDbText
 10
210.4571283093313
 20
117.3447410512056
 30
0.0
 40
4.5
  1
710039
  7
ROMANS
100
AcDbText
  0
TEXT
  5
B3FC
330
1F
100
AcDbEntity
  8
0
 62
     7
100
AcDbText
 10
211.5139649021884
 20
105.7879857735045
 30
0.0
 40
4.5
  1
----
  7
ROMANS
100
AcDbText
  0
TEXT
  5
B3FD
330
1F
100
AcDbEntity
  8
0
 62
     7
100
AcDbText
 10
212.4666552434149
 20
93.47605914464322
 30
0.0
 40
4.5
  1
A4
  7
ROMANS
100
AcDbText
  0
TEXT
  5
B3FE
330
1F
100
AcDbEntity
  8
0
 62
     7
100
AcDbText
 10
213.1262441040583
 20
81.65735018554144
 30
0.0
 40
4.5
  1
A
  7
ROMANS
100
AcDbText
  0
INSERT
  5
B3FF
330
1F
100
AcDbEntity
  8
0
100
AcDbBlockReference
  2
Header box
 10
438.5512650754829
 20
77.76219128709664
 30
0.0
  0
LINE
  5
B400
330
1F
100
AcDbEntity
  8
COMPONENT
100
AcDbLine
 10
438.5512650754825
 20
77.76219128709664
 30
0.0
 11
438.5512650754825
 21
487.7621912870966
 31
0.0
  0
LINE
  5
B401
330
1F
100
AcDbEntity
  8
COMPONENT
100
AcDbLine
 10
148.1968756859849
 20
77.76219128709664
 30
0.0
 11
148.196875685985
 21
487.7621912870966
 31
0.0
  0
LINE
  5
B402
330
1F
100
AcDbEntity
  8
COMPONENT
100
AcDbLine
 10
148.196875685985
 20
487.7621912870966
 30
0.0
 11
438.5512650754825
 21
487.7621912870966
 31
0.0
  0
LINE
  5
B403
330
1F
100
AcDbEntity
  8
COMPONENT
100
AcDbLine
 10
148.1968756859849
 20
77.76219128709664
 30
0.0
 11
438.5512650754829
 21
77.76219128709664
 31
0.0
  0
LINE
  5
CD52
330
1F
100
AcDbEntity
  8
Visible Edges(ISO)
100
AcDbLine
 10
319.2438460638705
 20
439.313425128292
 30
0.0
 11
319.3825155968548
 21
443.6362478192267
 31
0.0
  0
LINE
  5
CD53
330
1F
100
AcDbEntity
  8
Visible Edges(ISO)
100
AcDbLine
 10
319.3825155968548
 20
443.6362478192267
 30
0.0
 11
316.8369311845833
 21
445.1059416648965
 31
0.0
  0
LINE
  5
CD54
330
1F
100
AcDbEntity
  8
Visible Edges(ISO)
100
AcDbLine
 10
329.2820105334665
 20
437.9207717527326
 30
0.0
 11
326.736426121195
 21
439.3904655984025
 31
0.0
  0
LINE
  5
CD55
330
1F
100
AcDbEntity
  8
Visible Edges(ISO)
100
AcDbLine
 10
319.3825155968548
 20
443.6362478192267
 30
0.0
 11
314.8182855965528
 21
440.0835930292222
 31
0.0
  0
LINE
  5
CD56
330
1F
100
AcDbEntity
  8
Visible Edges(ISO)
100
AcDbLine
 10
319.2438460638705
 20
439.313425128292
 30
0.0
 11
316.2009999056406
 21
436.944968241026
 31
0.0
  0
ELLIPSE
  5
CD57
330
1F
100
AcDbEntity
  8
Visible Edges(ISO)
100
AcDbEllipse
 10
322.0773035006492
 20
429.8262969176151
 30
0.0
 11
9.994858826653974
 21
-0.3206197674134063
 31
0.0
210
0.0
220
0.0
230
1.0
 40
0.5551658537088786
 41
5.51594995527445
 42
6.283185307179557
  0
LINE
  5
CD58
330
1F
100
AcDbEntity
  8
Visible Edges(ISO)
100
AcDbLine
 10
329.1483713125146
 20
425.7438140129765
 30
0.0
 11
324.060824312635
 21
423.0282244691649
 31
0.0
  0
ELLIPSE
  5
CD59
330
1F
100
AcDbEntity
  8
Visible Edges(ISO)
100
AcDbEllipse
 10
309.7708936847503
 20
441.3342895207137
 30
0.0
 11
-9.994858826654015
 21
0.3206197674128657
 31
0.0
210
0.0
220
0.0
230
0.9999999999999998
 40
0.5551658537088786
 41
3.945153628479323
 42
5.51594995527421
  0
LINE
  5
CD5A
330
1F
100
AcDbEntity
  8
Visible Edges(ISO)
100
AcDbLine
 10
284.3402011221974
 20
416.7605527333059
 30
0.0
 11
288.9044311225023
 21
420.3132075233092
 31
0.0
  0
LINE
  5
CD5B
330
1F
100
AcDbEntity
  8
Visible Edges(ISO)
100
AcDbLine
 10
286.885785534469
 20
415.290858887636
 30
0.0
 11
284.3402011221974
 21
416.7605527333059
 31
0.0
  0
ELLIPSE
  5
CD5C
330
1F
100
AcDbEntity
  8
Visible Edges(ISO)
100
AcDbEllipse
 10
293.9518230343019
 20
419.0625110318187
 30
0.0
 11
9.994858826654024
 21
-0.3206197674128671
 31
0.0
210
0.0
220
0.0
230
1.0
 40
0.5551658537088786
 41
3.94515362847933
 42
5.515949955274211
  0
LINE
  5
CD5D
330
1F
100
AcDbEntity
  8
Visible Edges(ISO)
100
AcDbLine
 10
329.2870408454991
 20
430.0666367039112
 30
0.0
 11
301.0228908461674
 21
414.98002812718
 31
0.0
  0
ELLIPSE
  5
CD5E
330
1F
100
AcDbEntity
  8
Visible Edges(ISO)
100
AcDbEllipse
 10
322.2159730336335
 20
434.1491196085498
 30
0.0
 11
9.994858826653997
 21
-0.3206197674134388
 31
0.0
210
0.0
220
0.0
230
0.9999999999999998
 40
0.5551658537088784
 41
5.515949955274468
 42
7.086746282069371
  0
LINE
  5
CD5F
330
1F
100
AcDbEntity
  8
Visible Edges(ISO)
100
AcDbLine
 10
320.1627012258655
 20
436.9979932269773
 30
0.0
 11
326.736426121195
 21
439.3904655984025
 31
0.0
  0
ELLIPSE
  5
CD60
330
1F
100
AcDbEntity
  8
Visible Edges(ISO)
100
AcDbEllipse
 10
317.9719238591452
 20
438.797767165003
 30
0.0
 11
-3.838025789435934
 21
0.1231179906867863
 31
0.0
210
0.0
220
0.0
230
0.9999999999999998
 40
0.555165853708879
 41
5.694324079493577
 42
8.479168484645306
  0
LINE
  5
CD61
330
1F
100
AcDbEntity
  8
Visible Edges(ISO)
100
AcDbLine
 10
302.6998258728849
 20
445.4167724253525
 30
0.0
 11
274.4356758735532
 21
430.3301638486212
 31
0.0
  0
ELLIPSE
  5
CD62
330
1F
100
AcDbEntity
  8
Visible Edges(ISO)
100
AcDbEllipse
 10
281.5067436854187
 20
426.2476809439826
 30
0.0
 11
-9.994858826654002
 21
0.3206197674134396
 31
0.0
210
0.0
220
0.0
230
0.9999999999999998
 40
0.5551658537088786
 41
5.515949955274476
 42
7.086746282069369
  0
LINE
  5
CD63
330
1F
100
AcDbEntity
  8
Visible Edges(ISO)
100
AcDbLine
 10
276.9862905978574
 20
421.0063349541299
 30
0.0
 11
274.4407061855857
 21
422.4760287997999
 31
0.0
  0
LINE
  5
CD64
330
1F
100
AcDbEntity
  8
Visible Edges(ISO)
100
AcDbLine
 10
283.560015493189
 20
423.3988073255545
 30
0.0
 11
276.9862905978574
 21
421.0063349541299
 31
0.0
  0
ELLIPSE
  5
CD65
330
1F
100
AcDbEntity
  8
Visible Edges(ISO)
100
AcDbEllipse
 10
285.7507928599071
 20
421.5990333875295
 30
0.0
 11
3.838025789435937
 21
-0.1231179906867866
 31
0.0
210
0.0
220
0.0
230
0.9999999999999998
 40
0.5551658537088786
 41
5.694324079493629
 42
8.479168484645001
  0
LINE
  5
CD66
330
1F
100
AcDbEntity
  8
Visible Edges(ISO)
100
AcDbLine
 10
284.2015315892131
 20
412.437730042371
 30
0.0
 11
284.3402011221974
 21
416.7605527333059
 31
0.0
  0
LINE
  5
CD67
330
1F
100
AcDbEntity
  8
Visible Edges(ISO)
100
AcDbLine
 10
284.2015315892131
 20
412.437730042371
 30
0.0
 11
286.7471160014846
 21
410.9680361967011
 31
0.0
  0
LINE
  5
CD68
330
1F
100
AcDbEntity
  8
Visible Edges(ISO)
100
AcDbLine
 10
276.847621064873
 20
416.6835122631953
 30
0.0
 11
276.9862905978574
 21
421.0063349541299
 31
0.0
  0
LINE
  5
CD69
330
1F
100
AcDbEntity
  8
Visible Edges(ISO)
100
AcDbLine
 10
274.3020366526014
 20
418.1532061088652
 30
0.0
 11
276.847621064873
 21
416.6835122631953
 31
0.0
  0
ELLIPSE
  5
CD6A
330
1F
100
AcDbEntity
  8
Visible Edges(ISO)
100
AcDbEllipse
 10
293.8131535013175
 20
414.739688340884
 30
0.0
 11
9.994858826654022
 21
-0.3206197674128655
 31
0.0
210
0.0
220
0.0
230
0.9999999999999998
 40
0.5551658537088786
 41
3.945153628479324
 42
5.51594995527421
  0
LINE
  5
CD6B
330
1F
100
AcDbEntity
  8
Visible Edges(ISO)
100
AcDbLine
 10
322.9834687102179
 20
389.4432174088256
 30
0.0
 11
324.060824312635
 21
423.0282244691649
 31
0.0
  0
LINE
  5
CD6C
330
1F
100
AcDbEntity
  8
Visible Edges(ISO)
100
AcDbLine
 10
300.884221313183
 20
410.6572054362453
 30
0.0
 11
305.9717683130628
 21
413.3727949800569
 31
0.0
  0
LINE
  5
CD6D
330
1F
100
AcDbEntity
  8
Visible Edges(ISO)
100
AcDbLine
 10
304.8944127106457
 20
379.7877879197177
 30
0.0
 11
305.9717683130628
 21
413.3727949800569
 31
0.0
  0
ELLIPSE
  5
CD6E
330
1F
100
AcDbEntity
  8
Visible Edges(ISO)
100
AcDbEllipse
 10
315.5177088607684
 20
391.7436607836257
 30
0.0
 11
3.767115330054902
 21
-7.057537962353806
 31
0.0
210
0.0
220
0.0
230
1.0
 40
0.5987132381552597
 41
5.881212369632756
 42
7.088169574649217
  0
LINE
  5
CD6F
330
1F
100
AcDbEntity
  8
Visible Edges(ISO)
100
AcDbLine
 10
296.7245107549723
 20
377.7310159621066
 30
0.0
 11
299.0242207181004
 21
376.4032777958366
 31
0.0
  0
ELLIPSE
  5
CD70
330
1F
100
AcDbEntity
  8
Visible Edges(ISO)
100
AcDbEllipse
 10
301.0464640611106
 20
384.0193171923394
 30
0.0
 11
3.767115330054876
 21
-7.057537962353798
 31
0.0
210
0.0
220
0.0
230
1.0
 40
0.5987132381552597
 41
0.0000000000000149
 42
0.804984267469646
  0
ELLIPSE
  5
CD71
330
1F
100
AcDbEntity
  8
Visible Edges(ISO)
100
AcDbEllipse
 10
299.2375584611533
 20
383.0537742434285
 30
0.0
 11
3.767115330054903
 21
-7.057537962353808
 31
0.0
210
0.0
220
0.0
230
1.0
 40
0.5987132381552595
 41
5.517373247854321
 42
7.088169574649218
  0
ELLIPSE
  5
CD72
330
1F
100
AcDbEntity
  8
Visible Edges(ISO)
100
AcDbEllipse
 10
317.3266144607256
 20
392.7092037325365
 30
0.0
 11
3.767115330054894
 21
-7.057537962353827
 31
0.0
210
0.0
220
0.0
230
1.0
 40
0.5987132381552599
 41
0.0000000000000023
 42
0.8049842674696366
  0
LINE
  5
CD73
330
1F
100
AcDbEntity
  8
Visible Edges(ISO)
100
AcDbLine
 10
278.9430791635414
 20
414.9606099643914
 30
0.0
 11
279.0237531135227
 21
417.4755040008878
 31
0.0
  0
LINE
  5
CD74
330
1F
100
AcDbEntity
  8
Visible Edges(ISO)
100
AcDbLine
 10
281.9620063768883
 20
416.5720284287882
 30
0.0
 11
282.0140940806762
 21
418.1957874694901
 31
0.0
  0
ELLIPSE
  5
CD75
330
1F
100
AcDbEntity
  8
Visible Edges(ISO)
100
AcDbEllipse
 10
283.8242874405137
 20
417.1506718459026
 30
0.0
 11
1.205476905617695
 21
-2.258412147953117
 31
0.0
210
0.0
220
0.0
230
1.0
 40
0.5987132381552596
 41
3.755733809533889
 42
3.946576921059173
  0
LINE
  5
CD76
330
1F
100
AcDbEntity
  8
Visible Edges(ISO)
100
AcDbLine
 10
283.9625134558236
 20
419.2384404750653
 30
0.0
 11
286.0070873614741
 21
418.0580051802601
 31
0.0
  0
LINE
  5
CD77
330
1F
100
AcDbEntity
  8
Visible Edges(ISO)
100
AcDbLine
 10
299.7330768796877
 20
410.1333014370254
 30
0.0
 11
301.0328238942532
 21
409.3828921482877
 31
0.0
  0
ELLIPSE
  5
CD78
330
1F
100
AcDbEntity
  8
Visible Edges(ISO)
100
AcDbEllipse
 10
300.9645558164762
 20
407.2547332850582
 30
0.0
 11
-1.205476905617712
 21
2.258412147953148
 31
0.0
210
0.0
220
0.0
230
1.0
 40
0.5987132381552596
 41
3.946576921059206
 42
5.517373247854097
  0
LINE
  5
CD79
330
1F
100
AcDbEntity
  8
Visible Edges(ISO)
100
AcDbLine
 10
302.7747491763138
 20
406.2096176614708
 30
0.0
 11
301.9960664141708
 21
381.93530562776
 31
0.0
  0
ELLIPSE
  5
CD7A
330
1F
100
AcDbEntity
  8
Visible Edges(ISO)
100
AcDbEllipse
 10
298.2059740670109
 20
384.1235164646463
 30
0.0
 11
2.523967271137168
 21
-4.728550434777766
 31
0.0
210
0.0
220
0.0
230
0.9999999999999998
 40
0.5987132381552596
 41
5.885550036314707
 42
7.088169574649221
  0
ELLIPSE
  5
CD7B
330
1F
100
AcDbEntity
  8
Visible Edges(ISO)
100
AcDbEllipse
 10
281.3680741524343
 20
421.924858253048
 30
0.0
 11
-9.994858826654043
 21
0.320619767413441
 31
0.0
210
0.0
220
0.0
230
1.0
 40
0.5551658537088785
 41
0.0
 42
0.8035609748897849
  0
ELLIPSE
  5
CD7C
330
1F
100
AcDbEntity
  8
Visible Edges(ISO)
100
AcDbEllipse
 10
285.6121233269226
 20
417.2762106965946
 30
0.0
 11
-3.838025789435963
 21
0.1231179906865672
 31
0.0
210
0.0
220
0.0
230
1.0
 40
0.5551658537088785
 41
4.250688573297803
 42
5.337575831055079
  0
LINE
  5
CD7D
330
1F
100
AcDbEntity
  8
Visible Edges(ISO)
100
AcDbLine
 10
283.4213459602046
 20
419.0759846346197
 30
0.0
 11
276.847621064873
 21
416.6835122631953
 31
0.0
  0
LINE
  5
CD7E
330
1F
100
AcDbEntity
  8
Visible Edges(ISO)
100
AcDbLine
 10
304.8135793911654
 20
376.9617792299855
 30
0.0
 11
303.0046737912082
 21
375.9962362810747
 31
0.0
  0
LINE
  5
CD7F
330
1F
100
AcDbEntity
  8
Visible Edges(ISO)
100
AcDbLine
 10
321.0937297907805
 20
385.6516657701827
 30
0.0
 11
319.2848241908232
 21
384.6861228212718
 31
0.0
  0
LINE
  5
CD80
330
1F
100
AcDbEntity
  8
Visible Edges(ISO)
100
AcDbLine
 10
318.6342859521316
 20
385.0617112484986
 30
0.0
 11
306.1664456682018
 21
378.4067286587057
 31
0.0
  0
LINE
  5
CD81
330
1F
100
AcDbEntity
  8
Visible Edges(ISO)
100
AcDbLine
 10
271.5118848587647
 20
426.5683007113961
 30
0.0
 11
271.3732153257804
 21
422.2454780204613
 31
0.0
  0
LINE
  5
CD82
330
1F
100
AcDbEntity
  8
Visible Edges(ISO)
100
AcDbLine
 10
332.2108318602876
 20
433.8284998411364
 30
0.0
 11
332.0721623273032
 21
429.5056771502016
 31
0.0
  0
LINE
  5
CD83
330
1F
100
AcDbEntity
  8
Hidden Edges(ISO)
100
AcDbLine
 10
283.8925555182907
 20
419.278830709132
 30
0.0
 11
283.9625134558236
 21
419.2384404750653
 31
0.0
  0
ELLIPSE
  5
CD84
330
1F
100
AcDbEntity
  8
Hidden
100
AcDbEllipse
 10
351.6218381449714
 20
431.5683454415837
 30
0.0
 11
1.506846132022124
 21
-2.823015184941438
 31
0.0
210
0.0
220
0.0
230
0.9999999999999998
 40
0.5987132381552593
 41
3.946576921059222
 42
4.617362913805541
  0
ELLIPSE
  5
CD85
330
1F
100
AcDbEntity
  8
Hidden
100
AcDbEllipse
 10
348.8835499632738
 20
430.6229823836128
 30
0.0
 11
0.7534230660109859
 21
-1.411507592470786
 31
0.0
210
0.0
220
0.0
230
1.0
 40
0.5987132381552595
 41
0.8049842674696385
 42
1.475770260215844
  0
LINE
  5
CD86
330
1F
100
AcDbEntity
  8
Hidden
100
AcDbLine
 10
350.0149208131723
 20
429.9697851188706
 30
0.0
 11
349.9707516066379
 21
428.5928738093823
 31
0.0
  0
ELLIPSE
  5
CD87
330
1F
100
AcDbEntity
  8
Hidden
100
AcDbEllipse
 10
352.9123158163738
 20
426.8945609210527
 30
0.0
 11
1.958899971628758
 21
-3.669919740423864
 31
0.0
210
0.0
220
0.0
230
1.0
 40
0.5987132381552596
 41
3.94657692105922
 42
6.563290641147216
  0
LINE
  5
CD88
330
1F
100
AcDbEntity
  8
Hidden
100
AcDbLine
 10
255.8282970296637
 20
370.5420972663006
 30
0.0
 11
355.4023094722351
 21
423.6919054215481
 31
0.0
  0
LINE
  5
CD89
330
1F
100
AcDbEntity
  8
Hidden
100
AcDbLine
 10
355.4023094722351
 20
423.6919054215481
 30
0.0
 11
354.5386677600278
 21
425.0750094719607
 31
0.0
  0
ELLIPSE
  5
CD8A
330
1F
100
AcDbEntity
  8
Hidden
100
AcDbEllipse
 10
352.9123158163738
 20
426.8945609210527
 30
0.0
 11
1.20547690561756
 21
-2.258412147953225
 31
0.0
210
0.0
220
0.0
230
0.9999999999999998
 40
0.5987132381552595
 41
3.946576921059436
 42
6.669823188205758
  0
LINE
  5
CD8B
330
1F
100
AcDbEntity
  8
Hidden
100
AcDbLine
 10
351.1021224565364
 20
427.9396765446401
 30
0.0
 11
351.1462916630708
 21
429.3165878541284
 31
0.0
  0
ELLIPSE
  5
CD8C
330
1F
100
AcDbEntity
  8
Hidden
100
AcDbEllipse
 10
348.8835499632738
 20
430.6229823836128
 30
0.0
 11
-1.506846132022128
 21
2.823015184941447
 31
0.0
210
0.0
220
0.0
230
1.0
 40
0.5987132381552596
 41
3.946576921059222
 42
4.617362913805541
  0
ELLIPSE
  5
CD8D
330
1F
100
AcDbEntity
  8
Hidden
100
AcDbEllipse
 10
351.6218381449714
 20
431.5683454415837
 30
0.0
 11
-0.7534230660109686
 21
1.411507592470754
 31
0.0
210
0.0
220
0.0
230
1.0
 40
0.5987132381552595
 41
0.8049842674696385
 42
1.475770260215855
  0
LINE
  5
CD8E
330
1F
100
AcDbEntity
  8
Hidden
100
AcDbLine
 10
350.490467295073
 20
432.221542706326
 30
0.0
 11
351.0707459561768
 21
450.310893043776
 31
0.0
  0
ELLIPSE
  5
CD8F
330
1F
100
AcDbEntity
  8
Hidden
100
AcDbEllipse
 10
353.7860359959331
 20
448.7432196083948
 30
0.0
 11
-1.808215358426335
 21
3.387618221929833
 31
0.0
210
0.0
220
0.0
230
1.0
 40
0.5987132381552597
 41
5.517373247854334
 42
7.088169574649217
  0
LINE
  5
CD90
330
1F
100
AcDbEntity
  8
Hidden
100
AcDbLine
 10
353.8884381125985
 20
451.9354579032389
 30
0.0
 11
366.5597916314614
 21
444.6196485381266
 31
0.0
  0
ELLIPSE
  5
CD91
330
1F
100
AcDbEntity
  8
Hidden
100
AcDbEllipse
 10
366.457389514796
 20
441.4274102432824
 30
0.0
 11
1.808215358426127
 21
-3.387618221929945
 31
0.0
210
0.0
220
0.0
230
1.0
 40
0.5987132381552597
 41
0.8049842674698588
 42
2.375780594264771
  0
LINE
  5
CD92
330
1F
100
AcDbEntity
  8
Hidden
100
AcDbLine
 10
369.1726795545524
 20
439.8597368079013
 30
0.0
 11
368.5924008934486
 21
421.770386470451
 31
0.0
  0
ELLIPSE
  5
CD93
330
1F
100
AcDbEntity
  8
Hidden
100
AcDbEllipse
 10
367.46103004355
 20
422.4235837351931
 30
0.0
 11
0.7534230660109735
 21
-1.411507592470763
 31
0.0
210
0.0
220
0.0
230
1.0
 40
0.5987132381552593
 41
0.134198274723448
 42
0.8049842674696385
  0
ELLIPSE
  5
CD94
330
1F
100
AcDbEntity
  8
Hidden
100
AcDbEllipse
 10
370.0401848563752
 20
418.4081935329341
 30
0.0
 11
-1.506846132021944
 21
2.823015184941525
 31
0.0
210
0.0
220
0.0
230
1.0
 40
0.5987132381552597
 41
0.1341982747234319
 42
0.8049842674696446
  0
LINE
  5
CD95
330
1F
100
AcDbEntity
  8
Hidden
100
AcDbLine
 10
367.7774431565783
 20
419.7145880624184
 30
0.0
 11
367.7332739500439
 21
418.3376767529301
 31
0.0
  0
ELLIPSE
  5
CD96
330
1F
100
AcDbEntity
  8
Hidden
100
AcDbEllipse
 10
365.9230805902063
 20
419.3827923765176
 30
0.0
 11
1.205476905617555
 21
-2.258412147953219
 31
0.0
210
0.0
220
0.0
230
0.9999999999999998
 40
0.5987132381552593
 41
4.364923307502908
 42
7.088169574649236
  0
LINE
  5
CD97
330
1F
100
AcDbEntity
  8
Hidden
100
AcDbLine
 10
364.2412608333586
 20
419.4732147492358
 30
0.0
 11
363.3219054215243
 21
419.1195245683529
 31
0.0
  0
LINE
  5
CD98
330
1F
100
AcDbEntity
  8
Hidden
100
AcDbLine
 10
255.5411005543194
 20
361.5891613642588
 30
0.0
 11
363.3219054215244
 21
419.1195245683529
 31
0.0
  0
ELLIPSE
  5
CD99
330
1F
100
AcDbEntity
  8
Hidden
100
AcDbEllipse
 10
365.9230805902063
 20
419.3827923765176
 30
0.0
 11
1.95889997162853
 21
-3.669919740423986
 31
0.0
210
0.0
220
0.0
230
1.0
 40
0.5987132381552596
 41
4.471455854561106
 42
6.28318530717958
  0
ELLIPSE
  5
CD9A
330
1F
100
AcDbEntity
  8
Hidden
100
AcDbEllipse
 10
353.7860359959331
 20
448.7432196083948
 30
0.0
 11
-2.561638424437295
 21
4.79912581440057
 31
0.0
210
0.0
220
0.0
230
0.9999999999999998
 40
0.5987132381552597
 41
0.0000000000000052
 42
0.8049842674696463
  0
LINE
  5
CD9B
330
1F
100
AcDbEntity
  8
Hidden
100
AcDbLine
 10
349.9393751062783
 20
450.9640903085182
 30
0.0
 11
349.3590964451745
 21
432.8747399710681
 31
0.0
  0
LINE
  5
CD9C
330
1F
100
AcDbEntity
  8
Hidden
100
AcDbLine
 10
255.8814919927441
 20
372.2003735184665
 30
0.0
 11
354.1177927219915
 21
424.6361487730994
 31
0.0
  0
LINE
  5
CD9D
330
1F
100
AcDbEntity
  8
Hidden
100
AcDbLine
 10
238.9212206401802
 20
391.7844035234007
 30
0.0
 11
351.9778206375068
 21
452.1308378303245
 31
0.0
  0
LINE
  5
CD9E
330
1F
100
AcDbEntity
  8
Hidden
100
AcDbLine
 10
254.0719574984973
 20
356.7779459216405
 30
0.0
 11
367.1285574958239
 21
417.1243802285643
 31
0.0
  0
LINE
  5
CD9F
330
1F
100
AcDbEntity
  8
Hidden
100
AcDbLine
 10
301.6293114880653
 20
380.3490606869182
 30
0.0
 11
323.0586680607674
 21
391.7874487039362
 31
0.0
  0
LINE
  5
CDA0
330
1F
100
AcDbEntity
  8
Hidden
100
AcDbLine
 10
285.4012370123723
 20
418.4077930424019
 30
0.0
 11
320.3717841501869
 21
437.0740878503054
 31
0.0
  0
ELLIPSE
  5
CDA1
330
1F
100
AcDbEntity
  8
Visible Edges(ISO)
100
AcDbEllipse
 10
238.5652381476448
 20
371.2219111346598
 30
0.0
 11
-1.506846132021949
 21
2.823015184941533
 31
0.0
210
0.0
220
0.0
230
1.0
 40
0.5987132381552596
 41
0.8049842674696385
 42
1.475770260215846
  0
ELLIPSE
  5
CDA2
330
1F
100
AcDbEntity
  8
Visible Edges(ISO)
100
AcDbEllipse
 10
235.8269499659472
 20
370.2765480766887
 30
0.0
 11
-0.7534230660110725
 21
1.411507592470738
 31
0.0
210
0.0
220
0.0
230
1.0
 40
0.5987132381552593
 41
3.946576921059222
 42
4.617362913805541
  0
LINE
  5
CDA3
330
1F
100
AcDbEntity
  8
Visible Edges(ISO)
100
AcDbLine
 10
236.9141516093112
 20
368.2464395024583
 30
0.0
 11
236.9583208158457
 21
369.6233508119466
 31
0.0
  0
LINE
  5
CDA4
330
1F
100
AcDbEntity
  8
Visible Edges(ISO)
100
AcDbLine
 10
242.3457094749084
 20
363.345471114624
 30
0.0
 11
255.8282970296637
 21
370.5420972663006
 31
0.0
  0
ELLIPSE
  5
CDA5
330
1F
100
AcDbEntity
  8
Visible Edges(ISO)
100
AcDbEllipse
 10
239.8557158190473
 20
366.5481266141287
 30
0.0
 11
1.958899971628532
 21
-3.669919740423985
 31
0.0
210
0.0
220
0.0
230
0.9999999999999998
 40
0.5987132381552597
 41
3.946576921059429
 42
6.563290641147542
  0
LINE
  5
CDA6
330
1F
100
AcDbEntity
  8
Visible Edges(ISO)
100
AcDbLine
 10
241.4820677627012
 20
364.7285751650366
 30
0.0
 11
255.8884832112293
 21
372.4183146714734
 31
0.0
  0
LINE
  5
CDA7
330
1F
100
AcDbEntity
  8
Visible Edges(ISO)
100
AcDbLine
 10
241.4820677627012
 20
364.7285751650366
 30
0.0
 11
242.3457094749084
 21
363.345471114624
 31
0.0
  0
ELLIPSE
  5
CDA8
330
1F
100
AcDbEntity
  8
Visible Edges(ISO)
100
AcDbEllipse
 10
239.8557158190473
 20
366.5481266141287
 30
0.0
 11
1.205476905617699
 21
-2.258412147953152
 31
0.0
210
0.0
220
0.0
230
1.0
 40
0.5987132381552597
 41
3.946576921059218
 42
6.669823188205444
  0
LINE
  5
CDA9
330
1F
100
AcDbEntity
  8
Visible Edges(ISO)
100
AcDbLine
 10
238.0896916657441
 20
368.9701535472044
 30
0.0
 11
238.0455224592097
 21
367.5932422377162
 31
0.0
  0
ELLIPSE
  5
CDAA
330
1F
100
AcDbEntity
  8
Visible Edges(ISO)
100
AcDbEllipse
 10
235.8269499659472
 20
370.2765480766887
 30
0.0
 11
1.506846132021953
 21
-2.823015184941539
 31
0.0
210
0.0
220
0.0
230
1.0
 40
0.5987132381552593
 41
0.8049842674696385
 42
1.475770260215842
  0
ELLIPSE
  5
CDAB
330
1F
100
AcDbEntity
  8
Visible Edges(ISO)
100
AcDbEllipse
 10
238.5652381476448
 20
371.2219111346598
 30
0.0
 11
0.7534230660110613
 21
-1.411507592470718
 31
0.0
210
0.0
220
0.0
230
1.0
 40
0.5987132381552596
 41
3.946576921059222
 42
4.617362913805541
  0
LINE
  5
CDAC
330
1F
100
AcDbEntity
  8
Visible Edges(ISO)
100
AcDbLine
 10
238.0141459588502
 20
389.9644587368521
 30
0.0
 11
237.4338672977464
 21
371.8751083994019
 31
0.0
  0
ELLIPSE
  5
CDAD
330
1F
100
AcDbEntity
  8
Visible Edges(ISO)
100
AcDbEllipse
 10
240.7294359986065
 20
388.3967853014708
 30
0.0
 11
-1.808215358426333
 21
3.387618221929826
 31
0.0
210
0.0
220
0.0
230
1.0
 40
0.5987132381552596
 41
5.517373247854323
 42
7.088169574649226
  0
LINE
  5
CDAE
330
1F
100
AcDbEntity
  8
Visible Edges(ISO)
100
AcDbLine
 10
253.5031916341348
 20
384.2732142312026
 30
0.0
 11
240.8318381152719
 21
391.589023596315
 31
0.0
  0
ELLIPSE
  5
CDAF
330
1F
100
AcDbEntity
  8
Visible Edges(ISO)
100
AcDbEllipse
 10
253.4007895174694
 20
381.0809759363584
 30
0.0
 11
-1.808215358426543
 21
3.387618221929716
 31
0.0
210
0.0
220
0.0
230
1.0
 40
0.5987132381552597
 41
3.946576921059218
 42
5.517373247854103
  0
LINE
  5
CDB0
330
1F
100
AcDbEntity
  8
Visible Edges(ISO)
100
AcDbLine
 10
255.5358008961219
 20
361.423952163527
 30
0.0
 11
256.1160795572257
 21
379.5133025009773
 31
0.0
  0
ELLIPSE
  5
CDB1
330
1F
100
AcDbEntity
  8
Visible Edges(ISO)
100
AcDbEllipse
 10
254.4044300462234
 20
362.0771494282693
 30
0.0
 11
0.7534230660109742
 21
-1.411507592470765
 31
0.0
210
0.0
220
0.0
230
1.0
 40
0.5987132381552596
 41
0.1341982747234315
 42
0.8049842674696389
  0
ELLIPSE
  5
CDB2
330
1F
100
AcDbEntity
  8
Visible Edges(ISO)
100
AcDbEllipse
 10
256.9835848590486
 20
358.0617592260101
 30
0.0
 11
-1.506846132021943
 21
2.82301518494152
 31
0.0
210
0.0
220
0.0
230
1.0
 40
0.5987132381552596
 41
0.1341982747234311
 42
0.8049842674696412
  0
LINE
  5
CDB3
330
1F
100
AcDbEntity
  8
Visible Edges(ISO)
100
AcDbLine
 10
254.6766739527172
 20
357.9912424460061
 30
0.0
 11
254.7208431592517
 21
359.3681537554944
 31
0.0
  0
LINE
  5
CDB4
330
1F
100
AcDbEntity
  8
Visible Edges(ISO)
100
AcDbLine
 10
251.184660836032
 20
359.1267804423118
 30
0.0
 11
255.5366280723808
 21
361.4497381903815
 31
0.0
  0
ELLIPSE
  5
CDB5
330
1F
100
AcDbEntity
  8
Visible Edges(ISO)
100
AcDbEllipse
 10
252.8664805928797
 20
359.0363580695936
 30
0.0
 11
1.205476905617555
 21
-2.258412147953218
 31
0.0
210
0.0
220
0.0
230
1.0
 40
0.5987132381552593
 41
4.364923307502896
 42
7.088169574649222
  0
LINE
  5
CDB6
330
1F
100
AcDbEntity
  8
Visible Edges(ISO)
100
AcDbLine
 10
250.2653054241978
 20
358.7730902614288
 30
0.0
 11
255.5411005543194
 21
361.5891613642588
 31
0.0
  0
LINE
  5
CDB7
330
1F
100
AcDbEntity
  8
Visible Edges(ISO)
100
AcDbLine
 10
250.2653054241978
 20
358.7730902614288
 30
0.0
 11
251.184660836032
 21
359.1267804423118
 31
0.0
  0
ELLIPSE
  5
CDB8
330
1F
100
AcDbEntity
  8
Visible Edges(ISO)
100
AcDbEllipse
 10
365.9230805902063
 20
419.3827923765176
 30
0.0
 11
1.958899971628531
 21
-3.669919740423984
 31
0.0
210
0.0
220
0.0
230
1.0
 40
0.5987132381552595
 41
0.0
 42
0.8049842674696234
  0
ELLIPSE
  5
CDB9
330
1F
100
AcDbEntity
  8
Visible Edges(ISO)
100
AcDbEllipse
 10
252.8664805928797
 20
359.0363580695936
 30
0.0
 11
1.958899971628532
 21
-3.669919740423987
 31
0.0
210
0.0
220
0.0
230
1.0
 40
0.5987132381552593
 41
4.471455854561106
 42
7.088169574649223
  0
LINE
  5
CDBA
330
1F
100
AcDbEntity
  8
Visible Edges(ISO)
100
AcDbLine
 10
368.8646447999423
 20
417.684479488188
 30
0.0
 11
368.9088140064768
 21
419.0613907976763
 31
0.0
  0
LINE
  5
CDBB
330
1F
100
AcDbEntity
  8
Visible Edges(ISO)
100
AcDbLine
 10
255.8522140091501
 20
358.7149564907522
 30
0.0
 11
255.8080448026157
 21
357.3380451812639
 31
0.0
  0
ELLIPSE
  5
CDBC
330
1F
100
AcDbEntity
  8
Visible Edges(ISO)
100
AcDbEllipse
 10
370.0401848563752
 20
418.4081935329341
 30
0.0
 11
-0.7534230660109636
 21
1.411507592470745
 31
0.0
210
0.0
220
0.0
230
1.0
 40
0.5987132381552595
 41
0.1341982747234223
 42
0.8049842674696598
  0
ELLIPSE
  5
CDBD
330
1F
100
AcDbEntity
  8
Visible Edges(ISO)
100
AcDbEllipse
 10
256.9835848590486
 20
358.0617592260101
 30
0.0
 11
-0.7534230660109616
 21
1.411507592470742
 31
0.0
210
0.0
220
0.0
230
0.9999999999999998
 40
0.5987132381552596
 41
0.1341982747234147
 42
0.804984267469632
  0
ELLIPSE
  5
CDBE
330
1F
100
AcDbEntity
  8
Visible Edges(ISO)
100
AcDbEllipse
 10
367.46103004355
 20
422.4235837351931
 30
0.0
 11
1.506846132021947
 21
-2.823015184941527
 31
0.0
210
0.0
220
0.0
230
1.0
 40
0.5987132381552599
 41
0.1341982747234311
 42
0.8049842674696439
  0
ELLIPSE
  5
CDBF
330
1F
100
AcDbEntity
  8
Visible Edges(ISO)
100
AcDbEllipse
 10
254.4044300462234
 20
362.0771494282693
 30
0.0
 11
1.506846132021946
 21
-2.823015184941525
 31
0.0
210
0.0
220
0.0
230
1.0
 40
0.5987132381552597
 41
0.1341982747234311
 42
0.8049842674696385
  0
LINE
  5
CDC0
330
1F
100
AcDbEntity
  8
Visible Edges(ISO)
100
AcDbLine
 10
369.7237717433471
 20
421.1171892057088
 30
0.0
 11
370.3040504044508
 21
439.206539543159
 31
0.0
  0
LINE
  5
CDC1
330
1F
100
AcDbEntity
  8
Visible Edges(ISO)
100
AcDbLine
 10
257.2474504071242
 20
378.860105236235
 30
0.0
 11
256.6671717460204
 21
360.7707548987848
 31
0.0
  0
ELLIPSE
  5
CDC2
330
1F
100
AcDbEntity
  8
Visible Edges(ISO)
100
AcDbEllipse
 10
366.457389514796
 20
441.4274102432823
 30
0.0
 11
-2.561638424437608
 21
4.799125814400442
 31
0.0
210
0.0
220
0.0
230
1.0
 40
0.5987132381552597
 41
3.946576921059213
 42
5.517373247854096
  0
ELLIPSE
  5
CDC3
330
1F
100
AcDbEntity
  8
Visible Edges(ISO)
100
AcDbEllipse
 10
253.4007895174694
 20
381.0809759363584
 30
0.0
 11
2.561638424437015
 21
-4.799125814400758
 31
0.0
210
0.0
220
0.0
230
0.9999999999999998
 40
0.5987132381552596
 41
0.8049842674698597
 42
2.375780594264764
  0
LINE
  5
CDC4
330
1F
100
AcDbEntity
  8
Visible Edges(ISO)
100
AcDbLine
 10
366.602459180072
 20
445.9497478276449
 30
0.0
 11
353.9311056612091
 21
453.2655571927573
 31
0.0
  0
LINE
  5
CDC5
330
1F
100
AcDbEntity
  8
Visible Edges(ISO)
100
AcDbLine
 10
240.8745056638825
 20
392.9191228858333
 30
0.0
 11
253.5458591827454
 21
385.6033135207209
 31
0.0
  0
ELLIPSE
  5
CDC6
330
1F
100
AcDbEntity
  8
Visible Edges(ISO)
100
AcDbEllipse
 10
353.7860359959331
 20
448.7432196083947
 30
0.0
 11
-2.561638424437314
 21
4.799125814400603
 31
0.0
210
0.0
220
0.0
230
1.0
 40
0.5987132381552596
 41
5.517373247854322
 42
6.283185307179587
  0
ELLIPSE
  5
CDC7
330
1F
100
AcDbEntity
  8
Visible Edges(ISO)
100
AcDbEllipse
 10
240.7294359986065
 20
388.3967853014708
 30
0.0
 11
-2.561638424437309
 21
4.799125814400594
 31
0.0
210
0.0
220
0.0
230
1.0
 40
0.5987132381552597
 41
5.51737324785433
 42
7.088169574649223
  0
LINE
  5
CDC8
330
1F
100
AcDbEntity
  8
Visible Edges(ISO)
100
AcDbLine
 10
236.3024964478479
 20
372.5283056641441
 30
0.0
 11
236.8827751089517
 21
390.6176560015942
 31
0.0
  0
LINE
  5
CDC9
330
1F
100
AcDbEntity
  8
Visible Edges(ISO)
100
AcDbLine
 10
254.8253805645082
 20
355.3664383291697
 30
0.0
 11
301.6293114880653
 21
380.3490606869182
 31
0.0
  0
LINE
  5
CDCA
330
1F
100
AcDbEntity
  8
Visible Edges(ISO)
100
AcDbLine
 10
323.0586680607673
 20
391.7874487039362
 30
0.0
 11
367.8819805618348
 21
415.7128726360936
 31
0.0
  0
LINE
  5
CDCB
330
1F
100
AcDbEntity
  8
Visible Edges(ISO)
100
AcDbLine
 10
238.1677975741692
 20
393.1959111158715
 30
0.0
 11
285.4012370123723
 21
418.4077930424019
 31
0.0
  0
LINE
  5
CDCC
330
1F
100
AcDbEntity
  8
Visible Edges(ISO)
100
AcDbLine
 10
320.3717841501869
 20
437.0740878503054
 30
0.0
 11
351.2243975714958
 21
453.5423454227953
 31
0.0
  0
LINE
  5
CDCD
330
1F
100
AcDbEntity
  8
Visible Edges(ISO)
100
AcDbLine
 10
322.155916728304
 20
419.0699581188376
 30
0.0
 11
307.6846719286461
 21
411.3456145275513
 31
0.0
  0
LINE
  5
CDCE
330
1F
100
AcDbEntity
  8
Visible Edges(ISO)
100
AcDbLine
 10
321.1745631102607
 20
388.4776744599148
 30
0.0
 11
322.155916728304
 21
419.0699581188376
 31
0.0
  0
LINE
  5
CDCF
330
1F
100
AcDbEntity
  8
Visible Edges(ISO)
100
AcDbLine
 10
306.7033183106029
 20
380.7533308686284
 30
0.0
 11
307.6846719286461
 21
411.3456145275513
 31
0.0
  0
LINE
  5
CDD0
330
1F
100
AcDbEntity
  8
Visible Edges(ISO)
100
AcDbLine
 10
321.4817873505662
 20
418.7101268112538
 30
0.0
 11
320.5240248715691
 21
388.8532628871415
 31
0.0
  0
ELLIPSE
  5
CDD1
330
1F
100
AcDbEntity
  8
Visible Edges(ISO)
100
AcDbEllipse
 10
314.8671706220767
 20
392.1192492108525
 30
0.0
 11
3.767115330054902
 21
-7.057537962353806
 31
0.0
210
0.0
220
0.0
230
1.0
 40
0.5987132381552597
 41
0.0
 42
0.8049842674696296
  0
LINE
  5
CF18
330
1F
100
AcDbEntity
  8
Visible Edges(ISO)
100
AcDbLine
 10
248.8769543103824
 20
246.5394065079779
 30
0.0
 11
247.1007949765924
 21
246.5394065079779
 31
0.0
  0
LINE
  5
CF19
330
1F
100
AcDbEntity
  8
Visible Edges(ISO)
100
AcDbLine
 10
253.3769543103824
 20
246.5394065079779
 30
0.0
 11
248.8769543103824
 21
246.5394065079779
 31
0.0
  0
LINE
  5
CF1A
330
1F
100
AcDbEntity
  8
Visible Edges(ISO)
100
AcDbLine
 10
265.8769543103824
 20
246.5394065079779
 30
0.0
 11
253.3769543103824
 21
246.5394065079779
 31
0.0
  0
LINE
  5
CF1B
330
1F
100
AcDbEntity
  8
Visible Edges(ISO)
100
AcDbLine
 10
218.8769543103824
 20
246.5394065079779
 30
0.0
 11
231.3769543103824
 21
246.5394065079779
 31
0.0
  0
LINE
  5
CF1C
330
1F
100
AcDbEntity
  8
Visible Edges(ISO)
100
AcDbLine
 10
235.8769543103824
 20
246.5394065079779
 30
0.0
 11
231.3769543103824
 21
246.5394065079779
 31
0.0
  0
LINE
  5
CF1D
330
1F
100
AcDbEntity
  8
Visible Edges(ISO)
100
AcDbLine
 10
237.6531136441754
 20
246.5394065079779
 30
0.0
 11
235.8769543103824
 21
246.5394065079779
 31
0.0
  0
LINE
  5
CF1E
330
1F
100
AcDbEntity
  8
Visible Edges(ISO)
100
AcDbLine
 10
247.1007949765882
 20
246.5394065079779
 30
0.0
 11
237.6531136441767
 21
246.5394065079779
 31
0.0
  0
LINE
  5
CF1F
330
1F
100
AcDbEntity
  8
Visible Edges(ISO)
100
AcDbLine
 10
248.8769543103824
 20
240.0394065079779
 30
0.0
 11
248.8769543103824
 21
246.5394065079779
 31
0.0
  0
LINE
  5
CF20
330
1F
100
AcDbEntity
  8
Visible Edges(ISO)
100
AcDbLine
 10
248.8769543103824
 20
240.0394065079779
 30
0.0
 11
247.1007949765924
 21
240.0394065079779
 31
0.0
  0
LINE
  5
CF21
330
1F
100
AcDbEntity
  8
Visible Edges(ISO)
100
AcDbLine
 10
248.8769543103824
 20
240.0394065079779
 30
0.0
 11
253.3769543103824
 21
240.0394065079779
 31
0.0
  0
LINE
  5
CF22
330
1F
100
AcDbEntity
  8
Visible Edges(ISO)
100
AcDbLine
 10
235.8769543103824
 20
240.0394065079779
 30
0.0
 11
235.8769543103824
 21
246.5394065079779
 31
0.0
  0
LINE
  5
CF23
330
1F
100
AcDbEntity
  8
Visible Edges(ISO)
100
AcDbLine
 10
231.3769543103824
 20
240.0394065079779
 30
0.0
 11
235.8769543103824
 21
240.0394065079779
 31
0.0
  0
LINE
  5
CF24
330
1F
100
AcDbEntity
  8
Visible Edges(ISO)
100
AcDbLine
 10
265.8769543103824
 20
240.0394065079779
 30
0.0
 11
253.3769543103824
 21
240.0394065079779
 31
0.0
  0
LINE
  5
CF25
330
1F
100
AcDbEntity
  8
Visible Edges(ISO)
100
AcDbLine
 10
265.8769543103824
 20
240.0394065079779
 30
0.0
 11
265.8769543103824
 21
246.5394065079779
 31
0.0
  0
LINE
  5
CF26
330
1F
100
AcDbEntity
  8
Visible Edges(ISO)
100
AcDbLine
 10
265.8769543103824
 20
189.5394065079779
 30
0.0
 11
265.8769543103824
 21
240.0394065079779
 31
0.0
  0
LINE
  5
CF27
330
1F
100
AcDbEntity
  8
Visible Edges(ISO)
100
AcDbLine
 10
251.3056339668224
 20
179.5394065079779
 30
0.0
 11
255.8769543103824
 21
179.5394065079779
 31
0.0
  0
ARC
  5
CF28
330
1F
100
AcDbEntity
  8
Visible Edges(ISO)
100
AcDbCircle
 10
255.8769543103824
 20
189.5394065079779
 30
0.0
 40
10.0
100
AcDbArc
 50
270.0
 51
0.0
  0
LINE
  5
CF29
330
1F
100
AcDbEntity
  8
Visible Edges(ISO)
100
AcDbLine
 10
218.8769543103824
 20
189.5394065079779
 30
0.0
 11
218.8769543103824
 21
240.0394065079779
 31
0.0
  0
ARC
  5
CF2A
330
1F
100
AcDbEntity
  8
Visible Edges(ISO)
100
AcDbCircle
 10
228.8769543103824
 20
189.5394065079779
 30
0.0
 40
10.0
100
AcDbArc
 50
180.0
 51
270.0
  0
LINE
  5
CF2B
330
1F
100
AcDbEntity
  8
Visible Edges(ISO)
100
AcDbLine
 10
228.8769543103824
 20
179.5394065079779
 30
0.0
 11
233.4482746539384
 21
179.5394065079779
 31
0.0
  0
LINE
  5
CF2C
330
1F
100
AcDbEntity
  8
Visible Edges(ISO)
100
AcDbLine
 10
233.4482746539384
 20
179.5394065079779
 30
0.0
 11
236.3876144821614
 21
182.4787463361999
 31
0.0
  0
ARC
  5
CF2D
330
1F
100
AcDbEntity
  8
Visible Edges(ISO)
100
AcDbCircle
 10
235.3269543103824
 20
183.5394065079788
 30
0.0
 40
1.499999999999
100
AcDbArc
 50
315.0000000000002
 51
140.6995831891176
  0
ARC
  5
CF2E
330
1F
100
AcDbEntity
  8
Visible Edges(ISO)
100
AcDbCircle
 10
230.7269543103824
 20
190.2394065079775
 30
0.0
 40
6.700000000001001
100
AcDbArc
 50
180.0
 51
300.8852532989454
  0
LINE
  5
CF2F
330
1F
100
AcDbEntity
  8
Visible Edges(ISO)
100
AcDbLine
 10
224.0269543103814
 20
190.2394065079775
 30
0.0
 11
224.0269543103814
 21
226.7394065079779
 31
0.0
  0
ARC
  5
CF30
330
1F
100
AcDbEntity
  8
Visible Edges(ISO)
100
AcDbCircle
 10
227.2269543103814
 20
226.7394065079779
 30
0.0
 40
3.200000000000002
100
AcDbArc
 50
90.0
 51
180.0
  0
LINE
  5
CF31
330
1F
100
AcDbEntity
  8
Visible Edges(ISO)
100
AcDbLine
 10
227.2269543103814
 20
229.9394065079779
 30
0.0
 11
232.3769543103814
 21
229.9394065079779
 31
0.0
  0
LINE
  5
CF32
330
1F
100
AcDbEntity
  8
Visible Edges(ISO)
100
AcDbLine
 10
232.3769543103814
 20
229.9394065079779
 30
0.0
 11
232.3769543103814
 21
231.9394065079779
 31
0.0
  0
LINE
  5
CF33
330
1F
100
AcDbEntity
  8
Visible Edges(ISO)
100
AcDbLine
 10
232.3769543103814
 20
231.9394065079779
 30
0.0
 11
252.3769543103824
 21
231.9394065079779
 31
0.0
  0
LINE
  5
CF34
330
1F
100
AcDbEntity
  8
Visible Edges(ISO)
100
AcDbLine
 10
252.3769543103824
 20
231.9394065079779
 30
0.0
 11
252.3769543103824
 21
229.9394065079779
 31
0.0
  0
LINE
  5
CF35
330
1F
100
AcDbEntity
  8
Visible Edges(ISO)
100
AcDbLine
 10
252.3769543103824
 20
229.9394065079779
 30
0.0
 11
257.5269543103824
 21
229.9394065079779
 31
0.0
  0
ARC
  5
CF36
330
1F
100
AcDbEntity
  8
Visible Edges(ISO)
100
AcDbCircle
 10
257.5269543103824
 20
226.7394065079779
 30
0.0
 40
3.200000000000007
100
AcDbArc
 50
0.0
 51
90.0
  0
LINE
  5
CF37
330
1F
100
AcDbEntity
  8
Visible Edges(ISO)
100
AcDbLine
 10
260.7269543103824
 20
226.7394065079779
 30
0.0
 11
260.7269543103824
 21
190.2394065079775
 31
0.0
  0
ARC
  5
CF38
330
1F
100
AcDbEntity
  8
Visible Edges(ISO)
100
AcDbCircle
 10
254.0269543103824
 20
190.2394065079775
 30
0.0
 40
6.700000000000999
100
AcDbArc
 50
239.1147467010247
 51
0.0
  0
ARC
  5
CF39
330
1F
100
AcDbEntity
  8
Visible Edges(ISO)
100
AcDbCircle
 10
249.4269543103824
 20
183.5394065079788
 30
0.0
 40
1.499999999998999
100
AcDbArc
 50
39.30041681097943
 51
224.9999999999721
  0
LINE
  5
CF3A
330
1F
100
AcDbEntity
  8
Visible Edges(ISO)
100
AcDbLine
 10
248.3662941386024
 20
182.4787463361999
 30
0.0
 11
251.3056339668224
 21
179.5394065079779
 31
0.0
  0
LINE
  5
CF3B
330
1F
100
AcDbEntity
  8
Visible Edges(ISO)
100
AcDbLine
 10
218.8769543103824
 20
246.5394065079779
 30
0.0
 11
218.8769543103824
 21
240.0394065079779
 31
0.0
  0
LINE
  5
CF3C
330
1F
100
AcDbEntity
  8
Visible Edges(ISO)
100
AcDbLine
 10
218.8769543103824
 20
240.0394065079779
 30
0.0
 11
231.3769543103824
 21
240.0394065079779
 31
0.0
  0
LINE
  5
CF3D
330
1F
100
AcDbEntity
  8
Visible Edges(ISO)
100
AcDbLine
 10
247.1007949765882
 20
240.0394065079779
 30
0.0
 11
237.6531136441767
 21
240.0394065079779
 31
0.0
  0
LINE
  5
CF3E
330
1F
100
AcDbEntity
  8
Visible Edges(ISO)
100
AcDbLine
 10
237.6531136441754
 20
240.0394065079779
 30
0.0
 11
235.8769543103824
 21
240.0394065079779
 31
0.0
  0
LINE
  5
CF3F
330
1F
100
AcDbEntity
  8
Visible Edges(ISO)
100
AcDbLine
 10
391.0845603253786
 20
240.0394065079779
 30
0.0
 11
391.0845603253786
 21
246.5394065079779
 31
0.0
  0
LINE
  5
CF40
330
1F
100
AcDbEntity
  8
Visible Edges(ISO)
100
AcDbLine
 10
378.5845603253823
 20
240.0394065079779
 30
0.0
 11
391.0845603253786
 21
240.0394065079779
 31
0.0
  0
LINE
  5
CF41
330
1F
100
AcDbEntity
  8
Visible Edges(ISO)
100
AcDbLine
 10
378.5845603253823
 20
240.0394065079779
 30
0.0
 11
369.5845603253823
 21
240.0394065079779
 31
0.0
  0
LINE
  5
CF42
330
1F
100
AcDbEntity
  8
Visible Edges(ISO)
100
AcDbLine
 10
328.5845603253823
 20
246.5394065079779
 30
0.0
 11
316.0845603253786
 21
246.5394065079779
 31
0.0
  0
LINE
  5
CF43
330
1F
100
AcDbEntity
  8
Visible Edges(ISO)
100
AcDbLine
 10
378.5845603253823
 20
246.5394065079779
 30
0.0
 11
328.5845603253823
 21
246.5394065079779
 31
0.0
  0
LINE
  5
CF44
330
1F
100
AcDbEntity
  8
Visible Edges(ISO)
100
AcDbLine
 10
378.5845603253823
 20
246.5394065079779
 30
0.0
 11
391.0845603253786
 21
246.5394065079779
 31
0.0
  0
LINE
  5
CF45
330
1F
100
AcDbEntity
  8
Visible Edges(ISO)
100
AcDbLine
 10
316.0845603253786
 20
240.0394065079779
 30
0.0
 11
316.0845603253786
 21
246.5394065079779
 31
0.0
  0
LINE
  5
CF46
330
1F
100
AcDbEntity
  8
Visible Edges(ISO)
100
AcDbLine
 10
328.5845603253823
 20
240.0394065079779
 30
0.0
 11
316.0845603253786
 21
240.0394065079779
 31
0.0
  0
LINE
  5
CF47
330
1F
100
AcDbEntity
  8
Visible Edges(ISO)
100
AcDbLine
 10
366.3845603253823
 20
235.5394065079779
 30
0.0
 11
340.7845603253823
 21
235.5394065079779
 31
0.0
  0
LINE
  5
CF48
330
1F
100
AcDbEntity
  8
Visible Edges(ISO)
100
AcDbLine
 10
366.3845603253823
 20
189.5394065079779
 30
0.0
 11
366.3845603253823
 21
235.5394065079779
 31
0.0
  0
LINE
  5
CF49
330
1F
100
AcDbEntity
  8
Visible Edges(ISO)
100
AcDbLine
 10
369.5845603253823
 20
189.5394065079779
 30
0.0
 11
369.5845603253823
 21
240.0394065079779
 31
0.0
  0
LINE
  5
CF4A
330
1F
100
AcDbEntity
  8
Visible Edges(ISO)
100
AcDbLine
 10
328.5845603253823
 20
240.0394065079779
 30
0.0
 11
337.5845603253822
 21
240.0394065079779
 31
0.0
  0
LINE
  5
CF4B
330
1F
100
AcDbEntity
  8
Visible Edges(ISO)
100
AcDbLine
 10
337.5845603253822
 20
189.5394065079779
 30
0.0
 11
337.5845603253822
 21
240.0394065079779
 31
0.0
  0
LINE
  5
CF4C
330
1F
100
AcDbEntity
  8
Visible Edges(ISO)
100
AcDbLine
 10
340.7845603253823
 20
189.5394065079779
 30
0.0
 11
340.7845603253823
 21
235.5394065079779
 31
0.0
  0
LINE
  5
CF4D
330
1F
100
AcDbEntity
  8
Visible Edges(ISO)
100
AcDbLine
 10
366.3845603253823
 20
189.5394065079779
 30
0.0
 11
366.3845603253794
 21
179.5394065079779
 31
0.0
  0
LINE
  5
CF4E
330
1F
100
AcDbEntity
  8
Visible Edges(ISO)
100
AcDbLine
 10
366.384560325379
 20
179.5394065079779
 30
0.0
 11
340.784560325379
 21
179.5394065079779
 31
0.0
  0
LINE
  5
CF4F
330
1F
100
AcDbEntity
  8
Visible Edges(ISO)
100
AcDbLine
 10
340.7845603253794
 20
179.5394065079779
 30
0.0
 11
337.5845603253794
 21
179.5394065079779
 31
0.0
  0
LINE
  5
CF50
330
1F
100
AcDbEntity
  8
Visible Edges(ISO)
100
AcDbLine
 10
369.5845603253794
 20
179.5394065079779
 30
0.0
 11
366.3845603253794
 21
179.5394065079779
 31
0.0
  0
LINE
  5
CF51
330
1F
100
AcDbEntity
  8
Visible Edges(ISO)
100
AcDbLine
 10
340.7845603253823
 20
189.5394065079779
 30
0.0
 11
340.7845603253794
 21
179.5394065079779
 31
0.0
  0
LINE
  5
CF52
330
1F
100
AcDbEntity
  8
Visible Edges(ISO)
100
AcDbLine
 10
337.5845603253822
 20
189.5394065079779
 30
0.0
 11
337.5845603253794
 21
179.5394065079779
 31
0.0
  0
LINE
  5
CF53
330
1F
100
AcDbEntity
  8
Visible Edges(ISO)
100
AcDbLine
 10
369.5845603253823
 20
189.5394065079779
 30
0.0
 11
369.5845603253794
 21
179.5394065079779
 31
0.0
  0
LINE
  5
CF54
330
1F
100
AcDbEntity
  8
Visible Edges(ISO)
100
AcDbLine
 10
347.5845603253822
 20
215.0394065079779
 30
0.0
 11
347.5845603253822
 21
224.5394065079779
 31
0.0
  0
LINE
  5
CF55
330
1F
100
AcDbEntity
  8
Visible Edges(ISO)
100
AcDbLine
 10
359.5845603253823
 20
215.0394065079779
 30
0.0
 11
347.5845603253822
 21
215.0394065079779
 31
0.0
  0
LINE
  5
CF56
330
1F
100
AcDbEntity
  8
Visible Edges(ISO)
100
AcDbLine
 10
359.5845603253823
 20
224.5394065079779
 30
0.0
 11
359.5845603253823
 21
215.0394065079779
 31
0.0
  0
LINE
  5
CF57
330
1F
100
AcDbEntity
  8
Visible Edges(ISO)
100
AcDbLine
 10
360.5845603253822
 20
224.5394065079779
 30
0.0
 11
359.5845603253823
 21
224.5394065079779
 31
0.0
  0
LINE
  5
CF58
330
1F
100
AcDbEntity
  8
Visible Edges(ISO)
100
AcDbLine
 10
360.5845603253822
 20
204.5394065079779
 30
0.0
 11
360.5845603253822
 21
224.5394065079779
 31
0.0
  0
LINE
  5
CF59
330
1F
100
AcDbEntity
  8
Visible Edges(ISO)
100
AcDbLine
 10
359.5845603253823
 20
204.5394065079779
 30
0.0
 11
360.5845603253822
 21
204.5394065079779
 31
0.0
  0
LINE
  5
CF5A
330
1F
100
AcDbEntity
  8
Visible Edges(ISO)
100
AcDbLine
 10
359.5845603253823
 20
214.0394065079779
 30
0.0
 11
359.5845603253823
 21
204.5394065079779
 31
0.0
  0
LINE
  5
CF5B
330
1F
100
AcDbEntity
  8
Visible Edges(ISO)
100
AcDbLine
 10
347.5845603253822
 20
214.0394065079779
 30
0.0
 11
359.5845603253823
 21
214.0394065079779
 31
0.0
  0
LINE
  5
CF5C
330
1F
100
AcDbEntity
  8
Visible Edges(ISO)
100
AcDbLine
 10
347.5845603253822
 20
204.5394065079779
 30
0.0
 11
347.5845603253822
 21
214.0394065079779
 31
0.0
  0
LINE
  5
CF5D
330
1F
100
AcDbEntity
  8
Visible Edges(ISO)
100
AcDbLine
 10
346.5845603253822
 20
204.5394065079779
 30
0.0
 11
347.5845603253822
 21
204.5394065079779
 31
0.0
  0
LINE
  5
CF5E
330
1F
100
AcDbEntity
  8
Visible Edges(ISO)
100
AcDbLine
 10
346.5845603253822
 20
224.5394065079779
 30
0.0
 11
346.5845603253822
 21
204.5394065079779
 31
0.0
  0
LINE
  5
CF5F
330
1F
100
AcDbEntity
  8
Visible Edges(ISO)
100
AcDbLine
 10
347.5845603253822
 20
224.5394065079779
 30
0.0
 11
346.5845603253822
 21
224.5394065079779
 31
0.0
  0
LINE
  5
CF60
330
1F
100
AcDbEntity
  8
Hidden
 48
0.3
100
AcDbLine
 10
329.8845603253763
 20
240.0394065079779
 30
0.0
 11
329.8845603253763
 21
246.5394065079779
 31
0.0
  0
LINE
  5
CF61
330
1F
100
AcDbEntity
  8
Hidden
 48
0.3
100
AcDbLine
 10
377.2845603253744
 20
240.0394065079779
 30
0.0
 11
377.2845603253744
 21
246.5394065079779
 31
0.0
  0
LINE
  5
CF62
330
1F
100
AcDbEntity
  8
CENTER
 48
0.25
100
AcDbLine
 10
242.3769543103824
 20
177.2966442476
 30
0.0
 11
242.3769543103824
 21
248.7333947884196
 31
0.0
  0
LINE
  5
CF63
330
1F
100
AcDbEntity
  8
CENTER
 48
0.25
100
AcDbLine
 10
353.5845603253823
 20
177.2966442476
 30
0.0
 11
353.5845603253823
 21
248.7333947884196
 31
0.0
  0
LINE
  5
CF64
330
1F
100
AcDbEntity
  8
CENTER
 48
0.25
100
AcDbLine
 10
323.5845603253753
 20
248.7333947884196
 30
0.0
 11
323.5845603253753
 21
238.3832394116357
 31
0.0
  0
LINE
  5
CF65
330
1F
100
AcDbEntity
  8
CENTER
 48
0.25
100
AcDbLine
 10
383.5845603253754
 20
248.7333947884196
 30
0.0
 11
383.5845603253753
 21
238.3832394116357
 31
0.0
  0
DIMENSION
  5
CF66
330
1F
100
AcDbEntity
  8
DIMENSION
100
AcDbDimension
  2
*D2
 10
265.8769543103824
 20
270.6127045612291
 30
0.0
 11
242.3769543103824
 21
273.161710018255
 31
0.0
 70
    32
  1
48
 71
     5
 42
47.00000000000002
  3
DEFAULT-ISO
100
AcDbAlignedDimension
 13
218.8769543103824
 23
246.5394065079779
 33
0.0
 14
265.8769543103824
 24
246.5394065079779
 34
0.0
100
AcDbRotatedDimension
  0
DIMENSION
  5
CF67
330
1F
100
AcDbEntity
  8
DIMENSION
100
AcDbDimension
  2
*D3
 10
191.488610424171
 20
179.5394065079779
 30
0.0
 11
188.9396049671451
 21
213.0394065079779
 31
0.0
 70
    32
 71
     5
 42
67.00000000000006
  3
DEFAULT-ISO
100
AcDbAlignedDimension
 13
218.8769543103824
 23
246.5394065079779
 33
0.0
 14
228.8769543103824
 24
179.5394065079778
 34
0.0
 50
90.0
100
AcDbRotatedDimension
  0
DIMENSION
  5
CF68
330
1F
100
AcDbEntity
  8
DIMENSION
100
AcDbDimension
  2
*D4
 10
383.5845603253754
 20
257.2282577633994
 30
0.0
 11
353.5845603253754
 21
259.7772632204253
 31
0.0
 70
    32
  1
60
 71
     5
 42
60.00000000000006
  3
DEFAULT-ISO
100
AcDbAlignedDimension
 13
323.5845603253753
 23
248.7333947884196
 33
0.0
 14
383.5845603253754
 24
248.7333947884196
 34
0.0
100
AcDbRotatedDimension
  0
DIMENSION
  5
CF69
330
1F
100
AcDbEntity
  8
DIMENSION
100
AcDbDimension
  2
*D5
 10
391.0845603253786
 20
270.364844456357
 30
0.0
 11
353.5845603253786
 21
272.9066875668618
 31
0.0
 70
    32
 71
     5
 42
75.0
  3
DEFAULT-ISO
100
AcDbAlignedDimension
 13
316.0845603253786
 23
246.5394065079779
 33
0.0
 14
391.0845603253786
 24
246.5394065079779
 34
0.0
100
AcDbRotatedDimension
  0
LEADER
  5
CFE6
330
1F
100
AcDbEntity
  8
DIMENSION
 62
     0
100
AcDbLeader
  3
DEFAULT-ISO
 73
     0
 40
3.574010914051841
 41
6.214529331514324
 76
     3
 10
242.3769543103824
 20
246.5394065079779
 30
0.0
 10
206.1093691807518
 20
270.7938113755604
 30
0.0
 10
198.7365062469007
 20
270.7938113755604
 30
0.0
340
CFE7
213
0.0
223
1.75
233
0.0
1001
ACAD
1000
DSTYLE
1002
{
1070
   147
1040
0.762
1070
    77
1070
     0
1002
}
  0
MTEXT
  5
CFE7
102
{ACAD_REACTORS
330
CFE6
102
}
330
1F
100
AcDbEntity
  8
DIMENSION
 62
     7
100
AcDbMText
 10
197.9745062469007
 20
269.0438113755604
 30
0.0
 40
3.5
 41
0.0
 71
     9
 72
     1
  1
\A1;M8
  7
Current-BSI
 73
     1
 44
1.0
1001
ACAD
1000
MTEXTBEGIN
1070
    73
1070
     1
1070
    44
1040
1.0
1070
    74
1070
     0
1000
MTEXTEND
  0
DIMENSION
  5
CFE8
330
1F
100
AcDbEntity
  8
DIMENSION
 62
     0
100
AcDbDimension
  2
*D6
 10
247.9269543103834
 20
166.183636680753
 30
0.0
 11
242.3769543103824
 21
168.7027990272741
 31
0.0
 70
    32
 71
     5
 42
11.10000000000198
  3
DEFAULT-ISO
100
AcDbAlignedDimension
 13
236.8269543103814
 23
183.5394065079788
 33
0.0
 14
247.9269543103834
 24
183.5394065079788
 34
0.0
100
AcDbRotatedDimension
  0
DIMENSION
  5
CFF5
330
1F
100
AcDbEntity
  8
DIMENSION
 62
     0
100
AcDbDimension
  2
*D7
 10
405.3257233062174
 20
240.0394065079779
 30
0.0
 11
402.8137233062174
 21
243.2894065079779
 31
0.0
 70
    32
 71
     5
 42
6.5
  3
DEFAULT-ISO
100
AcDbAlignedDimension
 13
391.0845603253786
 23
246.5394065079779
 33
0.0
 14
391.0845603253786
 24
240.0394065079779
 34
0.0
 50
90.0
100
AcDbRotatedDimension
  0
ENDSEC
  0
SECTION
  2
OBJECTS
  0
DICTIONARY
  5
C
330
0
100
AcDbDictionary
281
     1
  3
ACAD_2007HEADERVARS_RT
350
D290
  3
ACAD_CIP_PREVIOUS_PRODUCT_INFO
350
D0FC
  3
ACAD_COLOR
350
8E87
  3
ACAD_GROUP
350
D
  3
ACAD_LAYOUT
350
1A
  3
ACAD_MATERIAL
350
8E86
  3
ACAD_MLEADERSTYLE
350
D091
  3
ACAD_MLINESTYLE
350
17
  3
ACAD_PLOTSETTINGS
350
19
  3
ACAD_PLOTSTYLENAME
350
E
  3
ACAD_SCALELIST
350
D07F
  3
ACAD_TABLESTYLE
350
8E88
  3
ACAD_VISUALSTYLE
350
D06B
  3
ACDB_RECOMPOSE_DATA
350
D28E
  3
AcDbVariableDictionary
350
BC
  3
AcmDictionary
350
D129
  3
AMG
350
D0FE
  3
AMGSNAPSETTINGS
350
D16C
  3
DWGPROPS
350
D28F
  0
DICTIONARY
  5
D0B8
330
8
100
AcDbDictionary
280
     1
281
     1
  0
DICTIONARY
  5
A769
330
2
100
AcDbDictionary
280
     1
281
     1
  3
ACAD_LAYERFILTERS
360
B4CC
  3
ACAD_LAYERSTATES
360
A76A
  3
ACLYDICTIONARY
360
B4CB
  0
DICTIONARY
  5
D0A0
330
10
100
AcDbDictionary
280
     1
281
     1
  3
ADSK_XREC_LAYER_RECONCILED
360
D0A1
  0
DICTIONARY
  5
D0A2
330
E85
100
AcDbDictionary
280
     1
281
     1
  3
ADSK_XREC_LAYER_RECONCILED
360
D0A3
  0
DICTIONARY
  5
D0A4
330
E95
100
AcDbDictionary
280
     1
281
     1
  3
ADSK_XREC_LAYER_RECONCILED
360
D0A5
  0
DICTIONARY
  5
D0A6
330
8B01
100
AcDbDictionary
280
     1
281
     1
  3
ADSK_XREC_LAYER_RECONCILED
360
D0A7
  0
DICTIONARY
  5
D0A8
330
8B03
100
AcDbDictionary
280
     1
281
     1
  3
ADSK_XREC_LAYER_RECONCILED
360
D0A9
  0
DICTIONARY
  5
D0AA
330
8B04
100
AcDbDictionary
280
     1
281
     1
  3
ADSK_XREC_LAYER_RECONCILED
360
D0AB
  0
DICTIONARY
  5
D0AC
330
A761
100
AcDbDictionary
280
     1
281
     1
  3
ADSK_XREC_LAYER_RECONCILED
360
D0AD
  0
DICTIONARY
  5
D0AE
330
BE7C
100
AcDbDictionary
280
     1
281
     1
  3
ADSK_XREC_LAYER_RECONCILED
360
D0AF
  0
DICTIONARY
  5
D0B0
330
C958
100
AcDbDictionary
280
     1
281
     1
  3
ADSK_XREC_LAYER_RECONCILED
360
D0B1
  0
DICTIONARY
  5
BE
330
1F
100
AcDbDictionary
280
     1
281
     1
  3
ACAD_INDEX
360
A64A
  3
ACAD_SORTENTS
360
BF
  0
DICTIONARY
  5
D1EB
330
A6C6
100
AcDbDictionary
280
     1
281
     1
  3
ACAD_SORTENTS
360
D1EC
  0
DICTIONARY
  5
D290
102
{ACAD_REACTORS
330
C
102
}
330
C
100
AcDbDictionary
281
     1
  3
DIMFXL
350
D291
  0
XRECORD
  5
D0FC
102
{ACAD_REACTORS
330
C
102
}
330
C
100
AcDbXrecord
280
     1
300
AMECH_PP
300
2012
300
PDSP_F_S
  0
DICTIONARY
  5
8E87
102
{ACAD_REACTORS
330
C
102
}
330
C
100
AcDbDictionary
281
     1
  0
DICTIONARY
  5
D
102
{ACAD_REACTORS
330
C
102
}
330
C
100
AcDbDictionary
281
     1
  0
DICTIONARY
  5
1A
102
{ACAD_REACTORS
330
C
102
}
330
C
100
AcDbDictionary
281
     1
  3
Layout1
350
1E
  3
Layout2
350
26
  3
Model
350
22
  0
DICTIONARY
  5
8E86
102
{ACAD_REACTORS
330
C
102
}
330
C
100
AcDbDictionary
281
     1
  3
ByBlock
350
D05B
  3
ByLayer
350
D053
  3
Global
350
D063
  0
DICTIONARY
  5
D091
102
{ACAD_REACTORS
330
C
102
}
330
C
100
AcDbDictionary
281
     1
  3
Standard
350
D092
  0
DICTIONARY
  5
17
102
{ACAD_REACTORS
330
C
102
}
330
C
100
AcDbDictionary
281
     1
  3
Standard
350
18
  0
DICTIONARY
  5
19
102
{ACAD_REACTORS
330
C
102
}
330
C
100
AcDbDictionary
281
     1
  0
ACDBDICTIONARYWDFLT
  5
E
102
{ACAD_REACTORS
330
C
102
}
330
C
100
AcDbDictionary
281
     1
  3
Normal
350
F
100
AcDbDictionaryWithDefault
340
F
  0
DICTIONARY
  5
D07F
102
{ACAD_REACTORS
330
C
102
}
330
C
100
AcDbDictionary
281
     1
  3
A0
350
D080
  3
A1
350
D081
  3
A2
350
D082
  3
A3
350
D083
  3
A4
350
D084
  3
A5
350
D085
  3
A6
350
D086
  3
A7
350
D087
  3
A8
350
D088
  3
A9
350
D089
  3
B0
350
D08A
  3
B1
350
D08B
  3
B2
350
D08C
  3
B3
350
D08D
  3
B4
350
D08E
  3
B5
350
D08F
  3
B6
350
D090
  0
DICTIONARY
  5
8E88
102
{ACAD_REACTORS
330
C
102
}
330
C
100
AcDbDictionary
281
     1
  3
Standard
350
8E89
  0
DICTIONARY
  5
D06B
102
{ACAD_REACTORS
330
C
102
}
330
C
100
AcDbDictionary
281
     1
  3
2dWireframe
350
D071
  3
3D Hidden
350
D073
  3
3dWireframe
350
D072
  3
Basic
350
D070
  3
Brighten
350
D077
  3
ColorChange
350
D07B
  3
Conceptual
350
D074
  3
Dim
350
D076
  3
EdgeColorOff
350
D07E
  3
Facepattern
350
D07A
  3
Flat
350
D06C
  3
FlatWithEdges
350
D06D
  3
Gouraud
350
D06E
  3
GouraudWithEdges
350
D06F
  3
Hidden
350
D0F0
  3
JitterOff
350
D07C
  3
Linepattern
350
D079
  3
OverhangOff
350
D07D
  3
Realistic
350
D075
  3
Shaded
350
D0F5
  3
Shaded with edges
350
D0F4
  3
Shades of Gray
350
D0F1
  3
Sketchy
350
D0F2
  3
Thicken
350
D078
  3
Wireframe
350
D0EF
  3
X-Ray
350
D0F3
  0
XRECORD
  5
D28E
102
{ACAD_REACTORS
330
C
102
}
330
C
100
AcDbXrecord
280
     1
 90
        1
330
8E89
  0
DICTIONARY
  5
BC
102
{ACAD_REACTORS
330
C
102
}
330
C
100
AcDbDictionary
281
     1
  3
CANNOSCALE
350
D0EC
  3
CMLEADERSTYLE
350
D0EB
  3
CTABLESTYLE
350
8EA5
  3
DIMASSOC
350
38B5
  3
INDEXCTL
350
144
  3
PROJECTNAME
350
94DB
  3
SORTENTS
350
BD
  3
XCLIPFRAME
350
D28C
  0
DICTIONARY
  5
D129
102
{ACAD_REACTORS
330
C
102
}
330
C
100
AcDbDictionary
281
     1
  3
AcmStdDictionary
350
D134
  0
DICTIONARY
  5
D0FE
102
{ACAD_REACTORS
330
C
102
}
330
C
100
AcDbDictionary
281
     1
  0
DICTIONARY
  5
D16C
102
{ACAD_REACTORS
330
C
102
}
330
C
100
AcDbDictionary
281
     1
  0
XRECORD
  5
D28F
102
{ACAD_REACTORS
330
C
102
}
330
C
100
AcDbXrecord
280
     1
  1
DWGPROPS COOKIE
  2

  3

  4

  6

  7

  8
REBI01
  9

300
=
301
=
302
=
303
=
304
=
305
=
306
=
307
=
308
=
309
=
 40
1.005475636574074
 41
2451682.620146146
 42
2455943.452393253
  1

 90
        0
  0
DICTIONARY
  5
B4CC
102
{ACAD_REACTORS
330
A769
102
}
330
A769
100
AcDbDictionary
281
     1
  0
DICTIONARY
  5
A76A
102
{ACAD_REACTORS
330
A769
102
}
330
A769
100
AcDbDictionary
281
     1
  0
DICTIONARY
  5
B4CB
102
{ACAD_REACTORS
330
A769
102
}
330
A769
100
AcDbDictionary
281
     1
1001
ACAD
1000
<All
  0
XRECORD
  5
D0A1
102
{ACAD_REACTORS
330
D0A0
102
}
330
D0A0
100
AcDbXrecord
280
     1
290
     1
  0
XRECORD
  5
D0A3
102
{ACAD_REACTORS
330
D0A2
102
}
330
D0A2
100
AcDbXrecord
280
     1
290
     1
  0
XRECORD
  5
D0A5
102
{ACAD_REACTORS
330
D0A4
102
}
330
D0A4
100
AcDbXrecord
280
     1
290
     1
  0
XRECORD
  5
D0A7
102
{ACAD_REACTORS
330
D0A6
102
}
330
D0A6
100
AcDbXrecord
280
     1
290
     1
  0
XRECORD
  5
D0A9
102
{ACAD_REACTORS
330
D0A8
102
}
330
D0A8
100
AcDbXrecord
280
     1
290
     1
  0
XRECORD
  5
D0AB
102
{ACAD_REACTORS
330
D0AA
102
}
330
D0AA
100
AcDbXrecord
280
     1
290
     1
  0
XRECORD
  5
D0AD
102
{ACAD_REACTORS
330
D0AC
102
}
330
D0AC
100
AcDbXrecord
280
     1
290
     1
  0
XRECORD
  5
D0AF
102
{ACAD_REACTORS
330
D0AE
102
}
330
D0AE
100
AcDbXrecord
280
     1
290
     1
  0
XRECORD
  5
D0B1
102
{ACAD_REACTORS
330
D0B0
102
}
330
D0B0
100
AcDbXrecord
280
     1
290
     1
  0
DICTIONARY
  5
A64A
102
{ACAD_REACTORS
330
BE
102
}
330
BE
100
AcDbDictionary
281
     1
  3
*A1
350
A64B
  3
*A2
350
A64C
  0
SORTENTSTABLE
  5
BF
102
{ACAD_REACTORS
330
BE
102
}
330
BE
100
AcDbSortentsTable
330
1F
331
8D28
  5
8D28
331
8E1E
  5
8E1E
331
8D9F
  5
8D9F
331
8E26
  5
8E26
331
75FA
  5
75FA
331
8CF1
  5
8CF1
331
8D68
  5
8D68
331
7602
  5
7602
331
8D70
  5
8D70
331
8E2E
  5
8E2E
331
8E36
  5
8E36
331
B401
  5
B401
331
8D78
  5
8D78
331
8D80
  5
8D80
331
766A
  5
766A
331
8D11
  5
8D11
331
8DF7
  5
8DF7
331
8E3E
  5
8E3E
331
2843
  5
2843
331
8D88
  5
8D88
331
8D19
  5
8D19
331
8DFF
  5
8DFF
331
8E46
  5
8E46
331
8E4E
  5
8E4E
331
8D21
  5
8D21
331
8D90
  5
8D90
331
8E07
  5
8E07
331
8D98
  5
8D98
331
8D29
  5
8D29
331
8CEA
  5
8CEA
331
8DA0
  5
8DA0
331
8E1F
  5
8E1F
331
75FB
  5
75FB
331
8CF2
  5
8CF2
331
8D69
  5
8D69
331
8E27
  5
8E27
331
8D71
  5
8D71
331
8E2F
  5
8E2F
331
8E37
  5
8E37
331
B3FA
  5
B3FA
331
B402
  5
B402
331
8D79
  5
8D79
331
766B
  5
766B
331
8D12
  5
8D12
331
8D81
  5
8D81
331
8DF8
  5
8DF8
331
8E3F
  5
8E3F
331
8E47
  5
8E47
331
8D1A
  5
8D1A
331
8D89
  5
8D89
331
8E00
  5
8E00
331
8D91
  5
8D91
331
8D22
  5
8D22
331
8E08
  5
8E08
331
8E4F
  5
8E4F
331
24D3
  5
24D3
331
24DB
  5
24DB
331
8D99
  5
8D99
331
8D2A
  5
8D2A
331
8E18
  5
8E18
331
8CEB
  5
8CEB
331
8DA1
  5
8DA1
331
8E20
  5
8E20
331
75FC
  5
75FC
331
8CF3
  5
8CF3
331
8D6A
  5
8D6A
331
8E28
  5
8E28
331
8D72
  5
8D72
331
8E30
  5
8E30
331
B3FB
  5
B3FB
331
B403
  5
B403
331
7664
  5
7664
331
8D7A
  5
8D7A
331
8E38
  5
8E38
331
8E40
  5
8E40
331
8D82
  5
8D82
331
766C
  5
766C
331
8D13
  5
8D13
331
8DF9
  5
8DF9
331
8E48
  5
8E48
331
8D8A
  5
8D8A
331
8D1B
  5
8D1B
331
8E01
  5
8E01
331
8E50
  5
8E50
331
8D23
  5
8D23
331
8D92
  5
8D92
331
8E09
  5
8E09
331
24D4
  5
24D4
331
24DC
  5
24DC
331
8D9A
  5
8D9A
331
8E19
  5
8E19
331
75F5
  5
75F5
331
8CEC
  5
8CEC
331
8DA2
  5
8DA2
331
8E21
  5
8E21
331
75FD
  5
75FD
331
8CF4
  5
8CF4
331
8D6B
  5
8D6B
331
8E29
  5
8E29
331
8D73
  5
8D73
331
8E31
  5
8E31
331
B3FC
  5
B3FC
331
8D7B
  5
8D7B
331
8E39
  5
8E39
331
7665
  5
7665
331
8E41
  5
8E41
331
8D14
  5
8D14
331
8D83
  5
8D83
331
8DFA
  5
8DFA
331
766D
  5
766D
331
8E49
  5
8E49
331
8D8B
  5
8D8B
331
8D1C
  5
8D1C
331
8E02
  5
8E02
331
8D93
  5
8D93
331
8D24
  5
8D24
331
8E0A
  5
8E0A
331
8E51
  5
8E51
331
2856
  5
2856
331
24D5
  5
24D5
331
8D9B
  5
8D9B
331
8E1A
  5
8E1A
331
8CED
  5
8CED
331
8DA3
  5
8DA3
331
8E22
  5
8E22
331
75F6
  5
75F6
331
8CF5
  5
8CF5
331
8D6C
  5
8D6C
331
8E2A
  5
8E2A
331
75FE
  5
75FE
331
8E32
  5
8E32
331
8D74
  5
8D74
331
B3FD
  5
B3FD
331
8E3A
  5
8E3A
331
8D7C
  5
8D7C
331
7666
  5
7666
331
8E42
  5
8E42
331
8DFB
  5
8DFB
331
8D84
  5
8D84
331
8D15
  5
8D15
331
766E
  5
766E
331
8E4A
  5
8E4A
331
8E03
  5
8E03
331
8D8C
  5
8D8C
331
8D1D
  5
8D1D
331
8E52
  5
8E52
331
8E0B
  5
8E0B
331
8D25
  5
8D25
331
8D94
  5
8D94
331
2857
  5
2857
331
8E1B
  5
8E1B
331
8D9C
  5
8D9C
331
8E23
  5
8E23
331
8CEE
  5
8CEE
331
75F7
  5
75F7
331
8DEC
  5
8DEC
331
8E2B
  5
8E2B
331
8CF6
  5
8CF6
331
8D6D
  5
8D6D
331
75FF
  5
75FF
331
8D75
  5
8D75
331
8E33
  5
8E33
331
B3FE
  5
B3FE
331
24E8
  5
24E8
331
8E3B
  5
8E3B
331
8D7D
  5
8D7D
331
7667
  5
7667
331
8E43
  5
8E43
331
8DFC
  5
8DFC
331
8D16
  5
8D16
331
8D85
  5
8D85
331
766F
  5
766F
331
8E4B
  5
8E4B
331
8E04
  5
8E04
331
8D8D
  5
8D8D
331
8D1E
  5
8D1E
331
8E53
  5
8E53
331
8D95
  5
8D95
331
8D26
  5
8D26
331
8E1C
  5
8E1C
331
8D9D
  5
8D9D
331
8E24
  5
8E24
331
8CEF
  5
8CEF
331
8D66
  5
8D66
331
75F8
  5
75F8
331
8E2C
  5
8E2C
331
8D6E
  5
8D6E
331
7600
  5
7600
331
8CF7
  5
8CF7
331
8E34
  5
8E34
331
8D76
  5
8D76
331
B3FF
  5
B3FF
331
24E9
  5
24E9
331
8E3C
  5
8E3C
331
8D7E
  5
8D7E
331
7668
  5
7668
331
8D0F
  5
8D0F
331
2841
  5
2841
331
8E44
  5
8E44
331
8DFD
  5
8DFD
331
8D86
  5
8D86
331
7670
  5
7670
331
8D17
  5
8D17
331
2849
  5
2849
331
8E4C
  5
8E4C
331
8E05
  5
8E05
331
8D8E
  5
8D8E
331
8D1F
  5
8D1F
331
8E54
  5
8E54
331
8D27
  5
8D27
331
8D96
  5
8D96
331
8E1D
  5
8E1D
331
8D9E
  5
8D9E
331
8E25
  5
8E25
331
75F9
  5
75F9
331
8CF0
  5
8CF0
331
8D67
  5
8D67
331
8E2D
  5
8E2D
331
7601
  5
7601
331
8D6F
  5
8D6F
331
8E35
  5
8E35
331
8D77
  5
8D77
331
B400
  5
B400
331
8E3D
  5
8E3D
331
7669
  5
7669
331
8D10
  5
8D10
331
8D7F
  5
8D7F
331
2842
  5
2842
331
8E45
  5
8E45
331
8DFE
  5
8DFE
331
7671
  5
7671
331
8D18
  5
8D18
331
8D87
  5
8D87
331
284A
  5
284A
331
8E4D
  5
8E4D
331
8E06
  5
8E06
331
8D20
  5
8D20
331
8D8F
  5
8D8F
331
8E55
  5
8E55
331
8D97
  5
8D97
  0
SORTENTSTABLE
  5
D1EC
102
{ACAD_REACTORS
330
D1EB
102
}
330
D1EB
100
AcDbSortentsTable
330
A6C6
  0
XRECORD
  5
D291
102
{ACAD_REACTORS
330
D290
102
}
330
D290
100
AcDbXrecord
280
     1
 40
3.174999999999999
  0
LAYOUT
  5
1E
102
{ACAD_XDICTIONARY
360
D292
102
}
102
{ACAD_REACTORS
330
1A
102
}
330
1A
100
AcDbPlotSettings
  1

  2
HP DesignJet 450C (D/A1) by HP
  4

  6

 40
0.0
 41
0.0
 42
0.0
 43
0.0
 44
0.0
 45
0.0
 46
0.0
 47
0.0
 48
0.0
 49
0.0
140
0.0
141
0.0
142
1.0
143
1.0
 70
   688
 72
     0
 73
     0
 74
     5
  7

 75
    16
147
1.0
148
0.0
149
0.0
100
AcDbLayout
  1
Layout1
 70
     1
 71
     1
 10
0.0
 20
0.0
 11
420.0
 21
297.0
 12
0.0
 22
0.0
 32
0.0
 14
1.000000000000000E+20
 24
1.000000000000000E+20
 34
1.000000000000000E+20
 15
-1.000000000000000E+20
 25
-1.000000000000000E+20
 35
-1.000000000000000E+20
146
0.0
 13
0.0
 23
0.0
 33
0.0
 16
1.0
 26
0.0
 36
0.0
 17
0.0
 27
1.0
 37
0.0
 76
     0
330
1B
  0
LAYOUT
  5
26
102
{ACAD_XDICTIONARY
360
D295
102
}
102
{ACAD_REACTORS
330
1A
102
}
330
1A
100
AcDbPlotSettings
  1

  2
HP DesignJet 450C (D/A1) by HP
  4

  6

 40
0.0
 41
0.0
 42
0.0
 43
0.0
 44
0.0
 45
0.0
 46
0.0
 47
0.0
 48
0.0
 49
0.0
140
0.0
141
0.0
142
1.0
143
1.0
 70
   688
 72
     0
 73
     0
 74
     5
  7

 75
    16
147
1.0
148
0.0
149
0.0
100
AcDbLayout
  1
Layout2
 70
     1
 71
     2
 10
0.0
 20
0.0
 11
12.0
 21
9.0
 12
0.0
 22
0.0
 32
0.0
 14
0.0
 24
0.0
 34
0.0
 15
0.0
 25
0.0
 35
0.0
146
0.0
 13
0.0
 23
0.0
 33
0.0
 16
1.0
 26
0.0
 36
0.0
 17
0.0
 27
1.0
 37
0.0
 76
     0
330
23
  0
LAYOUT
  5
22
102
{ACAD_XDICTIONARY
360
D280
102
}
102
{ACAD_REACTORS
330
1A
102
}
330
1A
100
AcDbPlotSettings
  1

  2
\\intranet\HP LaserJet 8000 Series PCL
  4
A4
  6

 40
7.143749713897705
 41
6.170062541961669
 42
7.736404418945312
 43
7.14373779296875
 44
209.9733276367187
 45
296.9683227539062
 46
0.0
 47
4.23
 48
0.0
 49
0.0
140
0.0
141
0.0
142
1.0
143
1.091146685659227
 70
 11956
 72
     1
 73
     0
 74
     1
  7

 75
     0
147
0.9164670645503903
148
-772.0466868907442
149
169.5077544823878
100
AcDbLayout
  1
Model
 70
     1
 71
     0
 10
0.0
 20
0.0
 11
12.0
 21
9.0
 12
0.0
 22
0.0
 32
0.0
 14
0.0
 24
0.0
 34
0.0
 15
0.0
 25
0.0
 35
0.0
146
0.0
 13
0.0
 23
0.0
 33
0.0
 16
1.0
 26
0.0
 36
0.0
 17
0.0
 27
1.0
 37
0.0
 76
     0
330
1F
331
D051
  0
MATERIAL
  5
D05B
102
{ACAD_XDICTIONARY
360
D05C
102
}
102
{ACAD_REACTORS
330
8E86
102
}
330
8E86
100
AcDbMaterial
  1
ByBlock
 72
     0
 43
0.0008202099737533
 43
0.0
 43
0.0
 43
0.0
 43
0.0
 43
0.0008202099737533
 43
0.0
 43
0.0
 43
0.0
 43
0.0
 43
1.0
 43
0.0
 43
0.0
 43
0.0
 43
0.0
 43
1.0
 77
     0
 47
0.0008202099737533
 47
0.0
 47
0.0
 47
0.0
 47
0.0
 47
0.0008202099737533
 47
0.0
 47
0.0
 47
0.0
 47
0.0
 47
1.0
 47
0.0
 47
0.0
 47
0.0
 47
0.0
 47
1.0
171
     0
 49
0.0008202099737533
 49
0.0
 49
0.0
 49
0.0
 49
0.0
 49
0.0008202099737533
 49
0.0
 49
0.0
 49
0.0
 49
0.0
 49
1.0
 49
0.0
 49
0.0
 49
0.0
 49
0.0
 49
1.0
175
     0
142
0.0008202099737533
142
0.0
142
0.0
142
0.0
142
0.0
142
0.0008202099737533
142
0.0
142
0.0
142
0.0
142
0.0
142
1.0
142
0.0
142
0.0
142
0.0
142
0.0
142
1.0
179
     0
144
0.0008202099737533
144
0.0
144
0.0
144
0.0
144
0.0
144
0.0008202099737533
144
0.0
144
0.0
144
0.0
144
0.0
144
1.0
144
0.0
144
0.0
144
0.0
144
0.0
144
1.0
147
0.0008202099737533
147
0.0
147
0.0
147
0.0
147
0.0
147
0.0008202099737533
147
0.0
147
0.0
147
0.0
147
0.0
147
1.0
147
0.0
147
0.0
147
0.0
147
0.0
147
1.0
  0
MATERIAL
  5
D053
102
{ACAD_XDICTIONARY
360
D054
102
}
102
{ACAD_REACTORS
330
8E86
102
}
330
8E86
100
AcDbMaterial
  1
ByLayer
 72
     0
 43
0.0008202099737533
 43
0.0
 43
0.0
 43
0.0
 43
0.0
 43
0.0008202099737533
 43
0.0
 43
0.0
 43
0.0
 43
0.0
 43
1.0
 43
0.0
 43
0.0
 43
0.0
 43
0.0
 43
1.0
 77
     0
 47
0.0008202099737533
 47
0.0
 47
0.0
 47
0.0
 47
0.0
 47
0.0008202099737533
 47
0.0
 47
0.0
 47
0.0
 47
0.0
 47
1.0
 47
0.0
 47
0.0
 47
0.0
 47
0.0
 47
1.0
171
     0
 49
0.0008202099737533
 49
0.0
 49
0.0
 49
0.0
 49
0.0
 49
0.0008202099737533
 49
0.0
 49
0.0
 49
0.0
 49
0.0
 49
1.0
 49
0.0
 49
0.0
 49
0.0
 49
0.0
 49
1.0
175
     0
142
0.0008202099737533
142
0.0
142
0.0
142
0.0
142
0.0
142
0.0008202099737533
142
0.0
142
0.0
142
0.0
142
0.0
142
1.0
142
0.0
142
0.0
142
0.0
142
0.0
142
1.0
179
     0
144
0.0008202099737533
144
0.0
144
0.0
144
0.0
144
0.0
144
0.0008202099737533
144
0.0
144
0.0
144
0.0
144
0.0
144
1.0
144
0.0
144
0.0
144
0.0
144
0.0
144
1.0
147
0.0008202099737533
147
0.0
147
0.0
147
0.0
147
0.0
147
0.0008202099737533
147
0.0
147
0.0
147
0.0
147
0.0
147
1.0
147
0.0
147
0.0
147
0.0
147
0.0
147
1.0
  0
MATERIAL
  5
D063
102
{ACAD_XDICTIONARY
360
D064
102
}
102
{ACAD_REACTORS
330
8E86
102
}
330
8E86
100
AcDbMaterial
  1
Global
 72
     0
 43
0.0008202099737533
 43
0.0
 43
0.0
 43
0.0
 43
0.0
 43
0.0008202099737533
 43
0.0
 43
0.0
 43
0.0
 43
0.0
 43
1.0
 43
0.0
 43
0.0
 43
0.0
 43
0.0
 43
1.0
 77
     0
 47
0.0008202099737533
 47
0.0
 47
0.0
 47
0.0
 47
0.0
 47
0.0008202099737533
 47
0.0
 47
0.0
 47
0.0
 47
0.0
 47
1.0
 47
0.0
 47
0.0
 47
0.0
 47
0.0
 47
1.0
171
     0
 49
0.0008202099737533
 49
0.0
 49
0.0
 49
0.0
 49
0.0
 49
0.0008202099737533
 49
0.0
 49
0.0
 49
0.0
 49
0.0
 49
1.0
 49
0.0
 49
0.0
 49
0.0
 49
0.0
 49
1.0
175
     0
142
0.0008202099737533
142
0.0
142
0.0
142
0.0
142
0.0
142
0.0008202099737533
142
0.0
142
0.0
142
0.0
142
0.0
142
1.0
142
0.0
142
0.0
142
0.0
142
0.0
142
1.0
179
     0
144
0.0008202099737533
144
0.0
144
0.0
144
0.0
144
0.0
144
0.0008202099737533
144
0.0
144
0.0
144
0.0
144
0.0
144
1.0
144
0.0
144
0.0
144
0.0
144
0.0
144
1.0
147
0.0008202099737533
147
0.0
147
0.0
147
0.0
147
0.0
147
0.0008202099737533
147
0.0
147
0.0
147
0.0
147
0.0
147
1.0
147
0.0
147
0.0
147
0.0
147
0.0
147
1.0
  0
MLEADERSTYLE
  5
D092
102
{ACAD_REACTORS
330
D091
102
}
330
D091
100
AcDbMLeaderStyle
170
     2
171
     1
172
     0
 90
        2
 40
0.0
 41
0.0
173
     1
 91
-1056964608
340
14
 92
       -2
290
     1
 42
2.0
291
     1
 43
0.36
  3
Standard
 44
4.0
300

342
11
174
     1
178
     6
175
     1
176
     0
 93
-1056964608
 45
4.0
292
     0
297
     0
 46
4.0
 94
-1056964608
 47
1.0
 49
1.0
140
1.0
293
     1
141
0.0
294
     1
177
     0
142
1.0
295
     0
296
     0
143
0.125
1001
ACAD_MLEADERVER
1070
     2
  0
MLINESTYLE
  5
18
102
{ACAD_REACTORS
330
17
102
}
330
17
100
AcDbMlineStyle
  2
STANDARD
 70
     0
  3

 62
   256
 51
90.0
 52
90.0
 71
     2
 49
0.5
 62
   256
  6
BYLAYER
 49
-0.5
 62
   256
  6
BYLAYER
  0
ACDBPLACEHOLDER
  5
F
102
{ACAD_REACTORS
330
E
102
}
330
E
  0
SCALE
  5
D080
102
{ACAD_REACTORS
330
D07F
102
}
330
D07F
100
AcDbScale
 70
     0
300
1:1
140
1.0
141
1.0
290
     1
  0
SCALE
  5
D081
102
{ACAD_REACTORS
330
D07F
102
}
330
D07F
100
AcDbScale
 70
     0
300
1:2
140
1.0
141
2.0
290
     0
  0
SCALE
  5
D082
102
{ACAD_REACTORS
330
D07F
102
}
330
D07F
100
AcDbScale
 70
     0
300
1:4
140
1.0
141
4.0
290
     0
  0
SCALE
  5
D083
102
{ACAD_REACTORS
330
D07F
102
}
330
D07F
100
AcDbScale
 70
     0
300
1:5
140
1.0
141
5.0
290
     0
  0
SCALE
  5
D084
102
{ACAD_REACTORS
330
D07F
102
}
330
D07F
100
AcDbScale
 70
     0
300
1:8
140
1.0
141
8.0
290
     0
  0
SCALE
  5
D085
102
{ACAD_REACTORS
330
D07F
102
}
330
D07F
100
AcDbScale
 70
     0
300
1:10
140
1.0
141
10.0
290
     0
  0
SCALE
  5
D086
102
{ACAD_REACTORS
330
D07F
102
}
330
D07F
100
AcDbScale
 70
     0
300
1:16
140
1.0
141
16.0
290
     0
  0
SCALE
  5
D087
102
{ACAD_REACTORS
330
D07F
102
}
330
D07F
100
AcDbScale
 70
     0
300
1:20
140
1.0
141
20.0
290
     0
  0
SCALE
  5
D088
102
{ACAD_REACTORS
330
D07F
102
}
330
D07F
100
AcDbScale
 70
     0
300
1:30
140
1.0
141
30.0
290
     0
  0
SCALE
  5
D089
102
{ACAD_REACTORS
330
D07F
102
}
330
D07F
100
AcDbScale
 70
     0
300
1:40
140
1.0
141
40.0
290
     0
  0
SCALE
  5
D08A
102
{ACAD_REACTORS
330
D07F
102
}
330
D07F
100
AcDbScale
 70
     0
300
1:50
140
1.0
141
50.0
290
     0
  0
SCALE
  5
D08B
102
{ACAD_REACTORS
330
D07F
102
}
330
D07F
100
AcDbScale
 70
     0
300
1:100
140
1.0
141
100.0
290
     0
  0
SCALE
  5
D08C
102
{ACAD_REACTORS
330
D07F
102
}
330
D07F
100
AcDbScale
 70
     0
300
2:1
140
2.0
141
1.0
290
     0
  0
SCALE
  5
D08D
102
{ACAD_REACTORS
330
D07F
102
}
330
D07F
100
AcDbScale
 70
     0
300
4:1
140
4.0
141
1.0
290
     0
  0
SCALE
  5
D08E
102
{ACAD_REACTORS
330
D07F
102
}
330
D07F
100
AcDbScale
 70
     0
300
8:1
140
8.0
141
1.0
290
     0
  0
SCALE
  5
D08F
102
{ACAD_REACTORS
330
D07F
102
}
330
D07F
100
AcDbScale
 70
     0
300
10:1
140
10.0
141
1.0
290
     0
  0
SCALE
  5
D090
102
{ACAD_REACTORS
330
D07F
102
}
330
D07F
100
AcDbScale
 70
     0
300
100:1
140
100.0
141
1.0
290
     0
  0
TABLESTYLE
  5
8E89
102
{ACAD_XDICTIONARY
360
D0B2
102
}
102
{ACAD_REACTORS
330
8E88
102
}
330
8E88
100
AcDbTableStyle
  3
Standard
 70
     0
 71
     0
 40
1.5
 41
1.5
280
     0
281
     0
  7
Standard
140
4.5
170
     2
 62
     0
 63
     7
283
     0
274
    -2
284
     1
 64
     0
275
    -2
285
     1
 65
     0
276
    -2
286
     1
 66
     0
277
    -2
287
     1
 67
     0
278
    -2
288
     1
 68
     0
279
    -2
289
     1
 69
     0
  7
Standard
140
6.0
170
     5
 62
     0
 63
     7
283
     0
274
    -2
284
     1
 64
     0
275
    -2
285
     1
 65
     0
276
    -2
286
     1
 66
     0
277
    -2
287
     1
 67
     0
278
    -2
288
     1
 68
     0
279
    -2
289
     1
 69
     0
  7
Standard
140
4.5
170
     5
 62
     0
 63
     7
283
     0
274
    -2
284
     1
 64
     0
275
    -2
285
     1
 65
     0
276
    -2
286
     1
 66
     0
277
    -2
287
     1
 67
     0
278
    -2
288
     1
 68
     0
279
    -2
289
     1
 69
     0
  0
VISUALSTYLE
  5
D071
102
{ACAD_XDICTIONARY
360
D2A5
102
}
102
{ACAD_REACTORS
330
D06B
102
}
330
D06B
100
AcDbVisualStyle
  2
2dWireframe
 70
     4
 71
     0
 72
     2
 73
     0
 90
        0
 40
-0.6
 41
-30.0
 62
     5
 63
     7
 74
     1
 91
        4
 64
     7
 65
   257
 75
     1
175
     1
 42
1.0
 92
        0
 66
   257
 43
1.0
 76
     1
 77
     6
 78
     2
 67
     7
 79
     5
170
     0
171
     0
290
     0
174
     0
 93
        1
 44
0.0
173
     0
291
     0
 45
0.0
1001
ACAD
1000
AcDbSavedByObjectVersion
1070
     0
  0
VISUALSTYLE
  5
D073
102
{ACAD_XDICTIONARY
360
D2A9
102
}
102
{ACAD_REACTORS
330
D06B
102
}
330
D06B
100
AcDbVisualStyle
  2
3D Hidden
 70
     6
 71
     1
 72
     2
 73
     2
 90
        0
 40
-0.6
 41
-30.0
 62
     5
 63
     7
 74
     2
 91
        2
 64
     7
 65
   257
 75
     2
175
     1
 42
179.0
 92
        0
 66
   257
 43
1.0
 76
     1
 77
     6
 78
     2
 67
     7
 79
     3
170
     0
171
     0
290
     0
174
     0
 93
        1
 44
0.0
173
     0
291
     0
 45
0.0
1001
ACAD
1000
AcDbSavedByObjectVersion
1070
     0
  0
VISUALSTYLE
  5
D072
102
{ACAD_XDICTIONARY
360
D2A7
102
}
102
{ACAD_REACTORS
330
D06B
102
}
330
D06B
100
AcDbVisualStyle
  2
3dWireframe
 70
     5
 71
     0
 72
     2
 73
     0
 90
        0
 40
-0.6
 41
-30.0
 62
     5
 63
     7
 74
     1
 91
        4
 64
     7
 65
   257
 75
     1
175
     1
 42
1.0
 92
        0
 66
   257
 43
1.0
 76
     1
 77
     6
 78
     2
 67
     7
 79
     5
170
     0
171
     0
290
     0
174
     0
 93
        1
 44
0.0
173
     0
291
     0
 45
0.0
1001
ACAD
1000
AcDbSavedByObjectVersion
1070
     0
  0
VISUALSTYLE
  5
D070
102
{ACAD_XDICTIONARY
360
D2A3
102
}
102
{ACAD_REACTORS
330
D06B
102
}
330
D06B
100
AcDbVisualStyle
  2
Basic
 70
     7
 71
     1
 72
     0
 73
     1
 90
        0
 40
-0.6
 41
-30.0
 62
     5
 63
     7
 74
     0
 91
        4
 64
     7
 65
   257
 75
     1
175
     1
 42
1.0
 92
        8
 66
     7
 43
1.0
 76
     1
 77
     6
 78
     2
 67
     7
 79
     5
170
     0
171
     0
290
     0
174
     0
 93
        1
 44
0.0
173
     0
291
     1
 45
0.0
1001
ACAD
1000
AcDbSavedByObjectVersion
1070
     0
  0
VISUALSTYLE
  5
D077
102
{ACAD_XDICTIONARY
360
D2B1
102
}
102
{ACAD_REACTORS
330
D06B
102
}
330
D06B
100
AcDbVisualStyle
  2
Brighten
 70
    12
 71
     2
 72
     2
 73
     0
 90
        0
 40
-0.6
 41
-30.0
 62
     5
 63
     7
 74
     1
 91
        4
 64
     7
 65
   257
 75
     1
175
     1
 42
1.0
 92
        8
 66
     7
 43
1.0
 76
     1
 77
     6
 78
     2
 67
     7
 79
     5
170
     0
171
     0
290
     0
174
     0
 93
        1
 44
50.0
173
     0
291
     1
 45
0.0
1001
ACAD
1000
AcDbSavedByObjectVersion
1070
     0
  0
VISUALSTYLE
  5
D07B
102
{ACAD_XDICTIONARY
360
D2B9
102
}
102
{ACAD_REACTORS
330
D06B
102
}
330
D06B
100
AcDbVisualStyle
  2
ColorChange
 70
    16
 71
     2
 72
     2
 73
     3
 90
        0
 40
-0.6
 41
-30.0
 62
     5
 63
     8
 74
     1
 91
        4
 64
     7
 65
   257
 75
     1
175
     1
 42
1.0
 92
        8
 66
     8
 43
1.0
 76
     1
 77
     6
 78
     2
 67
     7
 79
     5
170
     0
171
     0
290
     0
174
     0
 93
        1
 44
0.0
173
     0
291
     1
 45
0.0
1001
ACAD
1000
AcDbSavedByObjectVersion
1070
     0
  0
VISUALSTYLE
  5
D074
102
{ACAD_XDICTIONARY
360
D2AB
102
}
102
{ACAD_REACTORS
330
D06B
102
}
330
D06B
100
AcDbVisualStyle
  2
Conceptual
 70
     9
 71
     3
 72
     2
 73
     0
 90
        0
 40
-0.6
 41
-30.0
 62
     5
 63
     7
 74
     2
 91
        2
 64
     7
 65
   257
 75
     1
175
     1
 42
179.0
 92
        8
 66
     7
 43
1.0
 76
     1
 77
     6
 78
     2
 67
     7
 79
     3
170
     0
171
     0
290
     0
174
     0
 93
        1
 44
0.0
173
     0
291
     0
 45
0.0
1001
ACAD
1000
AcDbSavedByObjectVersion
1070
     0
  0
VISUALSTYLE
  5
D076
102
{ACAD_XDICTIONARY
360
D2AF
102
}
102
{ACAD_REACTORS
330
D06B
102
}
330
D06B
100
AcDbVisualStyle
  2
Dim
 70
    11
 71
     2
 72
     2
 73
     0
 90
        0
 40
-0.6
 41
-30.0
 62
     5
 63
     7
 74
     1
 91
        4
 64
     7
 65
   257
 75
     1
175
     1
 42
1.0
 92
        8
 66
     7
 43
1.0
 76
     1
 77
     6
 78
     2
 67
     7
 79
     5
170
     0
171
     0
290
     0
174
     0
 93
        1
 44
-50.0
173
     0
291
     1
 45
0.0
1001
ACAD
1000
AcDbSavedByObjectVersion
1070
     0
  0
VISUALSTYLE
  5
D07E
102
{ACAD_XDICTIONARY
360
D2BF
102
}
102
{ACAD_REACTORS
330
D06B
102
}
330
D06B
100
AcDbVisualStyle
  2
EdgeColorOff
 70
    22
 71
     2
 72
     2
 73
     0
 90
        0
 40
-0.6
 41
-30.0
 62
     5
 63
     7
 74
     1
 91
        4
 64
     7
 65
   257
 75
     1
175
     1
 42
1.0
 92
        8
 66
     7
 43
1.0
 76
     1
 77
     6
 78
     2
 67
     7
 79
     5
170
     0
171
     0
290
     0
174
     0
 93
        1
 44
0.0
173
     0
291
     1
 45
0.0
1001
ACAD
1000
AcDbSavedByObjectVersion
1070
     0
  0
VISUALSTYLE
  5
D07A
102
{ACAD_XDICTIONARY
360
D2B7
102
}
102
{ACAD_REACTORS
330
D06B
102
}
330
D06B
100
AcDbVisualStyle
  2
Facepattern
 70
    15
 71
     2
 72
     2
 73
     0
 90
        0
 40
-0.6
 41
-30.0
 62
     5
 63
     7
 74
     1
 91
        4
 64
     7
 65
   257
 75
     1
175
     1
 42
1.0
 92
        8
 66
     7
 43
1.0
 76
     1
 77
     6
 78
     2
 67
     7
 79
     5
170
     0
171
     0
290
     0
174
     0
 93
        1
 44
0.0
173
     0
291
     1
 45
0.0
1001
ACAD
1000
AcDbSavedByObjectVersion
1070
     0
  0
VISUALSTYLE
  5
D06C
102
{ACAD_XDICTIONARY
360
D29B
102
}
102
{ACAD_REACTORS
330
D06B
102
}
330
D06B
100
AcDbVisualStyle
  2
Flat
 70
     0
 71
     2
 72
     1
 73
     1
 90
        2
 40
-0.6
 41
30.0
 62
     5
 63
     7
 74
     0
 91
        4
 64
     7
 65
   257
 75
     1
175
     1
 42
1.0
 92
        8
 66
     7
 43
1.0
 76
     1
 77
     6
 78
     2
 67
     7
 79
     5
170
     0
171
     0
290
     0
174
     0
 93
       13
 44
0.0
173
     0
291
     1
 45
0.0
1001
ACAD
1000
AcDbSavedByObjectVersion
1070
     0
  0
VISUALSTYLE
  5
D06D
102
{ACAD_XDICTIONARY
360
D29D
102
}
102
{ACAD_REACTORS
330
D06B
102
}
330
D06B
100
AcDbVisualStyle
  2
FlatWithEdges
 70
     1
 71
     2
 72
     1
 73
     1
 90
        2
 40
-0.6
 41
30.0
 62
     5
 63
     7
 74
     1
 91
        4
 64
     7
 65
   257
 75
     1
175
     1
 42
1.0
 92
        0
 66
   257
 43
1.0
 76
     1
 77
     6
 78
     2
 67
     7
 79
     5
170
     0
171
     0
290
     0
174
     0
 93
       13
 44
0.0
173
     0
291
     1
 45
0.0
1001
ACAD
1000
AcDbSavedByObjectVersion
1070
     0
  0
VISUALSTYLE
  5
D06E
102
{ACAD_XDICTIONARY
360
D29F
102
}
102
{ACAD_REACTORS
330
D06B
102
}
330
D06B
100
AcDbVisualStyle
  2
Gouraud
 70
     2
 71
     2
 72
     2
 73
     1
 90
        2
 40
-0.6
 41
30.0
 62
     5
 63
     7
 74
     0
 91
        4
 64
     7
 65
   257
 75
     1
175
     1
 42
1.0
 92
        0
 66
     7
 43
1.0
 76
     1
 77
     6
 78
     2
 67
     7
 79
     5
170
     0
171
     0
290
     0
174
     0
 93
       13
 44
0.0
173
     0
291
     1
 45
0.0
1001
ACAD
1000
AcDbSavedByObjectVersion
1070
     0
  0
VISUALSTYLE
  5
D06F
102
{ACAD_XDICTIONARY
360
D2A1
102
}
102
{ACAD_REACTORS
330
D06B
102
}
330
D06B
100
AcDbVisualStyle
  2
GouraudWithEdges
 70
     3
 71
     2
 72
     2
 73
     1
 90
        2
 40
-0.6
 41
30.0
 62
     5
 63
     7
 74
     1
 91
        4
 64
     7
 65
   257
 75
     1
175
     1
 42
1.0
 92
        0
 66
   257
 43
1.0
 76
     1
 77
     6
 78
     2
 67
     7
 79
     5
170
     0
171
     0
290
     0
174
     0
 93
       13
 44
0.0
173
     0
291
     1
 45
0.0
1001
ACAD
1000
AcDbSavedByObjectVersion
1070
     0
  0
VISUALSTYLE
  5
D0F0
102
{ACAD_XDICTIONARY
360
D2C3
102
}
102
{ACAD_REACTORS
330
D06B
102
}
330
D06B
100
AcDbVisualStyle
  2
Hidden
 70
     6
 71
     1
 72
     2
 73
     2
 90
        0
 40
-0.6
 41
-30.0
 62
     5
 63
     7
 74
     2
 91
        2
 64
     7
 65
   257
 75
     2
175
     1
 42
40.0
 92
        0
 66
   257
 43
1.0
 76
     1
 77
     6
 78
     2
 67
     7
 79
     3
170
     0
171
     0
290
     0
174
     0
 93
        1
 44
0.0
173
     0
291
     0
 45
0.0
1001
ACAD
1000
AcDbSavedByObjectVersion
1070
     0
  0
VISUALSTYLE
  5
D07C
102
{ACAD_XDICTIONARY
360
D2BB
102
}
102
{ACAD_REACTORS
330
D06B
102
}
330
D06B
100
AcDbVisualStyle
  2
JitterOff
 70
    20
 71
     2
 72
     2
 73
     0
 90
        0
 40
-0.6
 41
-30.0
 62
     5
 63
     7
 74
     1
 91
        4
 64
     7
 65
   257
 75
     1
175
     1
 42
1.0
 92
       10
 66
     7
 43
1.0
 76
     1
 77
     6
 78
     2
 67
     7
 79
     5
170
     0
171
     0
290
     0
174
     0
 93
        1
 44
0.0
173
     0
291
     1
 45
0.0
1001
ACAD
1000
AcDbSavedByObjectVersion
1070
     0
  0
VISUALSTYLE
  5
D079
102
{ACAD_XDICTIONARY
360
D2B5
102
}
102
{ACAD_REACTORS
330
D06B
102
}
330
D06B
100
AcDbVisualStyle
  2
Linepattern
 70
    14
 71
     2
 72
     2
 73
     0
 90
        0
 40
-0.6
 41
-30.0
 62
     5
 63
     7
 74
     1
 91
        4
 64
     7
 65
   257
 75
     7
175
     7
 42
1.0
 92
        8
 66
     7
 43
1.0
 76
     1
 77
     6
 78
     2
 67
     7
 79
     5
170
     0
171
     0
290
     0
174
     0
 93
        1
 44
0.0
173
     0
291
     1
 45
0.0
1001
ACAD
1000
AcDbSavedByObjectVersion
1070
     0
  0
VISUALSTYLE
  5
D07D
102
{ACAD_XDICTIONARY
360
D2BD
102
}
102
{ACAD_REACTORS
330
D06B
102
}
330
D06B
100
AcDbVisualStyle
  2
OverhangOff
 70
    21
 71
     2
 72
     2
 73
     0
 90
        0
 40
-0.6
 41
-30.0
 62
     5
 63
     7
 74
     1
 91
        4
 64
     7
 65
   257
 75
     1
175
     1
 42
1.0
 92
        9
 66
     7
 43
1.0
 76
     1
 77
     6
 78
     2
 67
     7
 79
     5
170
     0
171
     0
290
     0
174
     0
 93
        1
 44
0.0
173
     0
291
     1
 45
0.0
1001
ACAD
1000
AcDbSavedByObjectVersion
1070
     0
  0
VISUALSTYLE
  5
D075
102
{ACAD_XDICTIONARY
360
D2AD
102
}
102
{ACAD_REACTORS
330
D06B
102
}
330
D06B
100
AcDbVisualStyle
  2
Realistic
 70
     8
 71
     2
 72
     2
 73
     0
 90
        0
 40
-0.6
 41
-30.0
 62
     5
 63
     7
 74
     1
 91
        0
 64
     7
 65
   257
 75
     1
175
     1
 42
1.0
 92
        8
 66
     8
 43
1.0
 76
     1
 77
     6
 78
     2
 67
     7
 79
     5
170
     0
171
     0
290
     0
174
     0
 93
       13
 44
0.0
173
     0
291
     0
 45
0.0
1001
ACAD
1000
AcDbSavedByObjectVersion
1070
     0
  0
VISUALSTYLE
  5
D0F5
102
{ACAD_XDICTIONARY
360
D2CD
102
}
102
{ACAD_REACTORS
330
D06B
102
}
330
D06B
100
AcDbVisualStyle
  2
Shaded
 70
    27
 71
     2
 72
     2
 73
     1
 90
        2
 40
-0.6
 41
30.0
 62
     5
 63
     7
 74
     0
 91
        4
 64
     7
 65
   257
 75
     1
175
     1
 42
1.0
 92
        8
 66
   257
 43
1.0
 76
     1
 77
     6
 78
     2
 67
     8
 79
     3
170
     0
171
     0
290
     0
174
     0
 93
        5
 44
0.0
173
     0
291
     0
 45
0.0
1001
ACAD
1000
AcDbSavedByObjectVersion
1070
     0
  0
VISUALSTYLE
  5
D0F4
102
{ACAD_XDICTIONARY
360
D2CB
102
}
102
{ACAD_REACTORS
330
D06B
102
}
330
D06B
100
AcDbVisualStyle
  2
Shaded with edges
 70
    26
 71
     2
 72
     2
 73
     1
 90
        2
 40
-0.6
 41
30.0
 62
     5
 63
     7
 74
     1
 91
       10
 64
     7
 65
   257
 75
     2
175
     1
 42
1.0
 92
        8
 66
   257
 43
1.0
 76
     1
 77
     6
 78
     2
 67
     7
 79
     3
170
     0
171
     0
290
     0
174
     0
 93
        5
 44
0.0
173
     0
291
     0
 45
0.0
1001
ACAD
1000
AcDbSavedByObjectVersion
1070
     0
  0
VISUALSTYLE
  5
D0F1
102
{ACAD_XDICTIONARY
360
D2C5
102
}
102
{ACAD_REACTORS
330
D06B
102
}
330
D06B
100
AcDbVisualStyle
  2
Shades of Gray
 70
    23
 71
     2
 72
     2
 73
     3
 90
        0
 40
-0.6
 41
-30.0
 62
     5
 63
     7
 74
     2
 91
        2
 64
     7
 65
     7
 75
     1
175
     1
 42
40.0
 92
        8
 66
     7
 43
1.0
 76
     1
 77
     6
 78
     2
 67
     7
 79
     3
170
     0
171
     0
290
     0
174
     0
 93
        1
 44
0.0
173
     0
291
     0
 45
0.0
1001
ACAD
1000
AcDbSavedByObjectVersion
1070
     0
  0
VISUALSTYLE
  5
D0F2
102
{ACAD_XDICTIONARY
360
D2C7
102
}
102
{ACAD_REACTORS
330
D06B
102
}
330
D06B
100
AcDbVisualStyle
  2
Sketchy
 70
    24
 71
     1
 72
     2
 73
     2
 90
        0
 40
-0.6
 41
-30.0
 62
     5
 63
     7
 74
     2
 91
        2
 64
     7
 65
     7
 75
     1
175
     1
 42
40.0
 92
       11
 66
     7
 43
1.0
 76
     1
 77
     6
 78
     2
 67
     7
 79
     6
170
     0
171
     0
290
     0
174
     0
 93
        1
 44
0.0
173
     0
291
     0
 45
0.0
1001
ACAD
1000
AcDbSavedByObjectVersion
1070
     0
  0
VISUALSTYLE
  5
D078
102
{ACAD_XDICTIONARY
360
D2B3
102
}
102
{ACAD_REACTORS
330
D06B
102
}
330
D06B
100
AcDbVisualStyle
  2
Thicken
 70
    13
 71
     2
 72
     2
 73
     0
 90
        0
 40
-0.6
 41
-30.0
 62
     5
 63
     7
 74
     1
 91
        4
 64
     7
 65
   257
 75
     1
175
     1
 42
1.0
 92
       12
 66
     7
 43
1.0
 76
     1
 77
     6
 78
     2
 67
     7
 79
     5
170
     0
171
     0
290
     0
174
     0
 93
        1
 44
0.0
173
     0
291
     1
 45
0.0
1001
ACAD
1000
AcDbSavedByObjectVersion
1070
     0
  0
VISUALSTYLE
  5
D0EF
102
{ACAD_XDICTIONARY
360
D2C1
102
}
102
{ACAD_REACTORS
330
D06B
102
}
330
D06B
100
AcDbVisualStyle
  2
Wireframe
 70
     5
 71
     0
 72
     2
 73
     0
 90
        0
 40
-0.6
 41
-30.0
 62
     5
 63
     7
 74
     1
 91
        4
 64
     7
 65
   257
 75
     1
175
     1
 42
1.0
 92
        0
 66
   257
 43
1.0
 76
     1
 77
     6
 78
     2
 67
     7
 79
     3
170
     0
171
     0
290
     0
174
     0
 93
        1
 44
0.0
173
     0
291
     0
 45
0.0
1001
ACAD
1000
AcDbSavedByObjectVersion
1070
     0
  0
VISUALSTYLE
  5
D0F3
102
{ACAD_XDICTIONARY
360
D2C9
102
}
102
{ACAD_REACTORS
330
D06B
102
}
330
D06B
100
AcDbVisualStyle
  2
X-Ray
 70
    25
 71
     2
 72
     2
 73
     1
 90
        1
 40
0.5
 41
-30.0
 62
     5
 63
     7
 74
     1
 91
        0
 64
     7
 65
   257
 75
     1
175
     1
 42
1.0
 92
        8
 66
     7
 43
1.0
 76
     1
 77
     6
 78
     2
 67
     7
 79
     3
170
     0
171
     0
290
     0
174
     0
 93
       13
 44
0.0
173
     0
291
     0
 45
0.0
1001
ACAD
1000
AcDbSavedByObjectVersion
1070
     0
  0
DICTIONARYVAR
  5
D0EC
102
{ACAD_REACTORS
330
BC
102
}
330
BC
100
DictionaryVariables
280
     0
  1
1:1
  0
DICTIONARYVAR
  5
D0EB
102
{ACAD_REACTORS
330
BC
102
}
330
BC
100
DictionaryVariables
280
     0
  1
STANDARD
  0
DICTIONARYVAR
  5
8EA5
102
{ACAD_REACTORS
330
BC
102
}
330
BC
100
DictionaryVariables
280
     0
  1
STANDARD
  0
DICTIONARYVAR
  5
38B5
102
{ACAD_REACTORS
330
BC
102
}
330
BC
100
DictionaryVariables
280
     0
  1
1
  0
DICTIONARYVAR
  5
144
102
{ACAD_REACTORS
330
BC
102
}
330
BC
100
DictionaryVariables
280
     0
  1
3
  0
DICTIONARYVAR
  5
94DB
102
{ACAD_REACTORS
330
BC
102
}
330
BC
100
DictionaryVariables
280
     0
  1

  0
DICTIONARYVAR
  5
BD
102
{ACAD_REACTORS
330
BC
102
}
330
BC
100
DictionaryVariables
280
     0
  1
96
  0
DICTIONARYVAR
  5
D28C
102
{ACAD_REACTORS
330
BC
102
}
330
BC
100
DictionaryVariables
280
     0
  1
2
  0
DICTIONARY
  5
D134
102
{ACAD_REACTORS
330
D129
102
}
330
D129
100
AcDbDictionary
281
     1
  0
LAYER_INDEX
  5
A64B
102
{ACAD_REACTORS
330
A64A
102
}
330
A64A
100
AcDbIndex
 40
2455943.452393253
100
AcDbLayerIndex
  8
0
360
D282
 90
      214
  8
Defpoints
360
D283
 90
        0
  8
Hidden
360
D284
 90
       31
  8
DIMENSION
360
D285
 90
        8
  8
TITLE
360
D286
 90
        6
  8
TEXT
360
D287
 90
       16
  8
CENTER
360
D288
 90
        4
  8
COMPONENT
360
D289
 90
        4
  8
Visible Edges(ISO)
360
D28A
 90
      170
  8
Hidden Edges(ISO)
360
D28B
 90
        1
  0
SPATIAL_INDEX
  5
A64C
102
{ACAD_REACTORS
330
A64A
102
}
330
A64A
100
AcDbIndex
 40
2455943.452393253
100
AcDbSpatialIndex
 40
87019.71253758967
 40
-41419.50070266856
 40
669325.0365460987
 40
-893.5028881619754
 40
10000000000.0
 40
-0.0000000000000152
 90
        0
 90
     1154
310
01FF0000FFFF0000FFFF0000000000000108000001080000020109000002010A000002010B000002020109000001080000020109000001090000010A700000E6C1500001000100060001000C000100A59B01000100010001000100010001006900010001000100010001000100832D00010001002000010001000100010001
310
000100080001000100010001000100010051000100010001000100010001000800010001000100010001000100080001000100010001000100010001000100010001000100010049000C0001000100010001000100020001000100010001000100010001000100010001000100010014000100010001000100010001000800
310
010001000100010001000100080001000100010001000100010008000100010001000100010052000000010301000006CF9C02000000000002010A06000010D09C02000100010001000100010000000400000CFCE7020001000100050020000000020202010A000001091300002CD34900010001000600010099A201000100
310
0100010001000100010069000100010001000100822D002500200000000202010B00000108700000E8E84900010080A301000100812D00010001000100010001000100010001000400190001000100010001000100080001000100010001000100010051000100010001000100010001000800010001000100010001000100
310
080001000100010001000100010068001A00010001000100010001000100080001000100010001000100010008000100010001000100010001000800010001000100010001000100B24B0001000400010001000100D03200010001000100010001000100010001000100010001000100010001000100010001000100010001
310
0001000100010001000100010001000100540000000102630000CAEF9A0300010001000100010001000100010001000100010001000100010001000100010001000100010001000100010001000100010001000100010001000100010001000100010001000100010001000100010001000100010001000100010001000100
310
0100010001000100010001000100010001000100010001000100010001000100010001000100010001000100010001000100010001000100010001000100010001000100010001000100010001000100010001000100010001000100010001000100010001000000020108560000B0989E0300010001000100010001000100
310
01000100010001000100010001000100010001000100010001000100010001000100010001000100010001000100010001000100010001000100010001000100010001000100010001000100010001000100010001000100010001000100010001000100010001000100010001000100010001000100010001000100010001
310
00010001000100010001000100010001000100010001007D00010001000D000100000002020202010A000002010B00000202010A000001080000020109000002010A0E000020E69A020001000100010001000100010001000100010001000100010001000001000002010B00000202010B000001080000020109000002010A
310
000002010B000002020200
  1
END ACDBSPATIALINDEX BINARY DATA
  0
DICTIONARY
  5
D292
330
1E
100
AcDbDictionary
280
     1
281
     1
  3
ACAD_XREC_ROUNDTRIP
360
D293
  0
DICTIONARY
  5
D295
330
26
100
AcDbDictionary
280
     1
281
     1
  3
ACAD_XREC_ROUNDTRIP
360
D296
  0
DICTIONARY
  5
D280
330
22
100
AcDbDictionary
280
     1
281
     1
  3
ACAD_XREC_ROUNDTRIP
360
D294
  3
AcPublish_PlotSettingsOverride
360
D281
  0
DICTIONARY
  5
D05C
330
D05B
100
AcDbDictionary
280
     1
281
     1
  3
ACAD_XREC_ROUNDTRIP
360
D299
  3
BUMPTILE
360
D05E
  3
DIFFUSETILE
360
D05D
  3
OPACITYTILE
360
D061
  3
REFLECTIONTILE
360
D060
  3
REFRACTIONTILE
360
D062
  3
SPECULARTILE
360
D05F
  0
DICTIONARY
  5
D054
330
D053
100
AcDbDictionary
280
     1
281
     1
  3
ACAD_XREC_ROUNDTRIP
360
D298
  3
BUMPTILE
360
D056
  3
DIFFUSETILE
360
D055
  3
OPACITYTILE
360
D059
  3
REFLECTIONTILE
360
D058
  3
REFRACTIONTILE
360
D05A
  3
SPECULARTILE
360
D057
  0
DICTIONARY
  5
D064
330
D063
100
AcDbDictionary
280
     1
281
     1
  3
ACAD_XREC_ROUNDTRIP
360
D29A
  3
BUMPTILE
360
D066
  3
DIFFUSETILE
360
D065
  3
OPACITYTILE
360
D069
  3
REFLECTIONTILE
360
D068
  3
REFRACTIONTILE
360
D06A
  3
SPECULARTILE
360
D067
  0
DICTIONARY
  5
D0B2
330
8E89
100
AcDbDictionary
280
     1
281
     1
  3
ACAD_ROUNDTRIP_2008_TABLESTYLE_CELLSTYLEMAP
360
D28D
  3
ACAD_XREC_ROUNDTRIP
360
D297
  0
DICTIONARY
  5
D2A5
330
D071
100
AcDbDictionary
280
     1
281
     1
  3
ACAD_XREC_ROUNDTRIP
360
D2A6
  0
DICTIONARY
  5
D2A9
330
D073
100
AcDbDictionary
280
     1
281
     1
  3
ACAD_XREC_ROUNDTRIP
360
D2AA
  0
DICTIONARY
  5
D2A7
330
D072
100
AcDbDictionary
280
     1
281
     1
  3
ACAD_XREC_ROUNDTRIP
360
D2A8
  0
DICTIONARY
  5
D2A3
330
D070
100
AcDbDictionary
280
     1
281
     1
  3
ACAD_XREC_ROUNDTRIP
360
D2A4
  0
DICTIONARY
  5
D2B1
330
D077
100
AcDbDictionary
280
     1
281
     1
  3
ACAD_XREC_ROUNDTRIP
360
D2B2
  0
DICTIONARY
  5
D2B9
330
D07B
100
AcDbDictionary
280
     1
281
     1
  3
ACAD_XREC_ROUNDTRIP
360
D2BA
  0
DICTIONARY
  5
D2AB
330
D074
100
AcDbDictionary
280
     1
281
     1
  3
ACAD_XREC_ROUNDTRIP
360
D2AC
  0
DICTIONARY
  5
D2AF
330
D076
100
AcDbDictionary
280
     1
281
     1
  3
ACAD_XREC_ROUNDTRIP
360
D2B0
  0
DICTIONARY
  5
D2BF
330
D07E
100
AcDbDictionary
280
     1
281
     1
  3
ACAD_XREC_ROUNDTRIP
360
D2C0
  0
DICTIONARY
  5
D2B7
330
D07A
100
AcDbDictionary
280
     1
281
     1
  3
ACAD_XREC_ROUNDTRIP
360
D2B8
  0
DICTIONARY
  5
D29B
330
D06C
100
AcDbDictionary
280
     1
281
     1
  3
ACAD_XREC_ROUNDTRIP
360
D29C
  0
DICTIONARY
  5
D29D
330
D06D
100
AcDbDictionary
280
     1
281
     1
  3
ACAD_XREC_ROUNDTRIP
360
D29E
  0
DICTIONARY
  5
D29F
330
D06E
100
AcDbDictionary
280
     1
281
     1
  3
ACAD_XREC_ROUNDTRIP
360
D2A0
  0
DICTIONARY
  5
D2A1
330
D06F
100
AcDbDictionary
280
     1
281
     1
  3
ACAD_XREC_ROUNDTRIP
360
D2A2
  0
DICTIONARY
  5
D2C3
330
D0F0
100
AcDbDictionary
280
     1
281
     1
  3
ACAD_XREC_ROUNDTRIP
360
D2C4
  0
DICTIONARY
  5
D2BB
330
D07C
100
AcDbDictionary
280
     1
281
     1
  3
ACAD_XREC_ROUNDTRIP
360
D2BC
  0
DICTIONARY
  5
D2B5
330
D079
100
AcDbDictionary
280
     1
281
     1
  3
ACAD_XREC_ROUNDTRIP
360
D2B6
  0
DICTIONARY
  5
D2BD
330
D07D
100
AcDbDictionary
280
     1
281
     1
  3
ACAD_XREC_ROUNDTRIP
360
D2BE
  0
DICTIONARY
  5
D2AD
330
D075
100
AcDbDictionary
280
     1
281
     1
  3
ACAD_XREC_ROUNDTRIP
360
D2AE
  0
DICTIONARY
  5
D2CD
330
D0F5
100
AcDbDictionary
280
     1
281
     1
  3
ACAD_XREC_ROUNDTRIP
360
D2CE
  0
DICTIONARY
  5
D2CB
330
D0F4
100
AcDbDictionary
280
     1
281
     1
  3
ACAD_XREC_ROUNDTRIP
360
D2CC
  0
DICTIONARY
  5
D2C5
330
D0F1
100
AcDbDictionary
280
     1
281
     1
  3
ACAD_XREC_ROUNDTRIP
360
D2C6
  0
DICTIONARY
  5
D2C7
330
D0F2
100
AcDbDictionary
280
     1
281
     1
  3
ACAD_XREC_ROUNDTRIP
360
D2C8
  0
DICTIONARY
  5
D2B3
330
D078
100
AcDbDictionary
280
     1
281
     1
  3
ACAD_XREC_ROUNDTRIP
360
D2B4
  0
DICTIONARY
  5
D2C1
330
D0EF
100
AcDbDictionary
280
     1
281
     1
  3
ACAD_XREC_ROUNDTRIP
360
D2C2
  0
DICTIONARY
  5
D2C9
330
D0F3
100
AcDbDictionary
280
     1
281
     1
  3
ACAD_XREC_ROUNDTRIP
360
D2CA
  0
IDBUFFER
  5
D282
330
0
100
AcDbIdBuffer
330
8D82
330
8D83
330
8D84
330
8D85
330
8D86
330
8D87
330
8D88
330
8D89
330
8D8A
330
8D8B
330
8D8C
330
8D8D
330
8D8E
330
8D8F
330
8D90
330
8D91
330
8D92
330
8D93
330
8D94
330
8D95
330
8D96
330
8D97
330
8D98
330
8D99
330
8D9A
330
8D9B
330
8D9C
330
8D9D
330
8D9E
330
8D9F
330
8DA0
330
8DA1
330
8DA2
330
8DA3
330
8E18
330
8E19
330
8E1A
330
8E1B
330
8E1C
330
8E1D
330
8E1E
330
8E1F
330
8E20
330
8E21
330
8E22
330
8E23
330
8E24
330
8E25
330
8E26
330
8E27
330
8E28
330
8E29
330
8E2A
330
8E2B
330
8E2C
330
8E2D
330
8E2E
330
8E2F
330
8E30
330
8E31
330
8E32
330
8E33
330
8E34
330
8E35
330
8E36
330
8E37
330
8E38
330
8E39
330
8E3A
330
8E3B
330
8E3C
330
8E3D
330
8E3E
330
8E3F
330
8E40
330
8E41
330
8E42
330
8E43
330
8E44
330
8E45
330
8E46
330
8E47
330
8E48
330
8E49
330
8E4A
330
8E4B
330
8E4C
330
8E4D
330
8E4E
330
8E4F
330
8E50
330
8E51
330
8E52
330
8E53
330
8E54
330
8E55
330
B3FA
330
B3FB
330
B3FC
330
B3FD
330
B3FE
330
B3FF
330
24D3
330
24D4
330
24D5
330
24DB
330
24DC
330
24E8
330
24E9
330
2841
330
2842
330
2843
330
2849
330
284A
330
2856
330
2857
330
75F5
330
75F6
330
75F7
330
75F8
330
75F9
330
75FA
330
75FB
330
75FC
330
75FD
330
75FE
330
75FF
330
7600
330
7601
330
7602
330
7664
330
7665
330
7666
330
7667
330
7668
330
7669
330
766A
330
766B
330
766C
330
766D
330
766E
330
766F
330
7670
330
7671
330
8CEA
330
8CEB
330
8CEC
330
8CED
330
8CEE
330
8CEF
330
8CF0
330
8CF1
330
8CF2
330
8CF3
330
8CF4
330
8CF5
330
8CF6
330
8CF7
330
8D0F
330
8D10
330
8D11
330
8D12
330
8D13
330
8D14
330
8D15
330
8D16
330
8D17
330
8D18
330
8D19
330
8D1A
330
8D1B
330
8D1C
330
8D1D
330
8D1E
330
8D1F
330
8D20
330
8D21
330
8D22
330
8D23
330
8D24
330
8D25
330
8D26
330
8D27
330
8D28
330
8D29
330
8D2A
330
8D66
330
8D67
330
8D68
330
8D69
330
8D6A
330
8D6B
330
8D6C
330
8D6D
330
8D6E
330
8D6F
330
8D70
330
8D71
330
8D72
330
8D73
330
8D74
330
8D75
330
8D76
330
8D77
330
8D78
330
8D79
330
8D7A
330
8D7B
330
8D7C
330
8D7D
330
8D7E
330
8D7F
330
8D80
330
8D81
  0
IDBUFFER
  5
D283
330
0
100
AcDbIdBuffer
  0
IDBUFFER
  5
D284
330
0
100
AcDbIdBuffer
330
CD94
330
CD95
330
CD96
330
CD97
330
CD98
330
CD99
330
CD9A
330
CD9B
330
CD9C
330
CD9D
330
CD9E
330
CD9F
330
CDA0
330
CF60
330
CF61
330
CD84
330
CD85
330
CD86
330
CD87
330
CD88
330
CD89
330
CD8A
330
CD8B
330
CD8C
330
CD8D
330
CD8E
330
CD8F
330
CD90
330
CD91
330
CD92
330
CD93
  0
IDBUFFER
  5
D285
330
0
100
AcDbIdBuffer
330
CF66
330
CF67
330
CF68
330
CF69
330
CFE6
330
CFE7
330
CFE8
330
CFF5
  0
IDBUFFER
  5
D286
330
0
100
AcDbIdBuffer
330
8DEC
330
8DF7
330
8DFA
330
8DFB
330
8DFC
330
8DFD
  0
IDBUFFER
  5
D287
330
0
100
AcDbIdBuffer
330
8DF8
330
8DF9
330
8DFE
330
8DFF
330
8E00
330
8E01
330
8E02
330
8E03
330
8E04
330
8E05
330
8E06
330
8E07
330
8E08
330
8E09
330
8E0A
330
8E0B
  0
IDBUFFER
  5
D288
330
0
100
AcDbIdBuffer
330
CF62
330
CF63
330
CF64
330
CF65
  0
IDBUFFER
  5
D289
330
0
100
AcDbIdBuffer
330
B400
330
B401
330
B402
330
B403
  0
IDBUFFER
  5
D28A
330
0
100
AcDbIdBuffer
330
CF26
330
CF27
330
CF28
330
CF29
330
CF2A
330
CF2B
330
CF2C
330
CF2D
330
CF2E
330
CF2F
330
CF30
330
CF31
330
CF32
330
CF33
330
CF34
330
CF35
330
CF36
330
CF37
330
CF38
330
CF39
330
CF3A
330
CF3B
330
CF3C
330
CF3D
330
CF3E
330
CF3F
330
CF40
330
CF41
330
CF42
330
CF43
330
CF44
330
CF45
330
CF46
330
CF47
330
CF48
330
CF49
330
CF4A
330
CF4B
330
CF4C
330
CF4D
330
CF4E
330
CF4F
330
CF50
330
CF51
330
CF52
330
CF53
330
CF54
330
CF55
330
CF56
330
CF57
330
CF58
330
CF59
330
CF5A
330
CF5B
330
CF5C
330
CF5D
330
CF5E
330
CF5F
330
CD52
330
CD53
330
CD54
330
CD55
330
CD56
330
CD57
330
CD58
330
CD59
330
CD5A
330
CD5B
330
CD5C
330
CD5D
330
CD5E
330
CD5F
330
CD60
330
CD61
330
CD62
330
CD63
330
CD64
330
CD65
330
CD66
330
CD67
330
CD68
330
CD69
330
CD6A
330
CD6B
330
CD6C
330
CD6D
330
CD6E
330
CD6F
330
CD70
330
CD71
330
CD72
330
CD73
330
CD74
330
CD75
330
CD76
330
CD77
330
CD78
330
CD79
330
CD7A
330
CD7B
330
CD7C
330
CD7D
330
CD7E
330
CD7F
330
CD80
330
CD81
330
CD82
330
CDA1
330
CDA2
330
CDA3
330
CDA4
330
CDA5
330
CDA6
330
CDA7
330
CDA8
330
CDA9
330
CDAA
330
CDAB
330
CDAC
330
CDAD
330
CDAE
330
CDAF
330
CDB0
330
CDB1
330
CDB2
330
CDB3
330
CDB4
330
CDB5
330
CDB6
330
CDB7
330
CDB8
330
CDB9
330
CDBA
330
CDBB
330
CDBC
330
CDBD
330
CDBE
330
CDBF
330
CDC0
330
CDC1
330
CDC2
330
CDC3
330
CDC4
330
CDC5
330
CDC6
330
CDC7
330
CDC8
330
CDC9
330
CDCA
330
CDCB
330
CDCC
330
CDCD
330
CDCE
330
CDCF
330
CDD0
330
CDD1
330
CF18
330
CF19
330
CF1A
330
CF1B
330
CF1C
330
CF1D
330
CF1E
330
CF1F
330
CF20
330
CF21
330
CF22
330
CF23
330
CF24
330
CF25
  0
IDBUFFER
  5
D28B
330
0
100
AcDbIdBuffer
330
CD83
  0
XRECORD
  5
D293
102
{ACAD_REACTORS
330
D292
102
}
330
D292
100
AcDbXrecord
280
     1
102
SHADEPLOT
 70
     0
102
SHADEPLOTRESLEVEL
 70
     2
102
SHADEPLOTCUSTOMDPI
 70
   300
  0
XRECORD
  5
D296
102
{ACAD_REACTORS
330
D295
102
}
330
D295
100
AcDbXrecord
280
     1
102
SHADEPLOT
 70
     0
102
SHADEPLOTRESLEVEL
 70
     2
102
SHADEPLOTCUSTOMDPI
 70
   300
  0
XRECORD
  5
D294
102
{ACAD_REACTORS
330
D280
102
}
330
D280
100
AcDbXrecord
280
     1
102
SHADEPLOT
 70
     0
102
SHADEPLOTRESLEVEL
 70
     2
102
SHADEPLOTCUSTOMDPI
 70
   300
  0
PLOTSETTINGS
  5
D281
102
{ACAD_XDICTIONARY
360
D2CF
102
}
102
{ACAD_REACTORS
330
D280
102
}
330
D280
100
AcDbPlotSettings
  1

  2
\\intranet\HP LaserJet 8000 Series PCL
  4
A4
  6

 40
7.143749713897705
 41
6.170062541961669
 42
7.736404418945312
 43
7.14373779296875
 44
209.9733276367187
 45
296.9683227539062
 46
0.0
 47
100.6306511120397
 48
0.0
 49
0.0
140
0.0
141
0.0
142
1.0
143
5.01382290684879
 70
 11956
 72
     1
 73
     0
 74
     0
  7

 75
     0
147
0.1994486080938396
148
195.7099692005973
149
-76.19653943341688
  0
XRECORD
  5
D299
102
{ACAD_REACTORS
330
D05C
102
}
330
D05C
100
AcDbXrecord
280
     1
102
MATERIAL
148
0.0
149
0.0
149
0.0
 93
        0
 94
      127
282
     0
 72
     0
 77
     0
171
     0
175
     0
179
     0
273
     0
  0
XRECORD
  5
D05E
102
{ACAD_REACTORS
330
D05C
102
}
330
D05C
100
AcDbXrecord
280
     1
270
     1
271
     1
  0
XRECORD
  5
D05D
102
{ACAD_REACTORS
330
D05C
102
}
330
D05C
100
AcDbXrecord
280
     1
270
     1
271
     1
  0
XRECORD
  5
D061
102
{ACAD_REACTORS
330
D05C
102
}
330
D05C
100
AcDbXrecord
280
     1
270
     1
271
     1
  0
XRECORD
  5
D060
102
{ACAD_REACTORS
330
D05C
102
}
330
D05C
100
AcDbXrecord
280
     1
270
     1
271
     1
  0
XRECORD
  5
D062
102
{ACAD_REACTORS
330
D05C
102
}
330
D05C
100
AcDbXrecord
280
     1
270
     1
271
     1
  0
XRECORD
  5
D05F
102
{ACAD_REACTORS
330
D05C
102
}
330
D05C
100
AcDbXrecord
280
     1
270
     1
271
     1
  0
XRECORD
  5
D298
102
{ACAD_REACTORS
330
D054
102
}
330
D054
100
AcDbXrecord
280
     1
102
MATERIAL
148
0.0
149
0.0
149
0.0
 93
        0
 94
      127
282
     0
 72
     0
 77
     0
171
     0
175
     0
179
     0
273
     0
  0
XRECORD
  5
D056
102
{ACAD_REACTORS
330
D054
102
}
330
D054
100
AcDbXrecord
280
     1
270
     1
271
     1
  0
XRECORD
  5
D055
102
{ACAD_REACTORS
330
D054
102
}
330
D054
100
AcDbXrecord
280
     1
270
     1
271
     1
  0
XRECORD
  5
D059
102
{ACAD_REACTORS
330
D054
102
}
330
D054
100
AcDbXrecord
280
     1
270
     1
271
     1
  0
XRECORD
  5
D058
102
{ACAD_REACTORS
330
D054
102
}
330
D054
100
AcDbXrecord
280
     1
270
     1
271
     1
  0
XRECORD
  5
D05A
102
{ACAD_REACTORS
330
D054
102
}
330
D054
100
AcDbXrecord
280
     1
270
     1
271
     1
  0
XRECORD
  5
D057
102
{ACAD_REACTORS
330
D054
102
}
330
D054
100
AcDbXrecord
280
     1
270
     1
271
     1
  0
XRECORD
  5
D29A
102
{ACAD_REACTORS
330
D064
102
}
330
D064
100
AcDbXrecord
280
     1
102
MATERIAL
148
0.0
149
0.0
149
0.0
 93
        0
 94
      127
282
     0
 72
     0
 77
     0
171
     0
175
     0
179
     0
273
     0
  0
XRECORD
  5
D066
102
{ACAD_REACTORS
330
D064
102
}
330
D064
100
AcDbXrecord
280
     1
270
     1
271
     1
  0
XRECORD
  5
D065
102
{ACAD_REACTORS
330
D064
102
}
330
D064
100
AcDbXrecord
280
     1
270
     1
271
     1
  0
XRECORD
  5
D069
102
{ACAD_REACTORS
330
D064
102
}
330
D064
100
AcDbXrecord
280
     1
270
     1
271
     1
  0
XRECORD
  5
D068
102
{ACAD_REACTORS
330
D064
102
}
330
D064
100
AcDbXrecord
280
     1
270
     1
271
     1
  0
XRECORD
  5
D06A
102
{ACAD_REACTORS
330
D064
102
}
330
D064
100
AcDbXrecord
280
     1
270
     1
271
     1
  0
XRECORD
  5
D067
102
{ACAD_REACTORS
330
D064
102
}
330
D064
100
AcDbXrecord
280
     1
270
     1
271
     1
  0
CELLSTYLEMAP
  5
D28D
102
{ACAD_REACTORS
330
D0B2
102
}
330
D0B2
100
AcDbCellStyleMap
 90
        3
300
CELLSTYLE
  1
TABLEFORMAT_BEGIN
 90
        5
170
     1
 91
        0
 92
    32768
 62
   257
 93
        1
300
CONTENTFORMAT
  1
CONTENTFORMAT_BEGIN
 90
        0
 91
        0
 92
        4
 93
        0
300

 40
0.0
140
1.0
 94
        5
 62
     0
340
11
144
6.0
309
CONTENTFORMAT_END
171
     1
301
MARGIN
  1
CELLMARGIN_BEGIN
 40
1.5
 40
1.5
 40
1.5
 40
1.5
 40
0.18
 40
0.18
309
CELLMARGIN_END
 94
        6
 95
        1
302
GRIDFORMAT
  1
GRIDFORMAT_BEGIN
 90
        0
 91
        1
 62
     0
 92
       -2
340
0
 93
        0
 40
0.045
309
GRIDFORMAT_END
 95
        2
302
GRIDFORMAT
  1
GRIDFORMAT_BEGIN
 90
        0
 91
        1
 62
     0
 92
       -2
340
0
 93
        0
 40
0.045
309
GRIDFORMAT_END
 95
        4
302
GRIDFORMAT
  1
GRIDFORMAT_BEGIN
 90
        0
 91
        1
 62
     0
 92
       -2
340
0
 93
        0
 40
0.045
309
GRIDFORMAT_END
 95
        8
302
GRIDFORMAT
  1
GRIDFORMAT_BEGIN
 90
        0
 91
        1
 62
     0
 92
       -2
340
0
 93
        0
 40
0.045
309
GRIDFORMAT_END
 95
       16
302
GRIDFORMAT
  1
GRIDFORMAT_BEGIN
 90
        0
 91
        1
 62
     0
 92
       -2
340
0
 93
        0
 40
0.045
309
GRIDFORMAT_END
 95
       32
302
GRIDFORMAT
  1
GRIDFORMAT_BEGIN
 90
        0
 91
        1
 62
     0
 92
       -2
340
0
 93
        0
 40
0.045
309
GRIDFORMAT_END
309
TABLEFORMAT_END
  1
CELLSTYLE_BEGIN
 90
        1
 91
        1
300
_TITLE
309
CELLSTYLE_END
300
CELLSTYLE
  1
TABLEFORMAT_BEGIN
 90
        5
170
     1
 91
        0
 92
        0
 62
   257
 93
        1
300
CONTENTFORMAT
  1
CONTENTFORMAT_BEGIN
 90
        0
 91
        0
 92
        4
 93
        0
300

 40
0.0
140
1.0
 94
        5
 62
     0
340
11
144
4.5
309
CONTENTFORMAT_END
171
     1
301
MARGIN
  1
CELLMARGIN_BEGIN
 40
1.5
 40
1.5
 40
1.5
 40
1.5
 40
0.18
 40
0.18
309
CELLMARGIN_END
 94
        6
 95
        1
302
GRIDFORMAT
  1
GRIDFORMAT_BEGIN
 90
        0
 91
        1
 62
     0
 92
       -2
340
0
 93
        0
 40
0.045
309
GRIDFORMAT_END
 95
        2
302
GRIDFORMAT
  1
GRIDFORMAT_BEGIN
 90
        0
 91
        1
 62
     0
 92
       -2
340
0
 93
        0
 40
0.045
309
GRIDFORMAT_END
 95
        4
302
GRIDFORMAT
  1
GRIDFORMAT_BEGIN
 90
        0
 91
        1
 62
     0
 92
       -2
340
0
 93
        0
 40
0.045
309
GRIDFORMAT_END
 95
        8
302
GRIDFORMAT
  1
GRIDFORMAT_BEGIN
 90
        0
 91
        1
 62
     0
 92
       -2
340
0
 93
        0
 40
0.045
309
GRIDFORMAT_END
 95
       16
302
GRIDFORMAT
  1
GRIDFORMAT_BEGIN
 90
        0
 91
        1
 62
     0
 92
       -2
340
0
 93
        0
 40
0.045
309
GRIDFORMAT_END
 95
       32
302
GRIDFORMAT
  1
GRIDFORMAT_BEGIN
 90
        0
 91
        1
 62
     0
 92
       -2
340
0
 93
        0
 40
0.045
309
GRIDFORMAT_END
309
TABLEFORMAT_END
  1
CELLSTYLE_BEGIN
 90
        2
 91
        1
300
_HEADER
309
CELLSTYLE_END
300
CELLSTYLE
  1
TABLEFORMAT_BEGIN
 90
        5
170
     1
 91
        0
 92
        0
 62
   257
 93
        1
300
CONTENTFORMAT
  1
CONTENTFORMAT_BEGIN
 90
        0
 91
        0
 92
        4
 93
        0
300

 40
0.0
140
1.0
 94
        2
 62
     0
340
11
144
4.5
309
CONTENTFORMAT_END
171
     1
301
MARGIN
  1
CELLMARGIN_BEGIN
 40
1.5
 40
1.5
 40
1.5
 40
1.5
 40
0.18
 40
0.18
309
CELLMARGIN_END
 94
        6
 95
        1
302
GRIDFORMAT
  1
GRIDFORMAT_BEGIN
 90
        0
 91
        1
 62
     0
 92
       -2
340
0
 93
        0
 40
0.045
309
GRIDFORMAT_END
 95
        2
302
GRIDFORMAT
  1
GRIDFORMAT_BEGIN
 90
        0
 91
        1
 62
     0
 92
       -2
340
0
 93
        0
 40
0.045
309
GRIDFORMAT_END
 95
        4
302
GRIDFORMAT
  1
GRIDFORMAT_BEGIN
 90
        0
 91
        1
 62
     0
 92
       -2
340
0
 93
        0
 40
0.045
309
GRIDFORMAT_END
 95
        8
302
GRIDFORMAT
  1
GRIDFORMAT_BEGIN
 90
        0
 91
        1
 62
     0
 92
       -2
340
0
 93
        0
 40
0.045
309
GRIDFORMAT_END
 95
       16
302
GRIDFORMAT
  1
GRIDFORMAT_BEGIN
 90
        0
 91
        1
 62
     0
 92
       -2
340
0
 93
        0
 40
0.045
309
GRIDFORMAT_END
 95
       32
302
GRIDFORMAT
  1
GRIDFORMAT_BEGIN
 90
        0
 91
        1
 62
     0
 92
       -2
340
0
 93
        0
 40
0.045
309
GRIDFORMAT_END
309
TABLEFORMAT_END
  1
CELLSTYLE_BEGIN
 90
        3
 91
        2
300
_DATA
309
CELLSTYLE_END
  0
XRECORD
  5
D297
102
{ACAD_REACTORS
330
D0B2
102
}
330
D0B2
100
AcDbXrecord
280
     1
102
ACAD_ROUNDTRIP_PRE2007_TABLESTYLE
 90
        4
 91
        0
  1

 92
        4
 93
        0
  2

 94
        4
 95
        0
  3

  0
XRECORD
  5
D2A6
102
{ACAD_REACTORS
330
D2A5
102
}
330
D2A5
100
AcDbXrecord
280
     1
102
RTVSPropertyOp0
 70
     1
102
RTVSPropertyOp1
 70
     1
102
RTVSPropertyOp2
 70
     1
102
RTVSPropertyOp3
 70
     1
102
RTVSPropertyOp4
 70
     1
102
RTVSPropertyOp5
 70
     1
102
RTVSPropertyOp6
 70
     1
102
RTVSPropertyOp7
 70
     1
102
RTVSPropertyOp8
 70
     1
102
RTVSPropertyOp9
 70
     1
102
RTVSPropertyOp10
 70
     1
102
RTVSPropertyOp11
 70
     1
102
RTVSPropertyOp12
 70
     1
102
RTVSPropertyOp13
 70
     1
102
RTVSPropertyOp14
 70
     1
102
RTVSPropertyOp15
 70
     1
102
RTVSPropertyOp16
 70
     1
102
RTVSPropertyOp17
 70
     1
102
RTVSPropertyOp18
 70
     1
102
RTVSPropertyOp19
 70
     1
102
RTVSPropertyOp20
 70
     1
102
RTVSPropertyOp21
 70
     1
102
RTVSPropertyOp22
 70
     1
102
RTVSPropertyOp23
 70
     1
102
RTVSPropertyOp24
 70
     1
102
RTVSPropertyOp25
 70
     1
102
RTVSPropertyOp26
 70
     1
102
RTVSPropertyOp27
 70
     1
102
RTVSPropertyOp28
 70
     1
102
RTVSPropertyOp29
 70
     1
102
RTVSPropertyOp30
 70
     1
102
RTVSPropertyOp31
 70
     1
102
RTVSPropertyOp32
 70
     1
  0
XRECORD
  5
D2AA
102
{ACAD_REACTORS
330
D2A9
102
}
330
D2A9
100
AcDbXrecord
280
     1
102
RTVSPropertyOp0
 70
     1
102
RTVSPropertyOp1
 70
     1
102
RTVSPropertyOp2
 70
     1
102
RTVSPropertyOp3
 70
     1
102
RTVSPropertyOp4
 70
     1
102
RTVSPropertyOp5
 70
     1
102
RTVSPropertyOp6
 70
     1
102
RTVSPropertyOp7
 70
     1
102
RTVSPropertyOp8
 70
     1
102
RTVSPropertyOp9
 70
     1
102
RTVSPropertyOp10
 70
     1
102
RTVSPropertyOp11
 70
     1
102
RTVSPropertyOp12
 70
     1
102
RTVSPropertyOp13
 70
     1
102
RTVSPropertyOp14
 70
     1
102
RTVSPropertyOp15
 70
     1
102
RTVSPropertyOp16
 70
     1
102
RTVSPropertyOp17
 70
     1
102
RTVSPropertyOp18
 70
     1
102
RTVSPropertyOp19
 70
     1
102
RTVSPropertyOp20
 70
     1
102
RTVSPropertyOp21
 70
     1
102
RTVSPropertyOp22
 70
     1
102
RTVSPropertyOp23
 70
     1
102
RTVSPropertyOp24
 70
     1
102
RTVSPropertyOp25
 70
     1
102
RTVSPropertyOp26
 70
     1
102
RTVSPropertyOp27
 70
     1
102
RTVSPropertyOp28
 70
     1
102
RTVSPropertyOp29
 70
     1
102
RTVSPropertyOp30
 70
     1
102
RTVSPropertyOp31
 70
     1
102
RTVSPropertyOp32
 70
     1
  0
XRECORD
  5
D2A8
102
{ACAD_REACTORS
330
D2A7
102
}
330
D2A7
100
AcDbXrecord
280
     1
102
RTVSPropertyOp0
 70
     1
102
RTVSPropertyOp1
 70
     1
102
RTVSPropertyOp2
 70
     1
102
RTVSPropertyOp3
 70
     1
102
RTVSPropertyOp4
 70
     1
102
RTVSPropertyOp5
 70
     1
102
RTVSPropertyOp6
 70
     1
102
RTVSPropertyOp7
 70
     1
102
RTVSPropertyOp8
 70
     1
102
RTVSPropertyOp9
 70
     1
102
RTVSPropertyOp10
 70
     1
102
RTVSPropertyOp11
 70
     1
102
RTVSPropertyOp12
 70
     1
102
RTVSPropertyOp13
 70
     1
102
RTVSPropertyOp14
 70
     1
102
RTVSPropertyOp15
 70
     1
102
RTVSPropertyOp16
 70
     1
102
RTVSPropertyOp17
 70
     1
102
RTVSPropertyOp18
 70
     1
102
RTVSPropertyOp19
 70
     1
102
RTVSPropertyOp20
 70
     1
102
RTVSPropertyOp21
 70
     1
102
RTVSPropertyOp22
 70
     1
102
RTVSPropertyOp23
 70
     1
102
RTVSPropertyOp24
 70
     1
102
RTVSPropertyOp25
 70
     1
102
RTVSPropertyOp26
 70
     1
102
RTVSPropertyOp27
 70
     1
102
RTVSPropertyOp28
 70
     1
102
RTVSPropertyOp29
 70
     1
102
RTVSPropertyOp30
 70
     1
102
RTVSPropertyOp31
 70
     1
102
RTVSPropertyOp32
 70
     1
  0
XRECORD
  5
D2A4
102
{ACAD_REACTORS
330
D2A3
102
}
330
D2A3
100
AcDbXrecord
280
     1
102
RTVSPropertyOp0
 70
     1
102
RTVSPropertyOp1
 70
     1
102
RTVSPropertyOp2
 70
     1
102
RTVSPropertyOp3
 70
     1
102
RTVSPropertyOp4
 70
     1
102
RTVSPropertyOp5
 70
     1
102
RTVSPropertyOp6
 70
     1
102
RTVSPropertyOp7
 70
     1
102
RTVSPropertyOp8
 70
     1
102
RTVSPropertyOp9
 70
     1
102
RTVSPropertyOp10
 70
     1
102
RTVSPropertyOp11
 70
     1
102
RTVSPropertyOp12
 70
     1
102
RTVSPropertyOp13
 70
     1
102
RTVSPropertyOp14
 70
     1
102
RTVSPropertyOp15
 70
     1
102
RTVSPropertyOp16
 70
     1
102
RTVSPropertyOp17
 70
     1
102
RTVSPropertyOp18
 70
     1
102
RTVSPropertyOp19
 70
     1
102
RTVSPropertyOp20
 70
     1
102
RTVSPropertyOp21
 70
     1
102
RTVSPropertyOp22
 70
     1
102
RTVSPropertyOp23
 70
     1
102
RTVSPropertyOp24
 70
     1
102
RTVSPropertyOp25
 70
     1
102
RTVSPropertyOp26
 70
     1
102
RTVSPropertyOp27
 70
     1
102
RTVSPropertyOp28
 70
     1
102
RTVSPropertyOp29
 70
     1
102
RTVSPropertyOp30
 70
     1
102
RTVSPropertyOp31
 70
     1
102
RTVSPropertyOp32
 70
     1
  0
XRECORD
  5
D2B2
102
{ACAD_REACTORS
330
D2B1
102
}
330
D2B1
100
AcDbXrecord
280
     1
102
RTVSPropertyOp0
 70
     1
102
RTVSPropertyOp1
 70
     1
102
RTVSPropertyOp2
 70
     1
102
RTVSPropertyOp3
 70
     1
102
RTVSPropertyOp4
 70
     1
102
RTVSPropertyOp5
 70
     1
102
RTVSPropertyOp6
 70
     1
102
RTVSPropertyOp7
 70
     1
102
RTVSPropertyOp8
 70
     1
102
RTVSPropertyOp9
 70
     1
102
RTVSPropertyOp10
 70
     1
102
RTVSPropertyOp11
 70
     1
102
RTVSPropertyOp12
 70
     1
102
RTVSPropertyOp13
 70
     1
102
RTVSPropertyOp14
 70
     1
102
RTVSPropertyOp15
 70
     1
102
RTVSPropertyOp16
 70
     1
102
RTVSPropertyOp17
 70
     1
102
RTVSPropertyOp18
 70
     1
102
RTVSPropertyOp19
 70
     1
102
RTVSPropertyOp20
 70
     1
102
RTVSPropertyOp21
 70
     1
102
RTVSPropertyOp22
 70
     1
102
RTVSPropertyOp23
 70
     1
102
RTVSPropertyOp24
 70
     1
102
RTVSPropertyOp25
 70
     1
102
RTVSPropertyOp26
 70
     1
102
RTVSPropertyOp27
 70
     1
102
RTVSPropertyOp28
 70
     1
102
RTVSPropertyOp29
 70
     1
102
RTVSPropertyOp30
 70
     1
102
RTVSPropertyOp31
 70
     1
102
RTVSPropertyOp32
 70
     1
  0
XRECORD
  5
D2BA
102
{ACAD_REACTORS
330
D2B9
102
}
330
D2B9
100
AcDbXrecord
280
     1
102
RTVSPropertyOp0
 70
     1
102
RTVSPropertyOp1
 70
     1
102
RTVSPropertyOp2
 70
     1
102
RTVSPropertyOp3
 70
     1
102
RTVSPropertyOp4
 70
     1
102
RTVSPropertyOp5
 70
     1
102
RTVSPropertyOp6
 70
     1
102
RTVSPropertyOp7
 70
     1
102
RTVSPropertyOp8
 70
     1
102
RTVSPropertyOp9
 70
     1
102
RTVSPropertyOp10
 70
     1
102
RTVSPropertyOp11
 70
     1
102
RTVSPropertyOp12
 70
     1
102
RTVSPropertyOp13
 70
     1
102
RTVSPropertyOp14
 70
     1
102
RTVSPropertyOp15
 70
     1
102
RTVSPropertyOp16
 70
     1
102
RTVSPropertyOp17
 70
     1
102
RTVSPropertyOp18
 70
     1
102
RTVSPropertyOp19
 70
     1
102
RTVSPropertyOp20
 70
     1
102
RTVSPropertyOp21
 70
     1
102
RTVSPropertyOp22
 70
     1
102
RTVSPropertyOp23
 70
     1
102
RTVSPropertyOp24
 70
     1
102
RTVSPropertyOp25
 70
     1
102
RTVSPropertyOp26
 70
     1
102
RTVSPropertyOp27
 70
     1
102
RTVSPropertyOp28
 70
     1
102
RTVSPropertyOp29
 70
     1
102
RTVSPropertyOp30
 70
     1
102
RTVSPropertyOp31
 70
     1
102
RTVSPropertyOp32
 70
     1
  0
XRECORD
  5
D2AC
102
{ACAD_REACTORS
330
D2AB
102
}
330
D2AB
100
AcDbXrecord
280
     1
102
RTVSPropertyOp0
 70
     1
102
RTVSPropertyOp1
 70
     1
102
RTVSPropertyOp2
 70
     1
102
RTVSPropertyOp3
 70
     1
102
RTVSPropertyOp4
 70
     1
102
RTVSPropertyOp5
 70
     1
102
RTVSPropertyOp6
 70
     1
102
RTVSPropertyOp7
 70
     1
102
RTVSPropertyOp8
 70
     1
102
RTVSPropertyOp9
 70
     1
102
RTVSPropertyOp10
 70
     1
102
RTVSPropertyOp11
 70
     1
102
RTVSPropertyOp12
 70
     1
102
RTVSPropertyOp13
 70
     1
102
RTVSPropertyOp14
 70
     1
102
RTVSPropertyOp15
 70
     1
102
RTVSPropertyOp16
 70
     1
102
RTVSPropertyOp17
 70
     1
102
RTVSPropertyOp18
 70
     1
102
RTVSPropertyOp19
 70
     1
102
RTVSPropertyOp20
 70
     1
102
RTVSPropertyOp21
 70
     1
102
RTVSPropertyOp22
 70
     1
102
RTVSPropertyOp23
 70
     1
102
RTVSPropertyOp24
 70
     1
102
RTVSPropertyOp25
 70
     1
102
RTVSPropertyOp26
 70
     1
102
RTVSPropertyOp27
 70
     1
102
RTVSPropertyOp28
 70
     1
102
RTVSPropertyOp29
 70
     1
102
RTVSPropertyOp30
 70
     1
102
RTVSPropertyOp31
 70
     1
102
RTVSPropertyOp32
 70
     1
  0
XRECORD
  5
D2B0
102
{ACAD_REACTORS
330
D2AF
102
}
330
D2AF
100
AcDbXrecord
280
     1
102
RTVSPropertyOp0
 70
     1
102
RTVSPropertyOp1
 70
     1
102
RTVSPropertyOp2
 70
     1
102
RTVSPropertyOp3
 70
     1
102
RTVSPropertyOp4
 70
     1
102
RTVSPropertyOp5
 70
     1
102
RTVSPropertyOp6
 70
     1
102
RTVSPropertyOp7
 70
     1
102
RTVSPropertyOp8
 70
     1
102
RTVSPropertyOp9
 70
     1
102
RTVSPropertyOp10
 70
     1
102
RTVSPropertyOp11
 70
     1
102
RTVSPropertyOp12
 70
     1
102
RTVSPropertyOp13
 70
     1
102
RTVSPropertyOp14
 70
     1
102
RTVSPropertyOp15
 70
     1
102
RTVSPropertyOp16
 70
     1
102
RTVSPropertyOp17
 70
     1
102
RTVSPropertyOp18
 70
     1
102
RTVSPropertyOp19
 70
     1
102
RTVSPropertyOp20
 70
     1
102
RTVSPropertyOp21
 70
     1
102
RTVSPropertyOp22
 70
     1
102
RTVSPropertyOp23
 70
     1
102
RTVSPropertyOp24
 70
     1
102
RTVSPropertyOp25
 70
     1
102
RTVSPropertyOp26
 70
     1
102
RTVSPropertyOp27
 70
     1
102
RTVSPropertyOp28
 70
     1
102
RTVSPropertyOp29
 70
     1
102
RTVSPropertyOp30
 70
     1
102
RTVSPropertyOp31
 70
     1
102
RTVSPropertyOp32
 70
     1
  0
XRECORD
  5
D2C0
102
{ACAD_REACTORS
330
D2BF
102
}
330
D2BF
100
AcDbXrecord
280
     1
102
RTVSPropertyOp0
 70
     0
102
RTVSPropertyOp1
 70
     0
102
RTVSPropertyOp2
 70
     0
102
RTVSPropertyOp3
 70
     0
102
RTVSPropertyOp4
 70
     0
102
RTVSPropertyOp5
 70
     0
102
RTVSPropertyOp6
 70
     0
102
RTVSPropertyOp7
 70
     0
102
RTVSPropertyOp8
 70
     0
102
RTVSPropertyOp9
 70
     0
102
RTVSPropertyOp10
 70
     0
102
RTVSPropertyOp11
 70
     0
102
RTVSPropertyOp12
 70
     0
102
RTVSPropertyOp13
 70
     0
102
RTVSPropertyOp14
 70
     2
102
RTVSPropertyOp15
 70
     0
102
RTVSPropertyOp16
 70
     0
102
RTVSPropertyOp17
 70
     0
102
RTVSPropertyOp18
 70
     0
102
RTVSPropertyOp19
 70
     0
102
RTVSPropertyOp20
 70
     0
102
RTVSPropertyOp21
 70
     0
102
RTVSPropertyOp22
 70
     0
102
RTVSPropertyOp23
 70
     0
102
RTVSPropertyOp24
 70
     0
102
RTVSPropertyOp25
 70
     0
102
RTVSPropertyOp26
 70
     0
102
RTVSPropertyOp27
 70
     0
102
RTVSPropertyOp28
 70
     1
102
RTVSPropertyOp29
 70
     1
102
RTVSPropertyOp30
 70
     1
102
RTVSPropertyOp31
 70
     1
102
RTVSPropertyOp32
 70
     1
  0
XRECORD
  5
D2B8
102
{ACAD_REACTORS
330
D2B7
102
}
330
D2B7
100
AcDbXrecord
280
     1
102
RTVSPropertyOp0
 70
     1
102
RTVSPropertyOp1
 70
     1
102
RTVSPropertyOp2
 70
     1
102
RTVSPropertyOp3
 70
     1
102
RTVSPropertyOp4
 70
     1
102
RTVSPropertyOp5
 70
     1
102
RTVSPropertyOp6
 70
     1
102
RTVSPropertyOp7
 70
     1
102
RTVSPropertyOp8
 70
     1
102
RTVSPropertyOp9
 70
     1
102
RTVSPropertyOp10
 70
     1
102
RTVSPropertyOp11
 70
     1
102
RTVSPropertyOp12
 70
     1
102
RTVSPropertyOp13
 70
     1
102
RTVSPropertyOp14
 70
     1
102
RTVSPropertyOp15
 70
     1
102
RTVSPropertyOp16
 70
     1
102
RTVSPropertyOp17
 70
     1
102
RTVSPropertyOp18
 70
     1
102
RTVSPropertyOp19
 70
     1
102
RTVSPropertyOp20
 70
     1
102
RTVSPropertyOp21
 70
     1
102
RTVSPropertyOp22
 70
     1
102
RTVSPropertyOp23
 70
     1
102
RTVSPropertyOp24
 70
     1
102
RTVSPropertyOp25
 70
     1
102
RTVSPropertyOp26
 70
     1
102
RTVSPropertyOp27
 70
     1
102
RTVSPropertyOp28
 70
     1
102
RTVSPropertyOp29
 70
     1
102
RTVSPropertyOp30
 70
     1
102
RTVSPropertyOp31
 70
     1
102
RTVSPropertyOp32
 70
     1
  0
XRECORD
  5
D29C
102
{ACAD_REACTORS
330
D29B
102
}
330
D29B
100
AcDbXrecord
280
     1
102
RTVSPropertyOp0
 70
     1
102
RTVSPropertyOp1
 70
     1
102
RTVSPropertyOp2
 70
     1
102
RTVSPropertyOp3
 70
     1
102
RTVSPropertyOp4
 70
     1
102
RTVSPropertyOp5
 70
     1
102
RTVSPropertyOp6
 70
     1
102
RTVSPropertyOp7
 70
     1
102
RTVSPropertyOp8
 70
     1
102
RTVSPropertyOp9
 70
     1
102
RTVSPropertyOp10
 70
     1
102
RTVSPropertyOp11
 70
     1
102
RTVSPropertyOp12
 70
     1
102
RTVSPropertyOp13
 70
     1
102
RTVSPropertyOp14
 70
     1
102
RTVSPropertyOp15
 70
     1
102
RTVSPropertyOp16
 70
     1
102
RTVSPropertyOp17
 70
     1
102
RTVSPropertyOp18
 70
     1
102
RTVSPropertyOp19
 70
     1
102
RTVSPropertyOp20
 70
     1
102
RTVSPropertyOp21
 70
     1
102
RTVSPropertyOp22
 70
     1
102
RTVSPropertyOp23
 70
     1
102
RTVSPropertyOp24
 70
     1
102
RTVSPropertyOp25
 70
     1
102
RTVSPropertyOp26
 70
     1
102
RTVSPropertyOp27
 70
     1
102
RTVSPropertyOp28
 70
     1
102
RTVSPropertyOp29
 70
     1
102
RTVSPropertyOp30
 70
     1
102
RTVSPropertyOp31
 70
     1
102
RTVSPropertyOp32
 70
     1
  0
XRECORD
  5
D29E
102
{ACAD_REACTORS
330
D29D
102
}
330
D29D
100
AcDbXrecord
280
     1
102
RTVSPropertyOp0
 70
     1
102
RTVSPropertyOp1
 70
     1
102
RTVSPropertyOp2
 70
     1
102
RTVSPropertyOp3
 70
     1
102
RTVSPropertyOp4
 70
     1
102
RTVSPropertyOp5
 70
     1
102
RTVSPropertyOp6
 70
     1
102
RTVSPropertyOp7
 70
     1
102
RTVSPropertyOp8
 70
     1
102
RTVSPropertyOp9
 70
     1
102
RTVSPropertyOp10
 70
     1
102
RTVSPropertyOp11
 70
     1
102
RTVSPropertyOp12
 70
     1
102
RTVSPropertyOp13
 70
     1
102
RTVSPropertyOp14
 70
     1
102
RTVSPropertyOp15
 70
     1
102
RTVSPropertyOp16
 70
     1
102
RTVSPropertyOp17
 70
     1
102
RTVSPropertyOp18
 70
     1
102
RTVSPropertyOp19
 70
     1
102
RTVSPropertyOp20
 70
     1
102
RTVSPropertyOp21
 70
     1
102
RTVSPropertyOp22
 70
     1
102
RTVSPropertyOp23
 70
     1
102
RTVSPropertyOp24
 70
     1
102
RTVSPropertyOp25
 70
     1
102
RTVSPropertyOp26
 70
     1
102
RTVSPropertyOp27
 70
     1
102
RTVSPropertyOp28
 70
     1
102
RTVSPropertyOp29
 70
     1
102
RTVSPropertyOp30
 70
     1
102
RTVSPropertyOp31
 70
     1
102
RTVSPropertyOp32
 70
     1
  0
XRECORD
  5
D2A0
102
{ACAD_REACTORS
330
D29F
102
}
330
D29F
100
AcDbXrecord
280
     1
102
RTVSPropertyOp0
 70
     1
102
RTVSPropertyOp1
 70
     1
102
RTVSPropertyOp2
 70
     1
102
RTVSPropertyOp3
 70
     1
102
RTVSPropertyOp4
 70
     1
102
RTVSPropertyOp5
 70
     1
102
RTVSPropertyOp6
 70
     1
102
RTVSPropertyOp7
 70
     1
102
RTVSPropertyOp8
 70
     1
102
RTVSPropertyOp9
 70
     1
102
RTVSPropertyOp10
 70
     1
102
RTVSPropertyOp11
 70
     1
102
RTVSPropertyOp12
 70
     1
102
RTVSPropertyOp13
 70
     1
102
RTVSPropertyOp14
 70
     1
102
RTVSPropertyOp15
 70
     1
102
RTVSPropertyOp16
 70
     1
102
RTVSPropertyOp17
 70
     1
102
RTVSPropertyOp18
 70
     1
102
RTVSPropertyOp19
 70
     1
102
RTVSPropertyOp20
 70
     1
102
RTVSPropertyOp21
 70
     1
102
RTVSPropertyOp22
 70
     1
102
RTVSPropertyOp23
 70
     1
102
RTVSPropertyOp24
 70
     1
102
RTVSPropertyOp25
 70
     1
102
RTVSPropertyOp26
 70
     1
102
RTVSPropertyOp27
 70
     1
102
RTVSPropertyOp28
 70
     1
102
RTVSPropertyOp29
 70
     1
102
RTVSPropertyOp30
 70
     1
102
RTVSPropertyOp31
 70
     1
102
RTVSPropertyOp32
 70
     1
  0
XRECORD
  5
D2A2
102
{ACAD_REACTORS
330
D2A1
102
}
330
D2A1
100
AcDbXrecord
280
     1
102
RTVSPropertyOp0
 70
     1
102
RTVSPropertyOp1
 70
     1
102
RTVSPropertyOp2
 70
     1
102
RTVSPropertyOp3
 70
     1
102
RTVSPropertyOp4
 70
     1
102
RTVSPropertyOp5
 70
     1
102
RTVSPropertyOp6
 70
     1
102
RTVSPropertyOp7
 70
     1
102
RTVSPropertyOp8
 70
     1
102
RTVSPropertyOp9
 70
     1
102
RTVSPropertyOp10
 70
     1
102
RTVSPropertyOp11
 70
     1
102
RTVSPropertyOp12
 70
     1
102
RTVSPropertyOp13
 70
     1
102
RTVSPropertyOp14
 70
     1
102
RTVSPropertyOp15
 70
     1
102
RTVSPropertyOp16
 70
     1
102
RTVSPropertyOp17
 70
     1
102
RTVSPropertyOp18
 70
     1
102
RTVSPropertyOp19
 70
     1
102
RTVSPropertyOp20
 70
     1
102
RTVSPropertyOp21
 70
     1
102
RTVSPropertyOp22
 70
     1
102
RTVSPropertyOp23
 70
     1
102
RTVSPropertyOp24
 70
     1
102
RTVSPropertyOp25
 70
     1
102
RTVSPropertyOp26
 70
     1
102
RTVSPropertyOp27
 70
     1
102
RTVSPropertyOp28
 70
     1
102
RTVSPropertyOp29
 70
     1
102
RTVSPropertyOp30
 70
     1
102
RTVSPropertyOp31
 70
     1
102
RTVSPropertyOp32
 70
     1
  0
XRECORD
  5
D2C4
102
{ACAD_REACTORS
330
D2C3
102
}
330
D2C3
100
AcDbXrecord
280
     1
102
RTVSPropertyOp0
 70
     1
102
RTVSPropertyOp1
 70
     1
102
RTVSPropertyOp2
 70
     1
102
RTVSPropertyOp3
 70
     1
102
RTVSPropertyOp4
 70
     1
102
RTVSPropertyOp5
 70
     1
102
RTVSPropertyOp6
 70
     1
102
RTVSPropertyOp7
 70
     1
102
RTVSPropertyOp8
 70
     1
102
RTVSPropertyOp9
 70
     1
102
RTVSPropertyOp10
 70
     1
102
RTVSPropertyOp11
 70
     1
102
RTVSPropertyOp12
 70
     1
102
RTVSPropertyOp13
 70
     1
102
RTVSPropertyOp14
 70
     1
102
RTVSPropertyOp15
 70
     1
102
RTVSPropertyOp16
 70
     1
102
RTVSPropertyOp17
 70
     1
102
RTVSPropertyOp18
 70
     1
102
RTVSPropertyOp19
 70
     1
102
RTVSPropertyOp20
 70
     1
102
RTVSPropertyOp21
 70
     1
102
RTVSPropertyOp22
 70
     1
102
RTVSPropertyOp23
 70
     1
102
RTVSPropertyOp24
 70
     1
102
RTVSPropertyOp25
 70
     1
102
RTVSPropertyOp26
 70
     1
102
RTVSPropertyOp27
 70
     1
102
RTVSPropertyOp28
 70
     1
102
RTVSPropertyOp29
 70
     1
102
RTVSPropertyOp30
 70
     1
102
RTVSPropertyOp31
 70
     1
102
RTVSPropertyOp32
 70
     1
  0
XRECORD
  5
D2BC
102
{ACAD_REACTORS
330
D2BB
102
}
330
D2BB
100
AcDbXrecord
280
     1
102
RTVSPropertyOp0
 70
     0
102
RTVSPropertyOp1
 70
     0
102
RTVSPropertyOp2
 70
     0
102
RTVSPropertyOp3
 70
     0
102
RTVSPropertyOp4
 70
     0
102
RTVSPropertyOp5
 70
     0
102
RTVSPropertyOp6
 70
     0
102
RTVSPropertyOp7
 70
     0
102
RTVSPropertyOp8
 70
     0
102
RTVSPropertyOp9
 70
     0
102
RTVSPropertyOp10
 70
     0
102
RTVSPropertyOp11
 70
     0
102
RTVSPropertyOp12
 70
     0
102
RTVSPropertyOp13
 70
     0
102
RTVSPropertyOp14
 70
     2
102
RTVSPropertyOp15
 70
     0
102
RTVSPropertyOp16
 70
     0
102
RTVSPropertyOp17
 70
     0
102
RTVSPropertyOp18
 70
     0
102
RTVSPropertyOp19
 70
     0
102
RTVSPropertyOp20
 70
     0
102
RTVSPropertyOp21
 70
     0
102
RTVSPropertyOp22
 70
     0
102
RTVSPropertyOp23
 70
     0
102
RTVSPropertyOp24
 70
     0
102
RTVSPropertyOp25
 70
     0
102
RTVSPropertyOp26
 70
     0
102
RTVSPropertyOp27
 70
     0
102
RTVSPropertyOp28
 70
     1
102
RTVSPropertyOp29
 70
     1
102
RTVSPropertyOp30
 70
     1
102
RTVSPropertyOp31
 70
     1
102
RTVSPropertyOp32
 70
     1
  0
XRECORD
  5
D2B6
102
{ACAD_REACTORS
330
D2B5
102
}
330
D2B5
100
AcDbXrecord
280
     1
102
RTVSPropertyOp0
 70
     1
102
RTVSPropertyOp1
 70
     1
102
RTVSPropertyOp2
 70
     1
102
RTVSPropertyOp3
 70
     1
102
RTVSPropertyOp4
 70
     1
102
RTVSPropertyOp5
 70
     1
102
RTVSPropertyOp6
 70
     1
102
RTVSPropertyOp7
 70
     1
102
RTVSPropertyOp8
 70
     1
102
RTVSPropertyOp9
 70
     1
102
RTVSPropertyOp10
 70
     1
102
RTVSPropertyOp11
 70
     1
102
RTVSPropertyOp12
 70
     1
102
RTVSPropertyOp13
 70
     1
102
RTVSPropertyOp14
 70
     1
102
RTVSPropertyOp15
 70
     1
102
RTVSPropertyOp16
 70
     1
102
RTVSPropertyOp17
 70
     1
102
RTVSPropertyOp18
 70
     1
102
RTVSPropertyOp19
 70
     1
102
RTVSPropertyOp20
 70
     1
102
RTVSPropertyOp21
 70
     1
102
RTVSPropertyOp22
 70
     1
102
RTVSPropertyOp23
 70
     1
102
RTVSPropertyOp24
 70
     1
102
RTVSPropertyOp25
 70
     1
102
RTVSPropertyOp26
 70
     1
102
RTVSPropertyOp27
 70
     1
102
RTVSPropertyOp28
 70
     1
102
RTVSPropertyOp29
 70
     1
102
RTVSPropertyOp30
 70
     1
102
RTVSPropertyOp31
 70
     1
102
RTVSPropertyOp32
 70
     1
  0
XRECORD
  5
D2BE
102
{ACAD_REACTORS
330
D2BD
102
}
330
D2BD
100
AcDbXrecord
280
     1
102
RTVSPropertyOp0
 70
     0
102
RTVSPropertyOp1
 70
     0
102
RTVSPropertyOp2
 70
     0
102
RTVSPropertyOp3
 70
     0
102
RTVSPropertyOp4
 70
     0
102
RTVSPropertyOp5
 70
     0
102
RTVSPropertyOp6
 70
     0
102
RTVSPropertyOp7
 70
     0
102
RTVSPropertyOp8
 70
     0
102
RTVSPropertyOp9
 70
     0
102
RTVSPropertyOp10
 70
     0
102
RTVSPropertyOp11
 70
     0
102
RTVSPropertyOp12
 70
     0
102
RTVSPropertyOp13
 70
     0
102
RTVSPropertyOp14
 70
     2
102
RTVSPropertyOp15
 70
     0
102
RTVSPropertyOp16
 70
     0
102
RTVSPropertyOp17
 70
     0
102
RTVSPropertyOp18
 70
     0
102
RTVSPropertyOp19
 70
     0
102
RTVSPropertyOp20
 70
     0
102
RTVSPropertyOp21
 70
     0
102
RTVSPropertyOp22
 70
     0
102
RTVSPropertyOp23
 70
     0
102
RTVSPropertyOp24
 70
     0
102
RTVSPropertyOp25
 70
     0
102
RTVSPropertyOp26
 70
     0
102
RTVSPropertyOp27
 70
     0
102
RTVSPropertyOp28
 70
     1
102
RTVSPropertyOp29
 70
     1
102
RTVSPropertyOp30
 70
     1
102
RTVSPropertyOp31
 70
     1
102
RTVSPropertyOp32
 70
     1
  0
XRECORD
  5
D2AE
102
{ACAD_REACTORS
330
D2AD
102
}
330
D2AD
100
AcDbXrecord
280
     1
102
RTVSPropertyOp0
 70
     1
102
RTVSPropertyOp1
 70
     1
102
RTVSPropertyOp2
 70
     1
102
RTVSPropertyOp3
 70
     1
102
RTVSPropertyOp4
 70
     1
102
RTVSPropertyOp5
 70
     1
102
RTVSPropertyOp6
 70
     1
102
RTVSPropertyOp7
 70
     1
102
RTVSPropertyOp8
 70
     1
102
RTVSPropertyOp9
 70
     1
102
RTVSPropertyOp10
 70
     1
102
RTVSPropertyOp11
 70
     1
102
RTVSPropertyOp12
 70
     1
102
RTVSPropertyOp13
 70
     1
102
RTVSPropertyOp14
 70
     1
102
RTVSPropertyOp15
 70
     1
102
RTVSPropertyOp16
 70
     1
102
RTVSPropertyOp17
 70
     1
102
RTVSPropertyOp18
 70
     1
102
RTVSPropertyOp19
 70
     1
102
RTVSPropertyOp20
 70
     1
102
RTVSPropertyOp21
 70
     1
102
RTVSPropertyOp22
 70
     1
102
RTVSPropertyOp23
 70
     1
102
RTVSPropertyOp24
 70
     1
102
RTVSPropertyOp25
 70
     1
102
RTVSPropertyOp26
 70
     1
102
RTVSPropertyOp27
 70
     1
102
RTVSPropertyOp28
 70
     1
102
RTVSPropertyOp29
 70
     1
102
RTVSPropertyOp30
 70
     1
102
RTVSPropertyOp31
 70
     1
102
RTVSPropertyOp32
 70
     1
  0
XRECORD
  5
D2CE
102
{ACAD_REACTORS
330
D2CD
102
}
330
D2CD
100
AcDbXrecord
280
     1
102
RTVSPropertyOp0
 70
     1
102
RTVSPropertyOp1
 70
     1
102
RTVSPropertyOp2
 70
     1
102
RTVSPropertyOp3
 70
     1
102
RTVSPropertyOp4
 70
     1
102
RTVSPropertyOp5
 70
     1
102
RTVSPropertyOp6
 70
     1
102
RTVSPropertyOp7
 70
     1
102
RTVSPropertyOp8
 70
     1
102
RTVSPropertyOp9
 70
     1
102
RTVSPropertyOp10
 70
     1
102
RTVSPropertyOp11
 70
     1
102
RTVSPropertyOp12
 70
     1
102
RTVSPropertyOp13
 70
     1
102
RTVSPropertyOp14
 70
     1
102
RTVSPropertyOp15
 70
     1
102
RTVSPropertyOp16
 70
     1
102
RTVSPropertyOp17
 70
     1
102
RTVSPropertyOp18
 70
     1
102
RTVSPropertyOp19
 70
     1
102
RTVSPropertyOp20
 70
     1
102
RTVSPropertyOp21
 70
     1
102
RTVSPropertyOp22
 70
     1
102
RTVSPropertyOp23
 70
     1
102
RTVSPropertyOp24
 70
     1
102
RTVSPropertyOp25
 70
     1
102
RTVSPropertyOp26
 70
     1
102
RTVSPropertyOp27
 70
     1
102
RTVSPropertyOp28
 70
     1
102
RTVSPropertyOp29
 70
     1
102
RTVSPropertyOp30
 70
     1
102
RTVSPropertyOp31
 70
     1
102
RTVSPropertyOp32
 70
     1
  0
XRECORD
  5
D2CC
102
{ACAD_REACTORS
330
D2CB
102
}
330
D2CB
100
AcDbXrecord
280
     1
102
RTVSPropertyOp0
 70
     1
102
RTVSPropertyOp1
 70
     1
102
RTVSPropertyOp2
 70
     1
102
RTVSPropertyOp3
 70
     1
102
RTVSPropertyOp4
 70
     1
102
RTVSPropertyOp5
 70
     1
102
RTVSPropertyOp6
 70
     1
102
RTVSPropertyOp7
 70
     1
102
RTVSPropertyOp8
 70
     1
102
RTVSPropertyOp9
 70
     1
102
RTVSPropertyOp10
 70
     1
102
RTVSPropertyOp11
 70
     1
102
RTVSPropertyOp12
 70
     1
102
RTVSPropertyOp13
 70
     1
102
RTVSPropertyOp14
 70
     1
102
RTVSPropertyOp15
 70
     1
102
RTVSPropertyOp16
 70
     1
102
RTVSPropertyOp17
 70
     1
102
RTVSPropertyOp18
 70
     1
102
RTVSPropertyOp19
 70
     1
102
RTVSPropertyOp20
 70
     1
102
RTVSPropertyOp21
 70
     1
102
RTVSPropertyOp22
 70
     1
102
RTVSPropertyOp23
 70
     1
102
RTVSPropertyOp24
 70
     1
102
RTVSPropertyOp25
 70
     1
102
RTVSPropertyOp26
 70
     1
102
RTVSPropertyOp27
 70
     1
102
RTVSPropertyOp28
 70
     1
102
RTVSPropertyOp29
 70
     1
102
RTVSPropertyOp30
 70
     1
102
RTVSPropertyOp31
 70
     1
102
RTVSPropertyOp32
 70
     1
  0
XRECORD
  5
D2C6
102
{ACAD_REACTORS
330
D2C5
102
}
330
D2C5
100
AcDbXrecord
280
     1
102
RTVSPropertyOp0
 70
     1
102
RTVSPropertyOp1
 70
     1
102
RTVSPropertyOp2
 70
     1
102
RTVSPropertyOp3
 70
     1
102
RTVSPropertyOp4
 70
     1
102
RTVSPropertyOp5
 70
     1
102
RTVSPropertyOp6
 70
     1
102
RTVSPropertyOp7
 70
     1
102
RTVSPropertyOp8
 70
     1
102
RTVSPropertyOp9
 70
     1
102
RTVSPropertyOp10
 70
     1
102
RTVSPropertyOp11
 70
     1
102
RTVSPropertyOp12
 70
     1
102
RTVSPropertyOp13
 70
     1
102
RTVSPropertyOp14
 70
     1
102
RTVSPropertyOp15
 70
     1
102
RTVSPropertyOp16
 70
     1
102
RTVSPropertyOp17
 70
     1
102
RTVSPropertyOp18
 70
     1
102
RTVSPropertyOp19
 70
     1
102
RTVSPropertyOp20
 70
     1
102
RTVSPropertyOp21
 70
     1
102
RTVSPropertyOp22
 70
     1
102
RTVSPropertyOp23
 70
     1
102
RTVSPropertyOp24
 70
     1
102
RTVSPropertyOp25
 70
     1
102
RTVSPropertyOp26
 70
     1
102
RTVSPropertyOp27
 70
     1
102
RTVSPropertyOp28
 70
     1
102
RTVSPropertyOp29
 70
     1
102
RTVSPropertyOp30
 70
     1
102
RTVSPropertyOp31
 70
     1
102
RTVSPropertyOp32
 70
     1
  0
XRECORD
  5
D2C8
102
{ACAD_REACTORS
330
D2C7
102
}
330
D2C7
100
AcDbXrecord
280
     1
102
RTVSPropertyOp0
 70
     1
102
RTVSPropertyOp1
 70
     1
102
RTVSPropertyOp2
 70
     1
102
RTVSPropertyOp3
 70
     1
102
RTVSPropertyOp4
 70
     1
102
RTVSPropertyOp5
 70
     1
102
RTVSPropertyOp6
 70
     1
102
RTVSPropertyOp7
 70
     1
102
RTVSPropertyOp8
 70
     1
102
RTVSPropertyOp9
 70
     1
102
RTVSPropertyOp10
 70
     1
102
RTVSPropertyOp11
 70
     1
102
RTVSPropertyOp12
 70
     1
102
RTVSPropertyOp13
 70
     1
102
RTVSPropertyOp14
 70
     1
102
RTVSPropertyOp15
 70
     1
102
RTVSPropertyOp16
 70
     1
102
RTVSPropertyOp17
 70
     1
102
RTVSPropertyOp18
 70
     1
102
RTVSPropertyOp19
 70
     1
102
RTVSPropertyOp20
 70
     1
102
RTVSPropertyOp21
 70
     1
102
RTVSPropertyOp22
 70
     1
102
RTVSPropertyOp23
 70
     1
102
RTVSPropertyOp24
 70
     1
102
RTVSPropertyOp25
 70
     1
102
RTVSPropertyOp26
 70
     1
102
RTVSPropertyOp27
 70
     1
102
RTVSPropertyOp28
 70
     1
102
RTVSPropertyOp29
 70
     1
102
RTVSPropertyOp30
 70
     1
102
RTVSPropertyOp31
 70
     1
102
RTVSPropertyOp32
 70
     1
  0
XRECORD
  5
D2B4
102
{ACAD_REACTORS
330
D2B3
102
}
330
D2B3
100
AcDbXrecord
280
     1
102
RTVSPropertyOp0
 70
     1
102
RTVSPropertyOp1
 70
     1
102
RTVSPropertyOp2
 70
     1
102
RTVSPropertyOp3
 70
     1
102
RTVSPropertyOp4
 70
     1
102
RTVSPropertyOp5
 70
     1
102
RTVSPropertyOp6
 70
     1
102
RTVSPropertyOp7
 70
     1
102
RTVSPropertyOp8
 70
     1
102
RTVSPropertyOp9
 70
     1
102
RTVSPropertyOp10
 70
     1
102
RTVSPropertyOp11
 70
     1
102
RTVSPropertyOp12
 70
     1
102
RTVSPropertyOp13
 70
     1
102
RTVSPropertyOp14
 70
     1
102
RTVSPropertyOp15
 70
     1
102
RTVSPropertyOp16
 70
     1
102
RTVSPropertyOp17
 70
     1
102
RTVSPropertyOp18
 70
     1
102
RTVSPropertyOp19
 70
     1
102
RTVSPropertyOp20
 70
     1
102
RTVSPropertyOp21
 70
     1
102
RTVSPropertyOp22
 70
     1
102
RTVSPropertyOp23
 70
     1
102
RTVSPropertyOp24
 70
     1
102
RTVSPropertyOp25
 70
     1
102
RTVSPropertyOp26
 70
     1
102
RTVSPropertyOp27
 70
     1
102
RTVSPropertyOp28
 70
     1
102
RTVSPropertyOp29
 70
     1
102
RTVSPropertyOp30
 70
     1
102
RTVSPropertyOp31
 70
     1
102
RTVSPropertyOp32
 70
     1
  0
XRECORD
  5
D2C2
102
{ACAD_REACTORS
330
D2C1
102
}
330
D2C1
100
AcDbXrecord
280
     1
102
RTVSPropertyOp0
 70
     1
102
RTVSPropertyOp1
 70
     1
102
RTVSPropertyOp2
 70
     1
102
RTVSPropertyOp3
 70
     1
102
RTVSPropertyOp4
 70
     1
102
RTVSPropertyOp5
 70
     1
102
RTVSPropertyOp6
 70
     1
102
RTVSPropertyOp7
 70
     1
102
RTVSPropertyOp8
 70
     1
102
RTVSPropertyOp9
 70
     1
102
RTVSPropertyOp10
 70
     1
102
RTVSPropertyOp11
 70
     1
102
RTVSPropertyOp12
 70
     1
102
RTVSPropertyOp13
 70
     1
102
RTVSPropertyOp14
 70
     1
102
RTVSPropertyOp15
 70
     1
102
RTVSPropertyOp16
 70
     1
102
RTVSPropertyOp17
 70
     1
102
RTVSPropertyOp18
 70
     1
102
RTVSPropertyOp19
 70
     1
102
RTVSPropertyOp20
 70
     1
102
RTVSPropertyOp21
 70
     1
102
RTVSPropertyOp22
 70
     1
102
RTVSPropertyOp23
 70
     1
102
RTVSPropertyOp24
 70
     1
102
RTVSPropertyOp25
 70
     1
102
RTVSPropertyOp26
 70
     1
102
RTVSPropertyOp27
 70
     1
102
RTVSPropertyOp28
 70
     1
102
RTVSPropertyOp29
 70
     1
102
RTVSPropertyOp30
 70
     1
102
RTVSPropertyOp31
 70
     1
102
RTVSPropertyOp32
 70
     1
  0
XRECORD
  5
D2CA
102
{ACAD_REACTORS
330
D2C9
102
}
330
D2C9
100
AcDbXrecord
280
     1
102
RTVSPropertyOp0
 70
     1
102
RTVSPropertyOp1
 70
     1
102
RTVSPropertyOp2
 70
     1
102
RTVSPropertyOp3
 70
     1
102
RTVSPropertyOp4
 70
     1
102
RTVSPropertyOp5
 70
     1
102
RTVSPropertyOp6
 70
     1
102
RTVSPropertyOp7
 70
     1
102
RTVSPropertyOp8
 70
     1
102
RTVSPropertyOp9
 70
     1
102
RTVSPropertyOp10
 70
     1
102
RTVSPropertyOp11
 70
     1
102
RTVSPropertyOp12
 70
     1
102
RTVSPropertyOp13
 70
     1
102
RTVSPropertyOp14
 70
     1
102
RTVSPropertyOp15
 70
     1
102
RTVSPropertyOp16
 70
     1
102
RTVSPropertyOp17
 70
     1
102
RTVSPropertyOp18
 70
     1
102
RTVSPropertyOp19
 70
     1
102
RTVSPropertyOp20
 70
     1
102
RTVSPropertyOp21
 70
     1
102
RTVSPropertyOp22
 70
     1
102
RTVSPropertyOp23
 70
     1
102
RTVSPropertyOp24
 70
     1
102
RTVSPropertyOp25
 70
     1
102
RTVSPropertyOp26
 70
     1
102
RTVSPropertyOp27
 70
     1
102
RTVSPropertyOp28
 70
     1
102
RTVSPropertyOp29
 70
     1
102
RTVSPropertyOp30
 70
     1
102
RTVSPropertyOp31
 70
     1
102
RTVSPropertyOp32
 70
     1
  0
DICTIONARY
  5
D2CF
330
D281
100
AcDbDictionary
280
     1
281
     1
  3
ACAD_XREC_ROUNDTRIP
360
D2D0
  0
XRECORD
  5
D2D0
102
{ACAD_REACTORS
330
D2CF
102
}
330
D2CF
100
AcDbXrecord
280
     1
102
SHADEPLOT
 70
     0
102
SHADEPLOTRESLEVEL
 70
     2
102
SHADEPLOTCUSTOMDPI
 70
   300
  0
ENDSEC
  0
EOF
