  0
SECTION
  2
HEADER
  9
$ACADVER
  1
AC1015
  9
$ACADMAINTVER
 70
    20
  9
$DWGCODEPAGE
  3
ANSI_1252
  9
$INSBASE
 10
0.0
 20
0.0
 30
0.0
  9
$EXTMIN
 10
148.1847152364576
 20
77.7284479865516
 30
-0.0000000000112498
  9
$EXTMAX
 10
438.5579590831298
 20
487.7696364459602
 30
0.0000000000002956
  9
$LIMMIN
 10
0.0
 20
0.0
  9
$LIMMAX
 10
420.0
 20
297.0
  9
$ORTHOMODE
 70
     0
  9
$REGENMODE
 70
     1
  9
$FILLMODE
 70
     1
  9
$QTEXTMODE
 70
     0
  9
$MIRRTEXT
 70
     1
  9
$LTSCALE
 40
1.0
  9
$ATTMODE
 70
     1
  9
$TEXTSIZE
 40
2.5
  9
$TRACEWID
 40
1.0
  9
$TEXTSTYLE
  7
Standard
  9
$CLAYER
  8
DIMENSION
  9
$CELTYPE
  6
ByLayer
  9
$CECOLOR
 62
     0
  9
$CELTSCALE
 40
1.0
  9
$DISPSILH
 70
     0
  9
$DIMSCALE
 40
1.0
  9
$DIMASZ
 40
3.5
  9
$DIMEXO
 40
0.0
  9
$DIMDLI
 40
6.0
  9
$DIMRND
 40
0.00000001
  9
$DIMDLE
 40
10.0
  9
$DIMEXE
 40
3.174999999999999
  9
$DIMTP
 40
0.0
  9
$DIMTM
 40
0.0
  9
$DIMTXT
 40
3.5
  9
$DIMCEN
 40
0.09
  9
$DIMTSZ
 40
0.0
  9
$DIMTOL
 70
     0
  9
$DIMLIM
 70
     0
  9
$DIMTIH
 70
     0
  9
$DIMTOH
 70
     1
  9
$DIMSE1
 70
     0
  9
$DIMSE2
 70
     0
  9
$DIMTAD
 70
     1
  9
$DIMZIN
 70
     0
  9
$DIMBLK
  1

  9
$DIMASO
 70
     1
  9
$DIMSHO
 70
     1
  9
$DIMPOST
  1

  9
$DIMAPOST
  1

  9
$DIMALT
 70
     0
  9
$DIMALTD
 70
     3
  9
$DIMALTF
 40
0.03937
  9
$DIMLFAC
 40
1.0
  9
$DIMTOFL
 70
     1
  9
$DIMTVP
 40
0.0
  9
$DIMTIX
 70
     0
  9
$DIMSOXD
 70
     0
  9
$DIMSAH
 70
     0
  9
$DIMBLK1
  1

  9
$DIMBLK2
  1

  9
$DIMSTYLE
  2
DEFAULT-ISO
  9
$DIMCLRD
 70
     7
  9
$DIMCLRE
 70
     7
  9
$DIMCLRT
 70
     7
  9
$DIMTFAC
 40
1.0
  9
$DIMGAP
 40
0.762
  9
$DIMJUST
 70
     0
  9
$DIMSD1
 70
     0
  9
$DIMSD2
 70
     0
  9
$DIMTOLJ
 70
     1
  9
$DIMTZIN
 70
     0
  9
$DIMALTZ
 70
     0
  9
$DIMALTTZ
 70
     0
  9
$DIMUPT
 70
     0
  9
$DIMDEC
 70
     0
  9
$DIMTDEC
 70
     0
  9
$DIMALTU
 70
     2
  9
$DIMALTTD
 70
     3
  9
$DIMTXSTY
  7
Current-BSI
  9
$DIMAUNIT
 70
     0
  9
$DIMADEC
 70
     2
  9
$DIMALTRND
 40
0.0
  9
$DIMAZIN
 70
     0
  9
$DIMDSEP
 70
    46
  9
$DIMATFIT
 70
     3
  9
$DIMFRAC
 70
     0
  9
$DIMLDRBLK
  1

  9
$DIMLUNIT
 70
     2
  9
$DIMLWD
 70
    25
  9
$DIMLWE
 70
    25
  9
$DIMTMOVE
 70
     0
  9
$LUNITS
 70
     2
  9
$LUPREC
 70
     4
  9
$SKETCHINC
 40
1.0
  9
$FILLETRAD
 40
0.5
  9
$AUNITS
 70
     0
  9
$AUPREC
 70
     0
  9
$MENU
  1
.
  9
$ELEVATION
 40
0.0
  9
$PELEVATION
 40
0.0
  9
$THICKNESS
 40
0.0
  9
$LIMCHECK
 70
     0
  9
$CHAMFERA
 40
0.0
  9
$CHAMFERB
 40
0.0
  9
$CHAMFERC
 40
20.0
  9
$CHAMFERD
 40
0.0
  9
$SKPOLY
 70
     0
  9
$TDCREATE
 40
2451682.620146146
  9
$TDUCREATE
 40
2451682.578479479
  9
$TDUPDATE
 40
2455943.454846586
  9
$TDUUPDATE
 40
2455943.413179920
  9
$TDINDWG
 40
0.9995355208
  9
$TDUSRTIMER
 40
0.9995313542
  9
$USRTIMER
 70
     1
  9
$ANGBASE
 50
0.0
  9
$ANGDIR
 70
     0
  9
$PDMODE
 70
     0
  9
$PDSIZE
 40
0.0
  9
$PLINEWID
 40
0.0
  9
$SPLFRAME
 70
     0
  9
$SPLINETYPE
 70
     6
  9
$SPLINESEGS
 70
     8
  9
$HANDSEED
  5
CFE6
  9
$SURFTAB1
 70
     6
  9
$SURFTAB2
 70
     6
  9
$SURFTYPE
 70
     6
  9
$SURFU
 70
     6
  9
$SURFV
 70
     6
  9
$UCSBASE
  2

  9
$UCSNAME
  2

  9
$UCSORG
 10
0.0
 20
0.0
 30
0.0
  9
$UCSXDIR
 10
1.0
 20
0.0
 30
0.0
  9
$UCSYDIR
 10
0.0
 20
1.0
 30
0.0
  9
$UCSORTHOREF
  2

  9
$UCSORTHOVIEW
 70
     0
  9
$UCSORGTOP
 10
0.0
 20
0.0
 30
0.0
  9
$UCSORGBOTTOM
 10
0.0
 20
0.0
 30
0.0
  9
$UCSORGLEFT
 10
0.0
 20
0.0
 30
0.0
  9
$UCSORGRIGHT
 10
0.0
 20
0.0
 30
0.0
  9
$UCSORGFRONT
 10
0.0
 20
0.0
 30
0.0
  9
$UCSORGBACK
 10
0.0
 20
0.0
 30
0.0
  9
$PUCSBASE
  2

  9
$PUCSNAME
  2

  9
$PUCSORG
 10
0.0
 20
0.0
 30
0.0
  9
$PUCSXDIR
 10
1.0
 20
0.0
 30
0.0
  9
$PUCSYDIR
 10
0.0
 20
1.0
 30
0.0
  9
$PUCSORTHOREF
  2

  9
$PUCSORTHOVIEW
 70
     0
  9
$PUCSORGTOP
 10
0.0
 20
0.0
 30
0.0
  9
$PUCSORGBOTTOM
 10
0.0
 20
0.0
 30
0.0
  9
$PUCSORGLEFT
 10
0.0
 20
0.0
 30
0.0
  9
$PUCSORGRIGHT
 10
0.0
 20
0.0
 30
0.0
  9
$PUCSORGFRONT
 10
0.0
 20
0.0
 30
0.0
  9
$PUCSORGBACK
 10
0.0
 20
0.0
 30
0.0
  9
$USERI1
 70
     0
  9
$USERI2
 70
     0
  9
$USERI3
 70
     0
  9
$USERI4
 70
     0
  9
$USERI5
 70
     0
  9
$USERR1
 40
0.0
  9
$USERR2
 40
0.0
  9
$USERR3
 40
0.0
  9
$USERR4
 40
0.0
  9
$USERR5
 40
0.0
  9
$WORLDVIEW
 70
     1
  9
$SHADEDGE
 70
     3
  9
$SHADEDIF
 70
    70
  9
$TILEMODE
 70
     1
  9
$MAXACTVP
 70
    64
  9
$PINSBASE
 10
0.0
 20
0.0
 30
0.0
  9
$PLIMCHECK
 70
     0
  9
$PEXTMIN
 10
1.000000000000000E+20
 20
1.000000000000000E+20
 30
1.000000000000000E+20
  9
$PEXTMAX
 10
-1.000000000000000E+20
 20
-1.000000000000000E+20
 30
-1.000000000000000E+20
  9
$PLIMMIN
 10
0.0
 20
0.0
  9
$PLIMMAX
 10
420.0
 20
297.0
  9
$UNITMODE
 70
     0
  9
$VISRETAIN
 70
     1
  9
$PLINEGEN
 70
     0
  9
$PSLTSCALE
 70
     1
  9
$TREEDEPTH
 70
  3020
  9
$CMLSTYLE
  2
Standard
  9
$CMLJUST
 70
     0
  9
$CMLSCALE
 40
20.0
  9
$PROXYGRAPHICS
 70
     1
  9
$MEASUREMENT
 70
     1
  9
$CELWEIGHT
370
    -1
  9
$ENDCAPS
280
     0
  9
$JOINSTYLE
280
     0
  9
$LWDISPLAY
290
     1
  9
$INSUNITS
 70
     4
  9
$HYPERLINKBASE
  1

  9
$STYLESHEET
  1

  9
$XEDIT
290
     1
  9
$CEPSNTYPE
380
     0
  9
$PSTYLEMODE
290
     1
  9
$FINGERPRINTGUID
  2
{42F63A57-2BC6-11D4-B81C-00B0D0305422}
  9
$VERSIONGUID
  2
{14374A3D-3E25-4FAE-9688-19A26D935300}
  9
$EXTNAMES
290
     1
  9
$PSVPSCALE
 40
0.0
  9
$OLESTARTUP
290
     0
  0
ENDSEC
  0
SECTION
  2
CLASSES
  0
CLASS
  1
ACDBDICTIONARYWDFLT
  2
AcDbDictionaryWithDefault
  3
ObjectDBX Classes
 90
        0
280
     0
281
     0
  0
CLASS
  1
ACDBPLACEHOLDER
  2
AcDbPlaceHolder
  3
ObjectDBX Classes
 90
        0
280
     0
281
     0
  0
CLASS
  1
LAYOUT
  2
AcDbLayout
  3
ObjectDBX Classes
 90
        0
280
     0
281
     0
  0
CLASS
  1
DICTIONARYVAR
  2
AcDbDictionaryVar
  3
ObjectDBX Classes
 90
        0
280
     0
281
     0
  0
CLASS
  1
SORTENTSTABLE
  2
AcDbSortentsTable
  3
ObjectDBX Classes
 90
        0
280
     0
281
     0
  0
CLASS
  1
LAYER_INDEX
  2
AcDbLayerIndex
  3
ObjectDBX Classes
 90
        0
280
     0
281
     0
  0
CLASS
  1
SPATIAL_INDEX
  2
AcDbSpatialIndex
  3
ObjectDBX Classes
 90
        0
280
     0
281
     0
  0
CLASS
  1
IDBUFFER
  2
AcDbIdBuffer
  3
ObjectDBX Classes
 90
        0
280
     0
281
     0
  0
CLASS
  1
TABLESTYLE
  2
AcDbTableStyle
  3
ObjectDBX Classes
 90
     4095
280
     0
281
     0
  0
CLASS
  1
EXACXREFPANELOBJECT
  2
ExAcXREFPanelObject
  3
EXAC_ESW
 90
     1025
280
     0
281
     0
  0
CLASS
  1
MATERIAL
  2
AcDbMaterial
  3
ObjectDBX Classes
 90
     1153
280
     0
281
     0
  0
CLASS
  1
VISUALSTYLE
  2
AcDbVisualStyle
  3
ObjectDBX Classes
 90
     4095
280
     0
281
     0
  0
CLASS
  1
SCALE
  2
AcDbScale
  3
ObjectDBX Classes
 90
     1153
280
     0
281
     0
  0
CLASS
  1
MLEADERSTYLE
  2
AcDbMLeaderStyle
  3
ACDB_MLEADERSTYLE_CLASS
 90
     4095
280
     0
281
     0
  0
CLASS
  1
NPOCOLLECTION
  2
AcDbImpNonPersistentObjectsCollection
  3
ObjectDBX Classes
 90
     1153
280
     0
281
     0
  0
CLASS
  1
CELLSTYLEMAP
  2
AcDbCellStyleMap
  3
ObjectDBX Classes
 90
     1152
280
     0
281
     0
  0
CLASS
  1
ACME_DOCUMENT
  2
AcMeDbDoc
  3
AcMeServices
 90
     1024
280
     0
281
     0
  0
CLASS
  1
AMGSETTINGSOBJ
  2
AmgSettingsObj
  3
"AcadM|Product Description: AutoCAD Mechanical|Company: Autodesk, Inc."
 90
     1024
280
     0
281
     0
  0
CLASS
  1
ACMESCOPE
  2
AcMeScope
  3
AcMeServices
 90
     1024
280
     0
281
     0
  0
CLASS
  1
ACMECOMMANDHISTORY
  2
AcMeCommandHistory
  3
AcMeServices
 90
     1024
280
     0
281
     0
  0
CLASS
  1
ACIMSYSVARMAN
  2
AcImSysVarManager
  3
AcMeServices
 90
     1024
280
     0
281
     0
  0
CLASS
  1
ACIMINTSYSVAR
  2
AcImIntSysVar
  3
AcMeServices
 90
     1024
280
     0
281
     0
  0
CLASS
  1
ACMESTATEMGR
  2
AcMeStateMgr
  3
AcMeServices
 90
     1024
280
     0
281
     0
  0
CLASS
  1
ACDBENTITYCACHE
  2
AcMeEntityCache
  3
AcMeServices
 90
     1024
280
     0
281
     0
  0
CLASS
  1
ACGREFMASTER
  2
AcGrefMaster
  3
AcAttribServices
 90
     1024
280
     0
281
     0
  0
CLASS
  1
ACME_DATABASE
  2
AcMeDbDatabase
  3
AcMeServices
 90
     1024
280
     0
281
     0
  0
CLASS
  1
ACRFINSADJUSTERMGR
  2
AcRfInsAdjusterMgr
  3
AcMeServices
 90
     1024
280
     0
281
     0
  0
CLASS
  1
ACGREFACADMASTER
  2
AcGrefacadMaster
  3
AcGrefServices
 90
     1024
280
     0
281
     0
  0
CLASS
  1
AMDTMENUSTATEMGR
  2
AmdtMenuStateMgr
  3
McadcomServices
 90
     1024
280
     0
281
     0
  0
CLASS
  1
AMDTMCOMMENUSTATE
  2
AmdtMcomMenuState
  3
McadcomServices
 90
     1024
280
     0
281
     0
  0
CLASS
  1
AMIMASTER
  2
AmiMaster
  3
AmiServices
 90
     1024
280
     0
281
     0
  0
CLASS
  1
MAPIAMMOUDLE
  2
MApiAmModule
  3
MApiAmServices
 90
     1024
280
     0
281
     0
  0
CLASS
  1
ACIMSTRSYSVAR
  2
AcImStrSysVar
  3
AcMeServices
 90
     1024
280
     0
281
     0
  0
CLASS
  1
AMDTAMMENUSTATE
  2
AmdtAmMenuState
  3
DesignerAssemblies
 90
     1024
280
     0
281
     0
  0
CLASS
  1
ACAMPROJECT
  2
AcAmProject
  3
DesignerAssemblies
 90
     1024
280
     0
281
     0
  0
CLASS
  1
ACAMGRCOMPDEF
  2
AcAmGrCompDef
  3
DesignerAssemblies
 90
     1024
280
     0
281
     0
  0
CLASS
  1
ACAMCOMPDEF
  2
AcAmCompDef
  3
DesignerAssemblies
 90
     1024
280
     0
281
     0
  0
CLASS
  1
ACAMCOMPDEFMGR
  2
AcAmCompDefMgr
  3
DesignerAssemblies
 90
     1024
280
     0
281
     0
  0
CLASS
  1
AMCONTEXTMGR
  2
AcAmContextMgr
  3
DesignerAssemblies
 90
     1024
280
     0
281
     0
  0
CLASS
  1
ACAMCONTEXTMODELER
  2
AcAmContextModeler
  3
DesignerAssemblies
 90
     1024
280
     0
281
     0
  0
CLASS
  1
ACMDATADICTIONARY
  2
AcmDataDictionary
  3
"AcmSymBB|Product Description: AutoCAD Mechanical|Company: Autodesk, Inc."
 90
     1024
280
     0
281
     0
  0
CLASS
  1
ACAMGRCOMPDEFSET
  2
AcAmGrCompDefSet
  3
DesignerAssemblies
 90
     1024
280
     0
281
     0
  0
CLASS
  1
AMDTBROWSERDBTAB
  2
AmdtBrowserDbTab
  3
McadcomServices
 90
     1024
280
     0
281
     0
  0
CLASS
  1
CBROWSERAPPOBJECT
  2
CBrowserAppObject
  3
McadcomServices
 90
     1024
280
     0
281
     0
  0
CLASS
  1
DM_PLACEHOLDER
  2
AcDmSelsetPlaceholder
  3
McadcomServices
 90
     1024
280
     0
281
     0
  0
CLASS
  1
ACMSTANDARDISO
  2
AcmStandardISO
  3
"Amdt_StdImp|Product Description: AutoCAD Mechanical|Company: Autodesk, Inc."
 90
     1024
280
     0
281
     0
  0
CLASS
  1
AMDTEDGESTANDARDISO13715
  2
AmdtEdgeStdISO13715
  3
"Amdt_StdImp|Product Description: AutoCAD Mechanical|Company: Autodesk, Inc."
 90
     1024
280
     0
281
     0
  0
CLASS
  1
ACMSURFSTANDARDISO2002
  2
AcmSurfTextStdISO2002
  3
"Amdt_StdImp|Product Description: AutoCAD Mechanical|Company: Autodesk, Inc."
 90
     1024
280
     0
281
     0
  0
CLASS
  1
ACMFCFSTANDARDISO2004
  2
AcmFCFStdISO2004
  3
"Amdt_StdImp|Product Description: AutoCAD Mechanical|Company: Autodesk, Inc."
 90
     1024
280
     0
281
     0
  0
CLASS
  1
ACMWELDSTANDARDISO
  2
AcmWeldingStdISO
  3
"Amdt_StdImp|Product Description: AutoCAD Mechanical|Company: Autodesk, Inc."
 90
     1024
280
     0
281
     0
  0
CLASS
  1
ACMIDSTANDARDISO2004
  2
AcmIdStdISO2004
  3
"Amdt_StdImp|Product Description: AutoCAD Mechanical|Company: Autodesk, Inc."
 90
     1024
280
     0
281
     0
  0
CLASS
  1
ACMDATUMSTANDARDISO
  2
AcmDatumStdISO
  3
"Amdt_StdImp|Product Description: AutoCAD Mechanical|Company: Autodesk, Inc."
 90
     1024
280
     0
281
     0
  0
CLASS
  1
ACMBOMSTANDARDISO
  2
AcmBOMStdISO
  3
"Amdt_StdImp|Product Description: AutoCAD Mechanical|Company: Autodesk, Inc."
 90
     1024
280
     0
281
     0
  0
CLASS
  1
ACMDETAILSTANDARDISO
  2
AmdtDetailSymStdISO
  3
"Amdt_StdImp|Product Description: AutoCAD Mechanical|Company: Autodesk, Inc."
 90
     1024
280
     0
281
     0
  0
CLASS
  1
ACMSECTIONSTANDARDISO2001
  2
AmdtSectionSymStdISO2001
  3
"Amdt_StdImp|Product Description: AutoCAD Mechanical|Company: Autodesk, Inc."
 90
     1024
280
     0
281
     0
  0
CLASS
  1
ACMCENTERLINESTANDARDISO
  2
AmdtCenterLineStdISO
  3
"Amdt_StdImp|Product Description: AutoCAD Mechanical|Company: Autodesk, Inc."
 90
     1024
280
     0
281
     0
  0
CLASS
  1
ACMTHREADLINESTANDARDISO
  2
AmdtThreadLineStdISO
  3
"Amdt_StdImp|Product Description: AutoCAD Mechanical|Company: Autodesk, Inc."
 90
     1024
280
     0
281
     0
  0
CLASS
  1
ACMNOTESTANDARDISO
  2
AmdtNoteStdISO
  3
"Amdt_StdImp|Product Description: AutoCAD Mechanical|Company: Autodesk, Inc."
 90
     1024
280
     0
281
     0
  0
CLASS
  1
ACMTAPERSTANDARDISO
  2
AcmTaperStdISO
  3
"Amdt_StdImp|Product Description: AutoCAD Mechanical|Company: Autodesk, Inc."
 90
     1024
280
     0
281
     0
  0
CLASS
  1
ACMANOOTATIONVIEWSTANDARDISO
  2
AmdtAnViewStdISO
  3
"Amdt_StdImp|Product Description: AutoCAD Mechanical|Company: Autodesk, Inc."
 90
     1024
280
     0
281
     0
  0
CLASS
  1
ACAMGLAYSTD
  2
AcAmgLayStd
  3
"AmgLay|Product Description: AutoCAD Mechanical|Company: Autodesk, Inc."
 90
     1024
280
     0
281
     0
  0
CLASS
  1
ACAMGDIMSTD
  2
AcAmgDimStd
  3
"AmgDim|Product Description: AutoCAD Mechanical|Company: Autodesk, Inc."
 90
     1024
280
     0
281
     0
  0
CLASS
  1
AMGOBJPROPCFG
  2
AmgObjPropCfg
  3
"AmgLay|Product Description: AutoCAD Mechanical|Company: Autodesk, Inc."
 90
     1025
280
     0
281
     0
  0
CLASS
  1
ACAMGHOLECHARTSTDISO
  2
AcAmgHoleChartStdISO
  3
AmgDim|Product Description: AutoCAD Mechanical|Company: Autodesk, Inc.
 90
     1024
280
     0
281
     0
  0
CLASS
  1
ACAMGTITLESTD
  2
AcAmgTitleStd
  3
"AmgTitle|Product Description: AutoCAD Mechanical|Company: Autodesk, Inc."
 90
     4095
280
     0
281
     0
  0
CLASS
  1
AMDTNOTETEMPLATEDB
  2
AmdtNoteTemplateDB
  3
AcmSymBB|Product Description: AutoCAD Mechanical|Company: Autodesk, Inc.
 90
     1024
280
     0
281
     0
  0
CLASS
  1
ACAMGFILTERDAT
  2
AcAmgFilterDat
  3
"AcadM|Product Description: AutoCAD Mechanical|Company: Autodesk, Inc."
 90
    33792
280
     0
281
     0
  0
CLASS
  1
PLOTSETTINGS
  2
AcDbPlotSettings
  3
ObjectDBX Classes
 90
        0
280
     0
281
     0
  0
ENDSEC
  0
SECTION
  2
TABLES
  0
TABLE
  2
VPORT
  5
8
102
{ACAD_XDICTIONARY
360
CD29
102
}
330
0
100
AcDbSymbolTable
 70
     1
  0
VPORT
  5
CCC0
330
8
100
AcDbSymbolTableRecord
100
AcDbViewportTableRecord
  2
*Active
 70
     0
 10
0.0
 20
0.0
 11
1.0
 21
1.0
 12
293.3713371597937
 22
282.7490422162559
 13
0.0
 23
0.0
 14
10.0
 24
10.0
 15
10.0
 25
10.0
 16
0.0
 26
0.0
 36
1.0
 17
0.0
 27
0.0
 37
0.0
 40
413.1050080493918
 41
2.367830423940149
 42
50.0
 43
0.0
 44
0.0
 50
0.0
 51
0.0
 71
     0
 72
   100
 73
     1
 74
     2
 75
     0
 76
     0
 77
     0
 78
     0
281
     0
 65
     1
110
0.0
120
0.0
130
0.0
111
1.0
121
0.0
131
0.0
112
0.0
122
1.0
132
0.0
 79
     0
146
0.0
1001
ACAD_NAV_VCDISPLAY
1070
     3
  0
ENDTAB
  0
TABLE
  2
LTYPE
  5
5
330
0
100
AcDbSymbolTable
 70
    17
  0
LTYPE
  5
14
330
5
100
AcDbSymbolTableRecord
100
AcDbLinetypeTableRecord
  2
ByBlock
 70
     0
  3

 72
    65
 73
     0
 40
0.0
  0
LTYPE
  5
15
330
5
100
AcDbSymbolTableRecord
100
AcDbLinetypeTableRecord
  2
ByLayer
 70
     0
  3

 72
    65
 73
     0
 40
0.0
  0
LTYPE
  5
16
330
5
100
AcDbSymbolTableRecord
100
AcDbLinetypeTableRecord
  2
Continuous
 70
     0
  3
Solid line
 72
    65
 73
     0
 40
0.0
  0
LTYPE
  5
32
330
5
100
AcDbSymbolTableRecord
100
AcDbLinetypeTableRecord
  2
CENTER
 70
     0
  3
Center ____ _ ____ _ ____ _ ____ _ ____ _ ____
 72
    65
 73
     4
 40
50.8
 49
31.75
 74
     0
 49
-6.349999999999999
 74
     0
 49
6.349999999999999
 74
     0
 49
-6.349999999999999
 74
     0
  0
LTYPE
  5
E80
330
5
100
AcDbSymbolTableRecord
100
AcDbLinetypeTableRecord
  2
HIDDEN2
 70
     0
  3
Hidden (.5x) _ _ _ _ _ _ _ _ _ _ _ _ _ _ _ _ _
 72
    65
 73
     2
 40
4.762499999999999
 49
3.174999999999999
 74
     0
 49
-1.587499999999999
 74
     0
  0
LTYPE
  5
CD7B
330
5
100
AcDbSymbolTableRecord
100
AcDbLinetypeTableRecord
  2
HIDDEN
 70
     0
  3
Hidden __ __ __ __ __ __ __ __ __ __ __ __ __ _
 72
    65
 73
     2
 40
9.524999999999998
 49
6.349999999999999
 74
     0
 49
-3.174999999999999
 74
     0
  0
LTYPE
  5
CD7C
330
5
100
AcDbSymbolTableRecord
100
AcDbLinetypeTableRecord
  2
PHANTOM2
 70
     0
  3
Phantom (.5x) ___ _ _ ___ _ _ ___ _ _ ___ _ _
 72
    65
 73
     6
 40
31.75
 49
15.875
 74
     0
 49
-3.174999999999999
 74
     0
 49
3.174999999999999
 74
     0
 49
-3.174999999999999
 74
     0
 49
3.174999999999999
 74
     0
 49
-3.174999999999999
 74
     0
  0
LTYPE
  5
CDA3
330
5
100
AcDbSymbolTableRecord
100
AcDbLinetypeTableRecord
  2
DASHED
 70
     0
  3
Dashed __ __ __ __ __ __ __ __ __ __ __ __ __ _
 72
    65
 73
     2
 40
0.75
 49
0.5
 74
     0
 49
-0.25
 74
     0
  0
LTYPE
  5
CDA4
330
5
100
AcDbSymbolTableRecord
100
AcDbLinetypeTableRecord
  2
DOT
 70
     0
  3
Dot . . . . . . . . . . . . . . . . . . . . . .
 72
    65
 73
     2
 40
0.25
 49
0.0
 74
     0
 49
-0.25
 74
     0
  0
LTYPE
  5
CDBB
330
5
100
AcDbSymbolTableRecord
100
AcDbLinetypeTableRecord
  2
AM_ISO02W050
 70
     0
  3
__ __ __ __ __ __ __ __ __ __ __ __ __ __ __
 72
    65
 73
     2
 40
7.5
 49
6.0
 74
     0
 49
-1.5
 74
     0
  0
LTYPE
  5
CDBC
330
5
100
AcDbSymbolTableRecord
100
AcDbLinetypeTableRecord
  2
AM_ISO08W050
 70
     0
  3
____ . ____ . ____ . ____ . ____ . ____ . ____
 72
    65
 73
     4
 40
18.0
 49
12.0
 74
     0
 49
-1.5
 74
     0
 49
3.0
 74
     0
 49
-1.5
 74
     0
  0
LTYPE
  5
CDBD
330
5
100
AcDbSymbolTableRecord
100
AcDbLinetypeTableRecord
  2
AM_ISO09W050
 70
     0
  3
_____ . . _____ . . _____ . . ____ .. ____
 72
    65
 73
     6
 40
22.5
 49
12.0
 74
     0
 49
-1.5
 74
     0
 49
3.0
 74
     0
 49
-1.5
 74
     0
 49
3.0
 74
     0
 49
-1.5
 74
     0
  0
LTYPE
  5
CDBE
330
5
100
AcDbSymbolTableRecord
100
AcDbLinetypeTableRecord
  2
Amconstr
 70
     0
  3
_______________________
 72
    65
 73
     2
 40
9999.0
 49
9999.0
 74
     0
 49
0.0
 74
     0
  0
LTYPE
  5
CDBF
330
5
100
AcDbSymbolTableRecord
100
AcDbLinetypeTableRecord
  2
AM_ISO08W050x2
 70
     0
  3
__ . __ . __ . __ . __ . __
 72
    65
 73
     4
 40
9.0
 49
6.0
 74
     0
 49
-0.75
 74
     0
 49
1.5
 74
     0
 49
-0.75
 74
     0
  0
LTYPE
  5
CDC0
330
5
100
AcDbSymbolTableRecord
100
AcDbLinetypeTableRecord
  2
AM_ISO02W050x2
 70
     0
  3
 _ _ _ _ _ _ _ _ _ _ _ _
 72
    65
 73
     2
 40
3.75
 49
3.0
 74
     0
 49
-0.75
 74
     0
  0
LTYPE
  5
CDC3
330
5
100
AcDbSymbolTableRecord
100
AcDbLinetypeTableRecord
  2
Amzigzag
 70
     0
  3
/\/-/\/-/\/-/\/-/\/-/\/
 72
    65
 73
     2
 40
11.0001
 49
0.0001
 74
     4
 75
   136
340
CDC2
 46
0.04
 50
0.0
 44
0.0
 45
0.0
 49
-11.0
 74
     0
  0
LTYPE
  5
CDD2
330
5
100
AcDbSymbolTableRecord
100
AcDbLinetypeTableRecord
  2
ACISOWELD
 70
     0
  3
_ _ _ _ _
 72
    65
 73
     2
 40
2.0
 49
2.0
 74
     0
 49
-1.0
 74
     0
  0
LTYPE
  5
CDD3
330
5
100
AcDbSymbolTableRecord
100
AcDbLinetypeTableRecord
  2
ACISOTGL
 70
     0
  3
_ _ _ _ _
 72
    65
 73
     2
 40
3.0
 49
2.0
 74
     0
 49
-1.0
 74
     0
  0
LTYPE
  5
CDD4
330
5
100
AcDbSymbolTableRecord
100
AcDbLinetypeTableRecord
  2
ACISOTGB
 70
     0
  3
__ . . __ . .
 72
    65
 73
     6
 40
9.0
 49
4.0
 74
     0
 49
-1.0
 74
     0
 49
1.0
 74
     0
 49
-1.0
 74
     0
 49
1.0
 74
     0
 49
-1.0
 74
     0
  0
ENDTAB
  0
TABLE
  2
LAYER
  5
2
102
{ACAD_XDICTIONARY
360
A769
102
}
330
0
100
AcDbSymbolTable
 70
    12
  0
LAYER
  5
10
102
{ACAD_XDICTIONARY
360
CD0F
102
}
330
2
100
AcDbSymbolTableRecord
100
AcDbLayerTableRecord
  2
0
 70
     0
 62
     7
  6
Continuous
370
     0
390
F
  0
LAYER
  5
33
102
{ACAD_XDICTIONARY
360
CD11
102
}
330
2
100
AcDbSymbolTableRecord
100
AcDbLayerTableRecord
  2
Centre
 70
     0
 62
     1
  6
CENTER
370
     0
390
F
  0
LAYER
  5
A1
330
2
100
AcDbSymbolTableRecord
100
AcDbLayerTableRecord
  2
Defpoints
 70
     0
 62
     7
  6
Continuous
290
     0
370
     0
390
F
  0
LAYER
  5
E85
102
{ACAD_XDICTIONARY
360
CD13
102
}
330
2
100
AcDbSymbolTableRecord
100
AcDbLayerTableRecord
  2
Hidden
 70
     0
 62
     3
  6
HIDDEN2
370
     0
390
F
  0
LAYER
  5
E95
102
{ACAD_XDICTIONARY
360
CD15
102
}
330
2
100
AcDbSymbolTableRecord
100
AcDbLayerTableRecord
  2
DIMENSION
 70
     0
 62
     1
  6
Continuous
370
     0
390
F
  0
LAYER
  5
8B01
102
{ACAD_XDICTIONARY
360
CD17
102
}
330
2
100
AcDbSymbolTableRecord
100
AcDbLayerTableRecord
  2
TITLE
 70
     0
 62
     5
  6
Continuous
370
     0
390
F
  0
LAYER
  5
8B03
102
{ACAD_XDICTIONARY
360
CD19
102
}
330
2
100
AcDbSymbolTableRecord
100
AcDbLayerTableRecord
  2
TEXT
 70
     0
 62
     6
  6
Continuous
370
     0
390
F
  0
LAYER
  5
8B04
102
{ACAD_XDICTIONARY
360
CD1B
102
}
330
2
100
AcDbSymbolTableRecord
100
AcDbLayerTableRecord
  2
CENTER
 70
     0
 62
     1
  6
CENTER
370
     0
390
F
  0
LAYER
  5
A761
102
{ACAD_XDICTIONARY
360
CD1D
102
}
330
2
100
AcDbSymbolTableRecord
100
AcDbLayerTableRecord
  2
COMPONENT
 70
     0
 62
     7
  6
Continuous
370
     0
390
F
  0
LAYER
  5
BE7C
102
{ACAD_XDICTIONARY
360
CD1F
102
}
330
2
100
AcDbSymbolTableRecord
100
AcDbLayerTableRecord
  2
Visible Edges(ISO)
 70
     0
 62
     7
  6
Continuous
370
     0
390
F
  0
LAYER
  5
C958
102
{ACAD_XDICTIONARY
360
CD21
102
}
330
2
100
AcDbSymbolTableRecord
100
AcDbLayerTableRecord
  2
Hidden Edges(ISO)
 70
     0
 62
     7
  6
Continuous
370
     0
390
F
  0
ENDTAB
  0
TABLE
  2
STYLE
  5
3
330
0
100
AcDbSymbolTable
 70
     8
  0
STYLE
  5
11
330
3
100
AcDbSymbolTableRecord
100
AcDbTextStyleTableRecord
  2
Standard
 70
     0
 40
0.0
 41
1.0
 50
0.0
 71
     0
 42
2.5
  3
txt
  4

  0
STYLE
  5
E9C
330
3
100
AcDbSymbolTableRecord
100
AcDbTextStyleTableRecord
  2
ROMANS
 70
     0
 40
5.0
 41
1.0
 50
0.0
 71
     0
 42
5.0
  3
romans
  4

  0
STYLE
  5
1135
330
3
100
AcDbSymbolTableRecord
100
AcDbTextStyleTableRecord
  2
TEXTSTYLE_1
 70
     0
 40
0.0
 41
0.9
 50
0.0
 71
     0
 42
0.2
  3
txt
  4

  0
STYLE
  5
8B05
330
3
100
AcDbSymbolTableRecord
100
AcDbTextStyleTableRecord
  2
PANROMAN
 70
     0
 40
6.0
 41
1.0
 50
0.0
 71
     0
 42
6.0
  3
PAR_____.pfb
  4

  0
STYLE
  5
A762
330
3
100
AcDbSymbolTableRecord
100
AcDbTextStyleTableRecord
  2
Current-BSI
 70
     0
 40
0.0
 41
1.0
 50
0.0
 71
     0
 42
0.2
  3
ARIAL.TTF
  4

1001
ACAD
1000
Arial
1071
      256
  0
STYLE
  5
CDC2
330
3
100
AcDbSymbolTableRecord
100
AcDbTextStyleTableRecord
  2

 70
     1
 40
0.0
 41
1.0
 50
0.0
 71
     0
 42
2.5
  3
genltshp.shx
  4

  0
STYLE
  5
CDD0
330
3
100
AcDbSymbolTableRecord
100
AcDbTextStyleTableRecord
  2
ACISOTS
 70
     0
 40
1.0
 41
1.0
 50
0.0
 71
     0
 42
2.5
  3
isocp.shx
  4

  0
STYLE
  5
CDD1
330
3
100
AcDbSymbolTableRecord
100
AcDbTextStyleTableRecord
  2
ACISOGDT
 70
     0
 40
0.0
 41
1.0
 50
0.0
 71
     0
 42
2.5
  3
amgdt.shx
  4

  0
ENDTAB
  0
TABLE
  2
VIEW
  5
6
330
0
100
AcDbSymbolTable
 70
     0
  0
ENDTAB
  0
TABLE
  2
UCS
  5
7
330
0
100
AcDbSymbolTable
 70
     0
  0
ENDTAB
  0
TABLE
  2
APPID
  5
9
330
0
100
AcDbSymbolTable
 70
    22
  0
APPID
  5
12
330
9
100
AcDbSymbolTableRecord
100
AcDbRegAppTableRecord
  2
ACAD
 70
     0
  0
APPID
  5
8B0A
330
9
100
AcDbSymbolTableRecord
100
AcDbRegAppTableRecord
  2
CONTENTTABDATA
 70
     0
  0
APPID
  5
8B0B
330
9
100
AcDbSymbolTableRecord
100
AcDbRegAppTableRecord
  2
CONTENTCURRENTTAB
 70
     0
  0
APPID
  5
8B0C
330
9
100
AcDbSymbolTableRecord
100
AcDbRegAppTableRecord
  2
CONTENTBLOCKDESCRIPTION
 70
     0
  0
APPID
  5
90C8
330
9
100
AcDbSymbolTableRecord
100
AcDbRegAppTableRecord
  2
ACAD_EXEMPT_FROM_CAD_STANDARDS
 70
     0
  0
APPID
  5
A764
330
9
100
AcDbSymbolTableRecord
100
AcDbRegAppTableRecord
  2
ACAD_PSEXT
 70
     0
  0
APPID
  5
A765
330
9
100
AcDbSymbolTableRecord
100
AcDbRegAppTableRecord
  2
ACAD_DSTYLE_DIMEXT_LENGTH
 70
     0
  0
APPID
  5
A766
330
9
100
AcDbSymbolTableRecord
100
AcDbRegAppTableRecord
  2
ACAD_DSTYLE_DIMEXT_ENABLED
 70
     0
  0
APPID
  5
A767
330
9
100
AcDbSymbolTableRecord
100
AcDbRegAppTableRecord
  2
ACAD_DSTYLE_DIMJOGGED_JOGANGLE_SYMBOL
 70
     0
  0
APPID
  5
A768
330
9
100
AcDbSymbolTableRecord
100
AcDbRegAppTableRecord
  2
ACAD_DSTYLE_DIMARC_LENGTH_SYMBOL
 70
     0
  0
APPID
  5
CAC6
330
9
100
AcDbSymbolTableRecord
100
AcDbRegAppTableRecord
  2
ACAD_DSTYLE_DIMTEXT_FILL
 70
     0
  0
APPID
  5
CAC9
330
9
100
AcDbSymbolTableRecord
100
AcDbRegAppTableRecord
  2
ACAD_DSTYLE_DIM_LINETYPE
 70
     0
  0
APPID
  5
CACA
330
9
100
AcDbSymbolTableRecord
100
AcDbRegAppTableRecord
  2
ACAD_DSTYLE_DIM_EXT1_LINETYPE
 70
     0
  0
APPID
  5
CACB
330
9
100
AcDbSymbolTableRecord
100
AcDbRegAppTableRecord
  2
ACAD_DSTYLE_DIM_EXT2_LINETYPE
 70
     0
  0
APPID
  5
CD5B
330
9
100
AcDbSymbolTableRecord
100
AcDbRegAppTableRecord
  2
ACAD_MLEADERVER
 70
     0
  0
APPID
  5
CD74
330
9
100
AcDbSymbolTableRecord
100
AcDbRegAppTableRecord
  2
MCAD_NO_VIS
 70
     0
  0
APPID
  5
CD75
330
9
100
AcDbSymbolTableRecord
100
AcDbRegAppTableRecord
  2
ACAD_TEMP_GRAPHIC
 70
     0
  0
APPID
  5
CD81
330
9
100
AcDbSymbolTableRecord
100
AcDbRegAppTableRecord
  2
ACATTRIBSERVICES
 70
     0
  0
APPID
  5
CD99
330
9
100
AcDbSymbolTableRecord
100
AcDbRegAppTableRecord
  2
DESIGNERASSEMBLIES
 70
     0
  0
APPID
  5
CDB8
330
9
100
AcDbSymbolTableRecord
100
AcDbRegAppTableRecord
  2
ACAD_DSTYLE_DIMJAG
 70
     0
  0
APPID
  5
CDB9
330
9
100
AcDbSymbolTableRecord
100
AcDbRegAppTableRecord
  2
ACAD_DSTYLE_DIMBREAK
 70
     0
  0
APPID
  5
CDDB
330
9
100
AcDbSymbolTableRecord
100
AcDbRegAppTableRecord
  2
ACAD_NAV_VCDISPLAY
 70
     0
  0
ENDTAB
  0
TABLE
  2
DIMSTYLE
  5
A
330
0
100
AcDbSymbolTable
 70
     9
100
AcDbDimStyleTable
 71
     1
340
A763
  0
DIMSTYLE
105
E9E
330
A
100
AcDbSymbolTableRecord
100
AcDbDimStyleTableRecord
  2
STANDARD
 70
     0
 40
0.0
 41
3.0
 42
0.0
 43
0.0
 44
1.0
 45
1.0
 46
1.25
 73
     0
 74
     0
 77
     1
140
60.0
141
-3.0
143
0.039
146
0.0166666666666667
147
0.0
172
     1
174
     1
279
     2
284
     8
285
     8
286
     8
340
11
  0
DIMSTYLE
105
A763
102
{ACAD_REACTORS
330
C8ED
330
C8F0
330
C8F1
330
C8F2
330
CA8F
330
CAA5
330
C8F3
102
}
330
A
100
AcDbSymbolTableRecord
100
AcDbDimStyleTableRecord
  2
DEFAULT-ISO
 70
     0
 41
3.5
 42
0.0
 43
6.0
 44
3.174999999999999
 45
0.00000001
 46
10.0
 73
     0
 77
     1
140
3.5
143
0.03937
147
0.762
171
     3
172
     1
176
     7
177
     7
178
     7
179
     2
271
     0
272
     0
274
     3
340
A762
371
    25
372
    25
1001
ACAD_DSTYLE_DIMJOGGED_JOGANGLE_SYMBOL
1070
   384
1040
0.7853981633974483
1001
ACAD_DSTYLE_DIMEXT_LENGTH
1070
   378
1040
3.174999999999999
  0
DIMSTYLE
105
CDB7
102
{ACAD_REACTORS
330
CE62
102
}
330
A
100
AcDbSymbolTableRecord
100
AcDbDimStyleTableRecord
  2
AM_ISO
 70
     0
  4
"
 41
3.5
 42
1.0
 43
10.0
 44
1.0
 47
0.1
 48
0.1
 73
     0
 74
     0
 77
     1
 78
     8
 79
     2
140
3.5
141
0.0
143
0.0393701
146
0.71
147
1.5
172
     1
176
   256
177
   256
178
     2
271
     2
272
     3
274
     4
283
     0
284
     8
340
11
371
    -1
372
    -1
1001
ACAD_DSTYLE_DIMJAG
1070
   388
1040
1.5
1001
ACAD_DSTYLE_DIMBREAK
1070
   391
1040
3.75
1001
ACAD_DSTYLE_DIMARC_LENGTH_SYMBOL
1070
   379
1070
     1
1001
ACAD_DSTYLE_DIM_LINETYPE
1070
   380
1005
14
1001
ACAD_DSTYLE_DIM_EXT1_LINETYPE
1070
   381
1005
14
1001
ACAD_DSTYLE_DIM_EXT2_LINETYPE
1070
   382
1005
14
  0
DIMSTYLE
105
CDC4
330
A
100
AcDbSymbolTableRecord
100
AcDbDimStyleTableRecord
  2
AM_ISO$3
 70
     0
  4
"
 41
3.5
 42
1.0
 43
10.0
 44
1.0
 47
0.1
 48
0.1
 73
     0
 77
     1
 78
     8
 79
     2
140
3.5
141
0.0
143
0.0393701
146
0.71
147
1.5
176
   256
177
   256
178
     2
271
     2
272
     3
274
     4
283
     0
284
     8
288
     1
289
     0
340
11
371
    -1
372
    -1
1001
ACAD_DSTYLE_DIMBREAK
1070
   391
1040
3.75
1001
ACAD_DSTYLE_DIMJAG
1070
   388
1040
1.5
1001
ACAD_DSTYLE_DIMARC_LENGTH_SYMBOL
1070
   379
1070
     1
1001
ACAD_DSTYLE_DIM_LINETYPE
1070
   380
1005
14
1001
ACAD_DSTYLE_DIM_EXT1_LINETYPE
1070
   381
1005
14
1001
ACAD_DSTYLE_DIM_EXT2_LINETYPE
1070
   382
1005
14
  0
DIMSTYLE
105
CDC5
330
A
100
AcDbSymbolTableRecord
100
AcDbDimStyleTableRecord
  2
AM_ISO$4
 70
     0
  4
"
 41
3.5
 42
1.0
 43
10.0
 44
1.0
 47
0.1
 48
0.1
 73
     0
 77
     1
 78
     8
 79
     2
140
3.5
141
0.0
143
0.0393701
146
0.71
147
1.5
176
   256
177
   256
178
     2
271
     2
272
     3
274
     4
283
     0
284
     8
288
     1
289
     0
340
11
371
    -1
372
    -1
1001
ACAD_DSTYLE_DIMBREAK
1070
   391
1040
3.75
1001
ACAD_DSTYLE_DIMJAG
1070
   388
1040
1.5
1001
ACAD_DSTYLE_DIMARC_LENGTH_SYMBOL
1070
   379
1070
     1
1001
ACAD_DSTYLE_DIM_LINETYPE
1070
   380
1005
14
1001
ACAD_DSTYLE_DIM_EXT1_LINETYPE
1070
   381
1005
14
1001
ACAD_DSTYLE_DIM_EXT2_LINETYPE
1070
   382
1005
14
  0
DIMSTYLE
105
CDC6
330
A
100
AcDbSymbolTableRecord
100
AcDbDimStyleTableRecord
  2
AM_ISO$6
 70
     0
  4
"
 41
3.5
 42
1.0
 43
10.0
 44
1.0
 47
0.1
 48
0.1
 73
     0
 74
     0
 78
     8
 79
     2
140
3.5
141
0.0
143
0.0393701
146
0.71
147
1.5
172
     1
176
   256
177
   256
178
     2
271
     2
272
     3
274
     4
283
     0
284
     8
340
11
371
    -1
372
    -1
1001
ACAD_DSTYLE_DIMBREAK
1070
   391
1040
3.75
1001
ACAD_DSTYLE_DIMJAG
1070
   388
1040
1.5
1001
ACAD_DSTYLE_DIMARC_LENGTH_SYMBOL
1070
   379
1070
     1
1001
ACAD_DSTYLE_DIM_LINETYPE
1070
   380
1005
14
1001
ACAD_DSTYLE_DIM_EXT1_LINETYPE
1070
   381
1005
14
1001
ACAD_DSTYLE_DIM_EXT2_LINETYPE
1070
   382
1005
14
  0
DIMSTYLE
105
CDC7
330
A
100
AcDbSymbolTableRecord
100
AcDbDimStyleTableRecord
  2
AM_ISO$7
 70
     0
  4
"
 41
3.5
 42
1.0
 43
10.0
 44
1.0
 47
0.1
 48
0.1
 73
     0
 74
     0
 77
     1
 78
     8
 79
     2
140
3.5
141
0.0
143
0.0393701
146
0.71
147
1.5
172
     1
176
   256
177
   256
178
     2
271
     2
272
     3
274
     4
283
     0
284
     8
340
11
371
    -1
372
    -1
1001
ACAD_DSTYLE_DIMBREAK
1070
   391
1040
3.75
1001
ACAD_DSTYLE_DIMJAG
1070
   388
1040
1.5
1001
ACAD_DSTYLE_DIMARC_LENGTH_SYMBOL
1070
   379
1070
     1
1001
ACAD_DSTYLE_DIM_LINETYPE
1070
   380
1005
14
1001
ACAD_DSTYLE_DIM_EXT1_LINETYPE
1070
   381
1005
14
1001
ACAD_DSTYLE_DIM_EXT2_LINETYPE
1070
   382
1005
14
  0
DIMSTYLE
105
CDC8
330
A
100
AcDbSymbolTableRecord
100
AcDbDimStyleTableRecord
  2
AM_ISO$SF
 70
     0
  4
"
 41
3.5
 42
1.0
 43
10.0
 44
1.0
 47
0.1
 48
0.1
 73
     0
 74
     0
 75
     1
 76
     1
 77
     1
 78
     8
 79
     2
140
3.5
141
0.0
143
0.0393701
146
0.71
147
1.5
172
     1
176
   256
177
   256
178
     2
271
     2
272
     3
274
     4
283
     0
284
     8
340
11
371
    -1
372
    -1
1001
ACAD_DSTYLE_DIMBREAK
1070
   391
1040
3.75
1001
ACAD_DSTYLE_DIMJAG
1070
   388
1040
1.5
1001
ACAD_DSTYLE_DIMARC_LENGTH_SYMBOL
1070
   379
1070
     1
1001
ACAD_DSTYLE_DIM_LINETYPE
1070
   380
1005
14
1001
ACAD_DSTYLE_DIM_EXT1_LINETYPE
1070
   381
1005
14
1001
ACAD_DSTYLE_DIM_EXT2_LINETYPE
1070
   382
1005
14
  0
DIMSTYLE
105
CDCD
330
A
100
AcDbSymbolTableRecord
100
AcDbDimStyleTableRecord
  2
AM_ISO$SH
 70
     0
  4
"
 41
3.5
 42
1.0
 43
10.0
 44
1.0
 47
0.1
 48
0.1
 73
     0
 74
     0
 75
     1
 76
     1
 77
     1
 78
     8
 79
     2
140
3.5
141
0.0
143
0.0393701
144
2.0
146
0.71
147
1.5
172
     1
173
     1
176
   256
177
   256
178
     2
271
     2
272
     3
274
     4
283
     0
284
     8
340
11
343
CDC9
371
    -1
372
    -1
1001
ACAD_DSTYLE_DIMBREAK
1070
   391
1040
3.75
1001
ACAD_DSTYLE_DIMJAG
1070
   388
1040
1.5
1001
ACAD_DSTYLE_DIMARC_LENGTH_SYMBOL
1070
   379
1070
     1
1001
ACAD_DSTYLE_DIM_LINETYPE
1070
   380
1005
14
1001
ACAD_DSTYLE_DIM_EXT1_LINETYPE
1070
   381
1005
14
1001
ACAD_DSTYLE_DIM_EXT2_LINETYPE
1070
   382
1005
14
  0
ENDTAB
  0
TABLE
  2
BLOCK_RECORD
  5
1
330
0
100
AcDbSymbolTable
 70
    10
  0
BLOCK_RECORD
  5
1F
102
{ACAD_XDICTIONARY
360
BE
102
}
330
1
100
AcDbSymbolTableRecord
100
AcDbBlockTableRecord
  2
*Model_Space
340
22
  0
BLOCK_RECORD
  5
1B
330
1
100
AcDbSymbolTableRecord
100
AcDbBlockTableRecord
  2
*Paper_Space
340
1E
  0
BLOCK_RECORD
  5
23
330
1
100
AcDbSymbolTableRecord
100
AcDbBlockTableRecord
  2
*Paper_Space0
340
26
  0
BLOCK_RECORD
  5
A6C6
102
{ACAD_XDICTIONARY
360
CEF2
102
}
330
1
100
AcDbSymbolTableRecord
100
AcDbBlockTableRecord
  2
Header box
340
0
310
2800000020000000200000000100080000000000000400000000000000000000000000000000000000000000000080000080000000808000800000008000800080800000C0C0C000C0DCC000F0CAA6000020400000206000002080000020A0000020C0000020E00000400000004020000040400000406000004080000040A0
310
000040C0000040E00000600000006020000060400000606000006080000060A0000060C0000060E00000800000008020000080400000806000008080000080A0000080C0000080E00000A0000000A0200000A0400000A0600000A0800000A0A00000A0C00000A0E00000C0000000C0200000C0400000C0600000C0800000C0
310
A00000C0C00000C0E00000E0000000E0200000E0400000E0600000E0800000E0A00000E0C00000E0E00040000000400020004000400040006000400080004000A0004000C0004000E00040200000402020004020400040206000402080004020A0004020C0004020E000404000004040200040404000404060004040800040
310
40A0004040C0004040E00040600000406020004060400040606000406080004060A0004060C0004060E00040800000408020004080400040806000408080004080A0004080C0004080E00040A0000040A0200040A0400040A0600040A0800040A0A00040A0C00040A0E00040C0000040C0200040C0400040C0600040C08000
310
40C0A00040C0C00040C0E00040E0000040E0200040E0400040E0600040E0800040E0A00040E0C00040E0E00080000000800020008000400080006000800080008000A0008000C0008000E00080200000802020008020400080206000802080008020A0008020C0008020E00080400000804020008040400080406000804080
310
008040A0008040C0008040E00080600000806020008060400080606000806080008060A0008060C0008060E00080800000808020008080400080806000808080008080A0008080C0008080E00080A0000080A0200080A0400080A0600080A0800080A0A00080A0C00080A0E00080C0000080C0200080C0400080C0600080C0
310
800080C0A00080C0C00080C0E00080E0000080E0200080E0400080E0600080E0800080E0A00080E0C00080E0E000C0000000C0002000C0004000C0006000C0008000C000A000C000C000C000E000C0200000C0202000C0204000C0206000C0208000C020A000C020C000C020E000C0400000C0402000C0404000C0406000C0
310
408000C040A000C040C000C040E000C0600000C0602000C0604000C0606000C0608000C060A000C060C000C060E000C0800000C0802000C0804000C0806000C0808000C080A000C080C000C080E000C0A00000C0A02000C0A04000C0A06000C0A08000C0A0A000C0A0C000C0A0E000C0C00000C0C02000C0C04000C0C06000
310
C0C08000C0C0A000F0FBFF00A4A0A000808080000000FF0000FF000000FFFF00FF000000FF00FF00FFFF0000FFFFFF00FFFFFFFFFFFFFFFFFFFFFFFFFFFFFFFFFFFFFFFFFFFFFFFFFFFFFFFFFFFFFFFFFFFFFFFFFFFFFFFFFFFFFFFFFFFFFFFFFFFFFFFFFFFFFFFFFFFFFFFFFFFFFFFFFFFFFFFFFFFFFFFFFFFFFFFFFFFFFF
310
FFFFFFFFFFFFFFFFFFFFFFFFFFFFFFFFFFFFFFFFFFFFFFFFFFFFFFFFFFFFFFFFFFFFFFFFFFFFFFFFFFFFFFFFFFFFFFFFFFFFFFFFFFFFFFFFFFFFFFFFFFFFFFFFFFFFFFFFFFFFFFFFFFFFFFFFFFFFFFFFFFFFFFFFFFFFFFFFFFFFFFFFFFFFFFFFFFFFFFFFFFFFFFFFFFFFFFFFFFFFFFFFFFFFFFFFFFFFFFFFFFFFFFFFFFFFFF
310
FFFFFFFFFFFFFFFFFFFFFFFFFFFFFFFFFFFFFFFFFFFFFFFFFFFFFFFFFFFFFFFFFFFFFFFFFFFFFFFFFFFFFFFFFFFFFFFFFFFFFFFFFFFFFFFFFFFFFFFFFFFFFFFFFFFFFFFFFFFFFFFFFFFFFFFFFFFFFFFFFFFFFFFFFFFFFFFFFFFFFFFFFFFFFFFFFFFFFFFFFFFFFFFFFFFFFFFFFFFFFFFFFFFFFFFFFFFFFFFFFFFFFFFFFFFFFF
310
FFFFFFFFFFFFFFFFFFFFFFFFFFFFFFFFFFFFFFFFFFFFFFFFFFFFFFFFFFFFFFFFFFFFFFFFFFFFFFFFFFFFFFFFFFFFFFFFFFFFFFFF000000000000000000000000000000000000000000000000000000000000FFFF0000000000000000000000FFFFFFFF00000000000000000000FFFFFFFF00FFFF0000000000000000000000
310
FFFFFF0000000000000000000000FFFFFFFF00FFFF000000000000FFFFFFFF00FF00000000000000000000000000000000FF00FFFF0000000000000000000000FFFFF9F9F9F9F9F9F9F9F9F9F9F9F9F9FFFF00FFFF000000000000000000000000FF000000FFF9F9F9F9F9F90000000000FF00FFFF0000000000FFFFFFFFFF
310
000000000000000000000000000000000000FF00FFFF000000000000000000000000000000000000000000000000000000000000FFFFFFFFFFFFFFFFFFFFFFFFFFFFFFFFFFFFFFFFFFFFFFFFFFFFFFFFFFFFFFFFFFFFFFFFFFFFFFFFFFFFFFFFFFFFFFFFFFFFFFFFFFFFFFFFFFFFFFFFFFFFFFFFFFFFFFFFFFFFFFFFFFFFFF
310
FFFFFFFFFFFFFFFFFFFFFFFFFFFFFFFFFFFFFFFFFFFFFFFFFFFFFFFFFFFFFFFFFFFFFFFFFFFFFFFFFFFFFFFFFFFFFFFFFFFFFFFFFFFFFFFFFFFFFFFFFFFFFFFFFFFFFFFFFFFFFFFFFFFFFFFFFFFFFFFFFFFFFFFFFFFFFFFFFFFFFFFFFFFFFFFFFFFFFFFFFFFFFFFFFFFFFFFFFFFFFFFFFFFFFFFFFFFFFFFFFFFFFFFFFFFFFF
310
FFFFFFFFFFFFFFFFFFFFFFFFFFFFFFFFFFFFFFFFFFFFFFFFFFFFFFFFFFFFFFFFFFFFFFFFFFFFFFFFFFFFFFFFFFFFFFFFFFFFFFFFFFFFFFFFFFFFFFFFFFFFFFFFFFFFFFFFFFFFFFFFFFFFFFFFFFFFFFFFFFFFFFFFFFFFFFFFFFFFFFFFFFFFFFFFFFFFFFFFFFFFFFFFFFFFFFFFFFFFFFFFFFFFFFFFFFFFFFFFFFFFFFFFFFFFFF
310
FFFFFFFFFFFFFFFFFFFFFFFFFFFFFFFFFFFFFFFFFFFFFFFFFFFFFFFFFFFFFFFFFFFFFFFFFFFFFFFFFFFFFFFFFFFFFFFFFFFFFFFFFFFFFFFF
102
{BLKREFS
331
B3FF
102
}
1001
ACAD
1000
DesignCenter Data
1002
{
1070
     1
1070
     1
1002
}
  0
BLOCK_RECORD
  5
C8F6
330
1
100
AcDbSymbolTableRecord
100
AcDbBlockTableRecord
  2
*D2
340
0
  0
BLOCK_RECORD
  5
C902
330
1
100
AcDbSymbolTableRecord
100
AcDbBlockTableRecord
  2
*D3
340
0
  0
BLOCK_RECORD
  5
C90E
330
1
100
AcDbSymbolTableRecord
100
AcDbBlockTableRecord
  2
*D4
340
0
  0
BLOCK_RECORD
  5
C91A
330
1
100
AcDbSymbolTableRecord
100
AcDbBlockTableRecord
  2
*D5
340
0
  0
BLOCK_RECORD
  5
CA90
330
1
100
AcDbSymbolTableRecord
100
AcDbBlockTableRecord
  2
*D6
340
0
  0
BLOCK_RECORD
  5
CAA6
330
1
100
AcDbSymbolTableRecord
100
AcDbBlockTableRecord
  2
*D7
340
0
  0
BLOCK_RECORD
  5
CDC9
330
1
100
AcDbSymbolTableRecord
100
AcDbBlockTableRecord
  2
GENAXEH
340
0
  0
ENDTAB
  0
ENDSEC
  0
SECTION
  2
BLOCKS
  0
BLOCK
  5
20
330
1F
100
AcDbEntity
  8
0
100
AcDbBlockBegin
  2
*Model_Space
 70
     0
 10
0.0
 20
0.0
 30
0.0
  3
*Model_Space
  1

  0
ENDBLK
  5
21
330
1F
100
AcDbEntity
  8
0
100
AcDbBlockEnd
  0
BLOCK
  5
1C
330
1B
100
AcDbEntity
 67
     1
  8
0
100
AcDbBlockBegin
  2
*Paper_Space
 70
     0
 10
0.0
 20
0.0
 30
0.0
  3
*Paper_Space
  1

  0
ENDBLK
  5
1D
330
1B
100
AcDbEntity
 67
     1
  8
0
100
AcDbBlockEnd
  0
BLOCK
  5
24
330
23
100
AcDbEntity
 67
     1
  8
0
100
AcDbBlockBegin
  2
*Paper_Space0
 70
     0
 10
0.0
 20
0.0
 30
0.0
  3
*Paper_Space0
  1

  0
ENDBLK
  5
25
330
23
100
AcDbEntity
 67
     1
  8
0
100
AcDbBlockEnd
  0
BLOCK
  5
A6C7
330
A6C6
100
AcDbEntity
  8
0
100
AcDbBlockBegin
  2
Header box
 70
     0
 10
0.0
 20
0.0
 30
0.0
  3
Header box
  1

  0
LINE
  5
A6C8
330
A6C6
100
AcDbEntity
  8
TITLE
 62
     7
100
AcDbLine
 10
-190.354389389498
 20
37.36171237533517
 30
0.0
 11
-190.354389389498
 21
64.52598166812913
 31
0.0
  0
TEXT
  5
A6C9
330
A6C6
100
AcDbEntity
  8
TITLE
 62
     7
100
AcDbText
 10
-287.1013364054666
 20
64.8908240119622
 30
0.0
 40
3.7
  1
Description:
  7
ROMANS
100
AcDbText
  0
LINE
  5
A6CA
330
A6C6
100
AcDbEntity
  8
TITLE
 62
     7
100
AcDbLine
 10
-0.0000000000002274
 20
70.0
 30
0.0
 11
-0.0000000000004547
 21
0.0
 31
0.0
  0
LINE
  5
A6CB
330
A6C6
100
AcDbEntity
  8
TITLE
 62
     7
100
AcDbLine
 10
-290.354389389498
 20
0.0000000000002274
 30
0.0
 11
-0.0000000000004547
 21
0.0
 31
0.0
  0
LINE
  5
A6CC
330
A6C6
100
AcDbEntity
  8
TITLE
 62
     7
100
AcDbLine
 10
-290.3543893894982
 20
12.00000000000023
 30
0.0
 11
-190.354389389498
 21
12.0
 31
0.0
  0
LINE
  5
A6CD
330
A6C6
100
AcDbEntity
  8
TITLE
 62
     7
100
AcDbLine
 10
-290.3543893894982
 20
24.0
 30
0.0
 11
-190.354389389498
 21
24.0
 31
0.0
  0
LINE
  5
A6CE
330
A6C6
100
AcDbEntity
  8
TITLE
 62
     7
100
AcDbLine
 10
-290.3543893894982
 20
36.00000000000046
 30
0.0
 11
-190.354389389498
 21
36.0
 31
0.0
  0
LINE
  5
A6CF
330
A6C6
100
AcDbEntity
  8
TITLE
 62
     7
100
AcDbLine
 10
-290.3543893894982
 20
48.0
 30
0.0
 11
-190.354389389498
 21
48.0
 31
0.0
  0
TEXT
  5
A6D0
330
A6C6
100
AcDbEntity
  8
TITLE
 62
     7
100
AcDbText
 10
-137.4172993428619
 20
11.61849069373284
 30
0.0
 40
4.234726746318611
  1
...........................................
  7
ROMANS
100
AcDbText
  0
TEXT
  5
A6D1
330
A6C6
100
AcDbEntity
  8
TITLE
 62
     7
100
AcDbText
 10
-131.415438903773
 20
5.698054340877206
 30
0.0
 40
4.5
  1
www.pchenderson.com
  7
ROMANS
100
AcDbText
  0
TEXT
  5
A6D2
330
A6C6
100
AcDbEntity
  8
TITLE
 62
     7
100
AcDbText
 10
-183.248621162917
 20
45.45580816069559
 30
0.0
 40
20.68663584605062
  1
H                 N
  7
PANROMAN
 72
     1
 11
-93.4850250908471
 21
45.45580816069559
 31
0.0
100
AcDbText
  0
TEXT
  5
A6D3
330
A6C6
100
AcDbEntity
  8
TITLE
 62
     7
100
AcDbText
 10
-160.6591259430001
 20
51.18151386659019
 30
0.0
 40
13.79109056403374
  1
ENDERSO
 41
1.550658378555863
  7
PANROMAN
 72
     5
 11
-25.43890099333157
 21
51.18151386659019
 31
0.0
100
AcDbText
  0
TEXT
  5
A6D4
330
A6C6
100
AcDbEntity
  8
TITLE
 62
     7
100
AcDbText
 10
-162.9954701179922
 20
20.403794274717
 30
0.0
 40
3.223667419342889
  1
Telephone: (0191) 3770701  Fax No.: (0191) 3771309
  7
ROMANS
 72
     1
 11
-92.4585568233228
 21
20.403794274717
 31
0.0
100
AcDbText
  0
HATCH
  5
A6D6
330
A6C6
100
AcDbEntity
  8
TITLE
 62
     7
100
AcDbHatch
 10
0.0
 20
0.0
 30
0.0
210
0.0
220
0.0
230
1.0
  2
SOLID
 70
     1
 71
     0
 91
        1
 92
        7
 72
     0
 73
     1
 93
       10
 10
-115.5859924744936
 20
43.41746872639896
 10
-115.5859924744936
 20
42.84283995289661
 10
-107.8656348729791
 20
40.77417636829159
 10
-97.63414295541998
 20
40.77417636829159
 10
-105.3545005569335
 20
42.84283995289752
 10
-80.99644005894379
 20
42.84283995289752
 10
-88.71679766045827
 20
40.77417636829159
 10
-78.48530574289816
 20
40.77417636829159
 10
-70.76494814138368
 20
42.84283995289797
 10
-70.76494814138368
 20
43.41746872639896
 97
        0
 75
     0
 76
     1
 47
0.1131583265264065
 98
        1
 10
-79.97928254073258
 20
42.34027325150373
1001
ACAD
1010
0.0
1020
0.0
1030
0.0
  0
LINE
  5
A6D7
330
A6C6
100
AcDbEntity
  8
TITLE
 62
     7
100
AcDbLine
 10
-80.99644005894379
 20
42.84283995289752
 30
0.0
 11
-105.3545005569335
 21
42.84283995289752
 31
0.0
  0
LINE
  5
A6D8
330
A6C6
100
AcDbEntity
  8
TITLE
 62
     7
100
AcDbLine
 10
-105.3545005569335
 20
42.84283995289752
 30
0.0
 11
-97.63414295542089
 21
40.77417636829159
 31
0.0
  0
LINE
  5
A6D9
330
A6C6
100
AcDbEntity
  8
TITLE
 62
     7
100
AcDbLine
 10
-97.63414295542089
 20
40.77417636829159
 30
0.0
 11
-107.8656348729791
 21
40.77417636829159
 31
0.0
  0
LINE
  5
A6DA
330
A6C6
100
AcDbEntity
  8
TITLE
 62
     7
100
AcDbLine
 10
-107.8656348729791
 20
40.77417636829159
 30
0.0
 11
-115.5859924744936
 21
42.84283995289661
 31
0.0
  0
HATCH
  5
A6DB
330
A6C6
100
AcDbEntity
  8
TITLE
 62
     1
100
AcDbHatch
 10
0.0
 20
0.0
 30
0.0
210
0.0
220
0.0
230
1.0
  2
SOLID
 70
     1
 71
     0
 91
        1
 92
        7
 72
     0
 73
     1
 93
       10
 10
-97.63414295542089
 20
47.59720165536373
 10
-107.8656348729805
 20
47.59720165536373
 10
-115.5859924744941
 20
45.52853807075962
 10
-115.5859924744941
 20
44.95390929725817
 10
-70.76494814138413
 20
44.95390929725772
 10
-70.76494814138413
 20
45.52853807075962
 10
-78.48530574289816
 20
47.59720165536373
 10
-88.71679766045962
 20
47.59720165536373
 10
-80.99644005894379
 20
45.52853807075962
 10
-105.354500556934
 20
45.52853807075962
 97
        0
 75
     0
 76
     1
 47
0.0479659346309796
 98
        1
 10
-105.5000160774734
 20
46.441489113658
1001
ACAD
1010
0.0
1020
0.0
1030
0.0
  0
LINE
  5
A6DC
330
A6C6
100
AcDbEntity
  8
TITLE
 62
     1
100
AcDbLine
 10
-115.5859924744941
 20
44.95390929725817
 30
0.0
 11
-115.5859924744941
 21
45.52853807075962
 31
0.0
  0
LINE
  5
A6DD
330
A6C6
100
AcDbEntity
  8
TITLE
 62
     1
100
AcDbLine
 10
-115.5859924744941
 20
45.52853807075962
 30
0.0
 11
-107.8656348729805
 21
47.59720165536373
 31
0.0
  0
LINE
  5
A6DE
330
A6C6
100
AcDbEntity
  8
TITLE
 62
     1
100
AcDbLine
 10
-107.8656348729805
 20
47.59720165536373
 30
0.0
 11
-97.63414295541952
 21
47.59720165536373
 31
0.0
  0
LINE
  5
A6DF
330
A6C6
100
AcDbEntity
  8
TITLE
 62
     1
100
AcDbLine
 10
-97.63414295541952
 20
47.59720165536373
 30
0.0
 11
-105.3545005569335
 21
45.52853807075962
 31
0.0
  0
LINE
  5
A6E0
330
A6C6
100
AcDbEntity
  8
TITLE
 62
     1
100
AcDbLine
 10
-105.3545005569335
 20
45.52853807075962
 30
0.0
 11
-80.9964400589456
 21
45.52853807075962
 31
0.0
  0
LINE
  5
A6E1
330
A6C6
100
AcDbEntity
  8
TITLE
 62
     1
100
AcDbLine
 10
-80.9964400589456
 20
45.52853807075962
 30
0.0
 11
-88.71679766045827
 21
47.59720165536373
 31
0.0
  0
LINE
  5
A6E2
330
A6C6
100
AcDbEntity
  8
TITLE
 62
     1
100
AcDbLine
 10
-88.71679766045827
 20
47.59720165536373
 30
0.0
 11
-78.48530574289816
 21
47.59720165536373
 31
0.0
  0
LINE
  5
A6E3
330
A6C6
100
AcDbEntity
  8
TITLE
 62
     1
100
AcDbLine
 10
-78.48530574289816
 20
47.59720165536373
 30
0.0
 11
-70.76494814138413
 21
45.52853807075962
 31
0.0
  0
LINE
  5
A6E4
330
A6C6
100
AcDbEntity
  8
TITLE
 62
     7
100
AcDbLine
 10
-70.76494814138368
 20
43.41746872639851
 30
0.0
 11
-70.76494814138368
 21
42.84283995289752
 31
0.0
  0
LINE
  5
A6E5
330
A6C6
100
AcDbEntity
  8
TITLE
 62
     7
100
AcDbLine
 10
-70.76494814138368
 20
42.84283995289752
 30
0.0
 11
-78.48530574289816
 21
40.77417636829159
 31
0.0
  0
LINE
  5
A6E6
330
A6C6
100
AcDbEntity
  8
TITLE
 62
     7
100
AcDbLine
 10
-78.48530574289816
 20
40.77417636829159
 30
0.0
 11
-88.71679766045781
 21
40.77417636829159
 31
0.0
  0
LINE
  5
A6E7
330
A6C6
100
AcDbEntity
  8
TITLE
 62
     7
100
AcDbLine
 10
-88.71679766045781
 20
40.77417636829159
 30
0.0
 11
-80.99644005894379
 21
42.84283995289752
 31
0.0
  0
LINE
  5
A6E8
330
A6C6
100
AcDbEntity
  8
TITLE
 62
     1
100
AcDbLine
 10
-78.48530574289816
 20
47.59720165536373
 30
0.0
 11
-88.71679766045827
 21
47.59720165536373
 31
0.0
  0
LINE
  5
A6E9
330
A6C6
100
AcDbEntity
  8
TITLE
 62
     7
100
AcDbLine
 10
-88.71679766045781
 20
40.77417636829159
 30
0.0
 11
-78.48530574289816
 21
40.77417636829159
 31
0.0
  0
TEXT
  5
A6EA
330
A6C6
100
AcDbEntity
  8
TITLE
 62
     7
100
AcDbText
 10
-166.40871109155
 20
27.17857632034631
 30
0.0
 40
2.93060674485717
  1
P.C.HENDERSON LIMITED, BOWBURN, DURHAM DH6 5NG ENGLAND
  7
ROMANS
 72
     1
 11
-92.65510801264458
 21
27.17857632034631
 31
0.0
100
AcDbText
  0
LINE
  5
A6EB
330
A6C6
100
AcDbEntity
  8
TITLE
 62
     1
100
AcDbLine
 10
-70.76494814138413
 20
44.95390929725772
 30
0.0
 11
-70.76494814138413
 21
45.52853807075962
 31
0.0
  0
LINE
  5
A6EC
330
A6C6
100
AcDbEntity
  8
TITLE
 62
     7
100
AcDbLine
 10
-190.354389389498
 20
69.99999999999977
 30
0.0
 11
-190.354389389498
 21
0.0
 31
0.0
  0
LINE
  5
A6ED
330
A6C6
100
AcDbEntity
  8
TITLE
 62
     7
100
AcDbLine
 10
-239.9999999999977
 20
48.0
 30
0.0
 11
-239.9999999999977
 21
0.0
 31
0.0
  0
LINE
  5
A6EE
330
A6C6
100
AcDbEntity
  8
TITLE
 62
     7
100
AcDbLine
 10
-290.354389389498
 20
69.99999999999977
 30
0.0
 11
-290.354389389498
 21
0.0
 31
0.0
  0
LINE
  5
A6EF
330
A6C6
100
AcDbEntity
  8
TITLE
 62
     7
100
AcDbLine
 10
-115.5859924744936
 20
43.41746872639851
 30
0.0
 11
-70.76494814138368
 21
43.41746872639851
 31
0.0
  0
LINE
  5
A6F0
330
A6C6
100
AcDbEntity
  8
TITLE
 62
     1
100
AcDbLine
 10
-115.5859924744941
 20
44.95390929725817
 30
0.0
 11
-70.76494814138413
 21
44.95390929725772
 31
0.0
  0
LINE
  5
A6F1
330
A6C6
100
AcDbEntity
  8
TITLE
 62
     7
100
AcDbLine
 10
-115.5859924744936
 20
43.41746872639851
 30
0.0
 11
-115.5859924744936
 21
42.84283995289661
 31
0.0
  0
HATCH
  5
A6F2
330
A6C6
100
AcDbEntity
  8
TITLE
 62
     1
100
AcDbHatch
 10
0.0
 20
0.0
 30
0.0
210
0.0
220
0.0
230
1.0
  2
SOLID
 70
     1
 71
     0
 91
        2
 92
        7
 72
     0
 73
     1
 93
        4
 10
-115.5859924744936
 20
43.67354215487558
 10
-115.5859924744941
 20
44.69783586878157
 10
-156.9592641665954
 20
44.69783586878157
 10
-156.9592641665958
 20
43.67354215487558
 97
        0
 92
        7
 72
     0
 73
     1
 93
        4
 10
-70.76494814138413
 20
44.69783586878157
 10
-70.76494814138505
 20
43.67354215487558
 10
-29.39167644928375
 20
43.67354215487558
 10
-29.39167644928284
 20
44.69783586878157
 97
        0
 75
     0
 76
     1
 47
0.1442957942446049
 98
        2
 10
-127.7427916639813
 20
44.10861404230536
 10
-54.69428705162091
 20
44.25641509796605
1001
ACAD
1010
0.0
1020
0.0
1030
0.0
  0
LINE
  5
A6F3
330
A6C6
100
AcDbEntity
  8
TITLE
 62
     1
100
AcDbLine
 10
-115.5859924744941
 20
44.69783586878157
 30
0.0
 11
-156.9592641665954
 21
44.69783586878157
 31
0.0
  0
LINE
  5
A6F4
330
A6C6
100
AcDbEntity
  8
TITLE
 62
     1
100
AcDbLine
 10
-115.5859924744941
 20
43.67354215487512
 30
0.0
 11
-156.9592641665958
 21
43.67354215487512
 31
0.0
  0
LINE
  5
A6F5
330
A6C6
100
AcDbEntity
  8
TITLE
 62
     1
100
AcDbLine
 10
-115.5859924744941
 20
44.69783586878157
 30
0.0
 11
-115.5859924744936
 21
43.67354215487512
 31
0.0
  0
LINE
  5
A6F6
330
A6C6
100
AcDbEntity
  8
TITLE
 62
     1
100
AcDbLine
 10
-156.9592641665958
 20
43.67354215487512
 30
0.0
 11
-156.9592641665954
 21
44.69783586878157
 31
0.0
  0
LINE
  5
A6F7
330
A6C6
100
AcDbEntity
  8
TITLE
 62
     1
100
AcDbLine
 10
-29.39167644928375
 20
44.69783586878111
 30
0.0
 11
-70.76494814138413
 21
44.69783586878111
 31
0.0
  0
LINE
  5
A6F8
330
A6C6
100
AcDbEntity
  8
TITLE
 62
     1
100
AcDbLine
 10
-29.39167644928375
 20
43.67354215487512
 30
0.0
 11
-70.76494814138413
 21
43.67354215487512
 31
0.0
  0
LINE
  5
A6F9
330
A6C6
100
AcDbEntity
  8
TITLE
 62
     1
100
AcDbLine
 10
-29.39167644928375
 20
44.69783586878111
 30
0.0
 11
-29.39167644928284
 21
43.67354215487512
 31
0.0
  0
LINE
  5
A6FA
330
A6C6
100
AcDbEntity
  8
TITLE
 62
     1
100
AcDbLine
 10
-70.76494814138505
 20
43.67354215487512
 30
0.0
 11
-70.76494814138413
 21
44.69783586878111
 31
0.0
  0
LINE
  5
A6FB
330
A6C6
100
AcDbEntity
  8
TITLE
 62
     7
100
AcDbLine
 10
-190.354389389498
 20
-0.0000000000004547
 30
0.0
 11
0.0
 21
0.0
 31
0.0
  0
LINE
  5
A6FC
330
A6C6
100
AcDbEntity
  8
TITLE
 62
     7
100
AcDbLine
 10
-290.354389389498
 20
69.99999999999977
 30
0.0
 11
-0.0000000000002274
 21
70.0
 31
0.0
  0
TEXT
  5
A6FD
330
A6C6
100
AcDbEntity
  8
TITLE
 62
     7
100
AcDbText
 10
-287.1013364054666
 20
40.04460132198028
 30
0.0
 40
3.7
  1
PCH-code:
  7
ROMANS
100
AcDbText
  0
TEXT
  5
A6FE
330
A6C6
100
AcDbEntity
  8
TITLE
 62
     7
100
AcDbText
 10
-287.1013364054666
 20
27.78324803682199
 30
0.0
 40
3.7
  1
CAD-scale:
  7
ROMANS
100
AcDbText
  0
TEXT
  5
A6FF
330
A6C6
100
AcDbEntity
  8
TITLE
 62
     7
100
AcDbText
 10
-287.1013364054666
 20
16.34866787757346
 30
0.0
 40
3.7
  1
Drawing-size:
  7
ROMANS
100
AcDbText
  0
TEXT
  5
A700
330
A6C6
100
AcDbEntity
  8
TITLE
 62
     7
100
AcDbText
 10
-287.1013364054666
 20
4.155613950414135
 30
0.0
 40
3.7
  1
Revision:
  7
ROMANS
100
AcDbText
  0
ENDBLK
  5
A701
330
A6C6
100
AcDbEntity
  8
0
100
AcDbBlockEnd
  0
BLOCK
  5
C900
330
C8F6
100
AcDbEntity
  8
0
 62
     0
100
AcDbBlockBegin
  2
*D2
 70
     1
 10
0.0
 20
0.0
 30
0.0
  3
*D2
  1

  0
LINE
  5
CC1F
330
C8F6
100
AcDbEntity
  8
DIMENSION
 62
     7
370
    25
100
AcDbLine
 10
209.1685293090472
 20
259.4309804725108
 30
0.0
 11
209.1685293090472
 21
289.5351718132857
 31
0.0
  0
LINE
  5
CC20
330
C8F6
100
AcDbEntity
  8
DIMENSION
 62
     7
370
    25
100
AcDbLine
 10
291.6685293090472
 20
259.4309804725108
 30
0.0
 11
291.6685293090472
 21
289.5351718132857
 31
0.0
  0
LINE
  5
CC21
330
C8F6
100
AcDbEntity
  8
DIMENSION
 62
     7
370
    25
100
AcDbLine
 10
212.6685293090472
 20
286.3601718132857
 30
0.0
 11
288.1685293090472
 21
286.3601718132857
 31
0.0
  0
SOLID
  5
CC22
330
C8F6
100
AcDbEntity
  8
DIMENSION
 62
     7
100
AcDbTrace
 10
212.6685293090472
 20
286.943505146619
 30
0.0
 11
212.6685293090472
 21
285.7768384799524
 31
0.0
 12
209.1685293090472
 22
286.3601718132857
 32
0.0
 13
209.1685293090472
 23
286.3601718132857
 33
0.0
  0
SOLID
  5
CC23
330
C8F6
100
AcDbEntity
  8
DIMENSION
 62
     7
100
AcDbTrace
 10
288.1685293090472
 20
286.943505146619
 30
0.0
 11
288.1685293090472
 21
285.7768384799524
 31
0.0
 12
291.6685293090472
 22
286.3601718132857
 32
0.0
 13
291.6685293090472
 23
286.3601718132857
 33
0.0
  0
MTEXT
  5
CC24
330
C8F6
100
AcDbEntity
  8
DIMENSION
 62
     7
100
AcDbMText
 10
250.4185293090472
 20
288.9103709947318
 30
0.0
 40
3.5
 41
0.0
 71
     5
 72
     1
  1
\A1;83
  7
Current-BSI
 73
     1
 44
1.0
1001
ACAD
1000
MTEXTBEGIN
1070
    73
1070
     1
1070
    44
1040
1.0
1070
    74
1070
     0
1000
MTEXTEND
  0
POINT
  5
CC25
330
C8F6
100
AcDbEntity
  8
Defpoints
 62
     0
100
AcDbPoint
 10
209.1685293090472
 20
259.4309804725108
 30
0.0
  0
POINT
  5
CC26
330
C8F6
100
AcDbEntity
  8
Defpoints
 62
     0
100
AcDbPoint
 10
291.6685293090472
 20
259.4309804725108
 30
0.0
  0
POINT
  5
CC27
330
C8F6
100
AcDbEntity
  8
Defpoints
 62
     0
100
AcDbPoint
 10
291.6685293090472
 20
286.3601718132857
 30
0.0
  0
ENDBLK
  5
C901
330
C8F6
100
AcDbEntity
  8
0
 62
     0
100
AcDbBlockEnd
  0
BLOCK
  5
C90C
330
C902
100
AcDbEntity
  8
0
 62
     0
100
AcDbBlockBegin
  2
*D3
 70
     1
 10
0.0
 20
0.0
 30
0.0
  3
*D3
  1

  0
LINE
  5
CC28
330
C902
100
AcDbEntity
  8
DIMENSION
 62
     7
370
    25
100
AcDbLine
 10
218.6685293090472
 20
261.7448744580024
 30
0.0
 11
218.6685293090472
 21
276.668834193815
 31
0.0
  0
LINE
  5
CC29
330
C902
100
AcDbEntity
  8
DIMENSION
 62
     7
370
    25
100
AcDbLine
 10
282.1685293090472
 20
261.7448744580024
 30
0.0
 11
282.1685293090472
 21
276.668834193815
 31
0.0
  0
LINE
  5
CC2A
330
C902
100
AcDbEntity
  8
DIMENSION
 62
     7
370
    25
100
AcDbLine
 10
222.1685293090473
 20
273.493834193815
 30
0.0
 11
278.6685293090473
 21
273.493834193815
 31
0.0
  0
SOLID
  5
CC2B
330
C902
100
AcDbEntity
  8
DIMENSION
 62
     7
100
AcDbTrace
 10
222.1685293090473
 20
274.0771675271483
 30
0.0
 11
222.1685293090473
 21
272.9105008604816
 31
0.0
 12
218.6685293090472
 22
273.493834193815
 32
0.0
 13
218.6685293090472
 23
273.493834193815
 33
0.0
  0
SOLID
  5
CC2C
330
C902
100
AcDbEntity
  8
DIMENSION
 62
     7
100
AcDbTrace
 10
278.6685293090473
 20
274.0771675271483
 30
0.0
 11
278.6685293090473
 21
272.9105008604816
 31
0.0
 12
282.1685293090472
 22
273.493834193815
 32
0.0
 13
282.1685293090472
 23
273.493834193815
 33
0.0
  0
MTEXT
  5
CC2D
330
C902
100
AcDbEntity
  8
DIMENSION
 62
     7
100
AcDbMText
 10
250.4185293090472
 20
276.0428396508409
 30
0.0
 40
3.5
 41
0.0
 71
     5
 72
     1
  1
\A1;64
  7
Current-BSI
 73
     1
 44
1.0
1001
ACAD
1000
MTEXTBEGIN
1070
    73
1070
     1
1070
    44
1040
1.0
1070
    74
1070
     0
1000
MTEXTEND
  0
POINT
  5
CC2E
330
C902
100
AcDbEntity
  8
Defpoints
 62
     0
100
AcDbPoint
 10
218.6685293090472
 20
261.7448744580024
 30
0.0
  0
POINT
  5
CC2F
330
C902
100
AcDbEntity
  8
Defpoints
 62
     0
100
AcDbPoint
 10
282.1685293090472
 20
261.7448744580024
 30
0.0
  0
POINT
  5
CC30
330
C902
100
AcDbEntity
  8
Defpoints
 62
     0
100
AcDbPoint
 10
282.1685293090472
 20
273.493834193815
 30
0.0
  0
ENDBLK
  5
C90D
330
C902
100
AcDbEntity
  8
0
 62
     0
100
AcDbBlockEnd
  0
BLOCK
  5
C918
330
C90E
100
AcDbEntity
  8
0
 62
     0
100
AcDbBlockBegin
  2
*D4
 70
     1
 10
0.0
 20
0.0
 30
0.0
  3
*D4
  1

  0
LINE
  5
CC31
330
C90E
100
AcDbEntity
  8
DIMENSION
 62
     7
370
    25
100
AcDbLine
 10
339.5342445328142
 20
259.4309804725108
 30
0.0
 11
339.5342445328142
 21
290.611300119926
 31
0.0
  0
LINE
  5
CC32
330
C90E
100
AcDbEntity
  8
DIMENSION
 62
     7
370
    25
100
AcDbLine
 10
371.5342445328142
 20
259.4309804725108
 30
0.0
 11
371.5342445328142
 21
290.611300119926
 31
0.0
  0
LINE
  5
CC33
330
C90E
100
AcDbEntity
  8
DIMENSION
 62
     7
370
    25
100
AcDbLine
 10
343.0342445328142
 20
287.436300119926
 30
0.0
 11
368.0342445328142
 21
287.436300119926
 31
0.0
  0
SOLID
  5
CC34
330
C90E
100
AcDbEntity
  8
DIMENSION
 62
     7
100
AcDbTrace
 10
343.0342445328142
 20
288.0196334532594
 30
0.0
 11
343.0342445328142
 21
286.8529667865928
 31
0.0
 12
339.5342445328142
 22
287.436300119926
 32
0.0
 13
339.5342445328142
 23
287.436300119926
 33
0.0
  0
SOLID
  5
CC35
330
C90E
100
AcDbEntity
  8
DIMENSION
 62
     7
100
AcDbTrace
 10
368.0342445328142
 20
288.0196334532594
 30
0.0
 11
368.0342445328142
 21
286.8529667865928
 31
0.0
 12
371.5342445328142
 22
287.436300119926
 32
0.0
 13
371.5342445328142
 23
287.436300119926
 33
0.0
  0
MTEXT
  5
CC36
330
C90E
100
AcDbEntity
  8
DIMENSION
 62
     7
100
AcDbMText
 10
355.5342445328142
 20
289.9864993013721
 30
0.0
 40
3.5
 41
0.0
 71
     5
 72
     1
  1
\A1;32
  7
Current-BSI
 73
     1
 44
1.0
1001
ACAD
1000
MTEXTBEGIN
1070
    73
1070
     1
1070
    44
1040
1.0
1070
    74
1070
     0
1000
MTEXTEND
  0
POINT
  5
CC37
330
C90E
100
AcDbEntity
  8
Defpoints
 62
     0
100
AcDbPoint
 10
339.5342445328142
 20
259.4309804725108
 30
0.0
  0
POINT
  5
CC38
330
C90E
100
AcDbEntity
  8
Defpoints
 62
     0
100
AcDbPoint
 10
371.5342445328142
 20
259.4309804725108
 30
0.0
  0
POINT
  5
CC39
330
C90E
100
AcDbEntity
  8
Defpoints
 62
     0
100
AcDbPoint
 10
371.5342445328142
 20
287.436300119926
 30
0.0
  0
ENDBLK
  5
C919
330
C90E
100
AcDbEntity
  8
0
 62
     0
100
AcDbBlockEnd
  0
BLOCK
  5
C924
330
C91A
100
AcDbEntity
  8
0
 62
     0
100
AcDbBlockBegin
  2
*D5
 70
     1
 10
0.0
 20
0.0
 30
0.0
  3
*D5
  1

  0
LINE
  5
CC3A
330
C91A
100
AcDbEntity
  8
DIMENSION
 62
     7
370
    25
100
AcDbLine
 10
371.5342445328142
 20
259.4309804725108
 30
0.0
 11
405.3563980317233
 21
259.4309804725107
 31
0.0
  0
LINE
  5
CC3B
330
C91A
100
AcDbEntity
  8
DIMENSION
 62
     7
370
    25
100
AcDbLine
 10
371.5342445328074
 20
202.3309804725098
 30
0.0
 11
405.3563980317233
 21
202.3309804725098
 31
0.0
  0
LINE
  5
CC3C
330
C91A
100
AcDbEntity
  8
DIMENSION
 62
     7
370
    25
100
AcDbLine
 10
402.1813980317232
 20
255.9309804725108
 30
0.0
 11
402.1813980317232
 21
205.8309804725098
 31
0.0
  0
SOLID
  5
CC3D
330
C91A
100
AcDbEntity
  8
DIMENSION
 62
     7
100
AcDbTrace
 10
401.59806469839
 20
255.9309804725108
 30
0.0
 11
402.7647313650565
 21
255.9309804725108
 31
0.0
 12
402.1813980317232
 22
259.4309804725107
 32
0.0
 13
402.1813980317232
 23
259.4309804725107
 33
0.0
  0
SOLID
  5
CC3E
330
C91A
100
AcDbEntity
  8
DIMENSION
 62
     7
100
AcDbTrace
 10
401.59806469839
 20
205.8309804725098
 30
0.0
 11
402.7647313650565
 21
205.8309804725098
 31
0.0
 12
402.1813980317232
 22
202.3309804725098
 32
0.0
 13
402.1813980317232
 23
202.3309804725098
 33
0.0
  0
MTEXT
  5
CC3F
330
C91A
100
AcDbEntity
  8
DIMENSION
 62
     7
100
AcDbMText
 10
399.6395549212185
 20
230.8809804725103
 30
0.0
 40
3.5
 41
0.0
 71
     5
 72
     1
  1
\A1;57
  7
Current-BSI
 11
0.0000000000000001
 21
1.0
 31
0.0
 73
     1
 44
1.0
1001
ACAD
1000
MTEXTBEGIN
1070
    73
1070
     1
1070
    44
1040
1.0
1070
    74
1070
     0
1000
MTEXTEND
  0
POINT
  5
CC40
330
C91A
100
AcDbEntity
  8
Defpoints
 62
     0
100
AcDbPoint
 10
371.5342445328142
 20
259.4309804725108
 30
0.0
  0
POINT
  5
CC41
330
C91A
100
AcDbEntity
  8
Defpoints
 62
     0
100
AcDbPoint
 10
371.5342445328074
 20
202.3309804725098
 30
0.0
  0
POINT
  5
CC42
330
C91A
100
AcDbEntity
  8
Defpoints
 62
     0
100
AcDbPoint
 10
402.1813980317232
 20
202.3309804725098
 30
0.0
  0
ENDBLK
  5
C925
330
C91A
100
AcDbEntity
  8
0
 62
     0
100
AcDbBlockEnd
  0
BLOCK
  5
CA9A
330
CA90
100
AcDbEntity
  8
0
 62
     0
100
AcDbBlockBegin
  2
*D6
 70
     1
 10
0.0
 20
0.0
 30
0.0
  3
*D6
  1

  0
LINE
  5
CC43
330
CA90
100
AcDbEntity
  8
DIMENSION
 62
     7
370
    25
100
AcDbLine
 10
244.8685293090463
 20
206.2427553731198
 30
0.0
 11
244.8685293090463
 21
178.166417167162
 31
0.0
  0
LINE
  5
CC44
330
CA90
100
AcDbEntity
  8
DIMENSION
 62
     7
370
    25
100
AcDbLine
 10
255.9685293090473
 20
206.2427553731198
 30
0.0
 11
255.9685293090473
 21
178.166417167162
 31
0.0
  0
LINE
  5
CC45
330
CA90
100
AcDbEntity
  8
DIMENSION
 62
     7
370
    25
100
AcDbLine
 10
248.3685293090463
 20
181.341417167162
 30
0.0
 11
252.4685293090473
 21
181.341417167162
 31
0.0
  0
SOLID
  5
CC46
330
CA90
100
AcDbEntity
  8
DIMENSION
 62
     7
100
AcDbTrace
 10
248.3685293090463
 20
181.9247505004954
 30
0.0
 11
248.3685293090463
 21
180.7580838338287
 31
0.0
 12
244.8685293090463
 22
181.341417167162
 32
0.0
 13
244.8685293090463
 23
181.341417167162
 33
0.0
  0
SOLID
  5
CC47
330
CA90
100
AcDbEntity
  8
DIMENSION
 62
     7
100
AcDbTrace
 10
252.4685293090473
 20
181.9247505004954
 30
0.0
 11
252.4685293090473
 21
180.7580838338287
 31
0.0
 12
255.9685293090473
 22
181.341417167162
 32
0.0
 13
255.9685293090473
 23
181.341417167162
 33
0.0
  0
MTEXT
  5
CC48
330
CA90
100
AcDbEntity
  8
DIMENSION
 62
     7
100
AcDbMText
 10
250.4185293090468
 20
183.8605795136832
 30
0.0
 40
3.5
 41
0.0
 71
     5
 72
     1
  1
\A1;11
  7
Current-BSI
 73
     1
 44
1.0
1001
ACAD
1000
MTEXTBEGIN
1070
    73
1070
     1
1070
    44
1040
1.0
1070
    74
1070
     0
1000
MTEXTEND
  0
POINT
  5
CC49
330
CA90
100
AcDbEntity
  8
Defpoints
 62
     0
100
AcDbPoint
 10
244.8685293090463
 20
206.2427553731198
 30
0.0
  0
POINT
  5
CC4A
330
CA90
100
AcDbEntity
  8
Defpoints
 62
     0
100
AcDbPoint
 10
255.9685293090473
 20
206.2427553731198
 30
0.0
  0
POINT
  5
CC4B
330
CA90
100
AcDbEntity
  8
Defpoints
 62
     0
100
AcDbPoint
 10
255.9685293090473
 20
181.341417167162
 30
0.0
  0
ENDBLK
  5
CA9B
330
CA90
100
AcDbEntity
  8
0
 62
     0
100
AcDbBlockEnd
  0
BLOCK
  5
CAB1
330
CAA6
100
AcDbEntity
  8
0
 62
     0
100
AcDbBlockBegin
  2
*D7
 70
     1
 10
0.0
 20
0.0
 30
0.0
  3
*D7
  1

  0
LINE
  5
CC4C
330
CAA6
100
AcDbEntity
  8
DIMENSION
 62
     7
370
    25
100
AcDbLine
 10
371.5342445328142
 20
259.4309804725108
 30
0.0
 11
389.6008733864879
 21
259.4309804725107
 31
0.0
  0
LINE
  5
CC4D
330
CAA6
100
AcDbEntity
  8
DIMENSION
 62
     7
370
    25
100
AcDbLine
 10
371.5342445328142
 20
251.4309804725098
 30
0.0
 11
389.6008733864879
 21
251.4309804725098
 31
0.0
  0
LINE
  5
CC4E
330
CAA6
100
AcDbEntity
  8
DIMENSION
 62
     7
370
    25
100
AcDbLine
 10
386.4258733864879
 20
262.9309804725107
 30
0.0
 11
386.4258733864879
 21
266.4309804725107
 31
0.0
  0
LINE
  5
CC4F
330
CAA6
100
AcDbEntity
  8
DIMENSION
 62
     7
370
    25
100
AcDbLine
 10
386.4258733864879
 20
247.9309804725098
 30
0.0
 11
386.4258733864879
 21
244.4309804725098
 31
0.0
  0
LINE
  5
CC50
330
CAA6
100
AcDbEntity
  8
DIMENSION
 62
     7
370
    25
100
AcDbLine
 10
386.4258733864879
 20
259.4309804725107
 30
0.0
 11
386.4258733864879
 21
251.4309804725098
 31
0.0
  0
SOLID
  5
CC51
330
CAA6
100
AcDbEntity
  8
DIMENSION
 62
     7
100
AcDbTrace
 10
385.8425400531546
 20
262.9309804725107
 30
0.0
 11
387.0092067198212
 21
262.9309804725107
 31
0.0
 12
386.4258733864879
 22
259.4309804725107
 32
0.0
 13
386.4258733864879
 23
259.4309804725107
 33
0.0
  0
SOLID
  5
CC52
330
CAA6
100
AcDbEntity
  8
DIMENSION
 62
     7
100
AcDbTrace
 10
385.8425400531546
 20
247.9309804725098
 30
0.0
 11
387.0092067198212
 21
247.9309804725098
 31
0.0
 12
386.4258733864879
 22
251.4309804725098
 32
0.0
 13
386.4258733864879
 23
251.4309804725098
 33
0.0
  0
MTEXT
  5
CC53
330
CAA6
100
AcDbEntity
  8
DIMENSION
 62
     7
100
AcDbMText
 10
383.8768679294619
 20
255.4309804725104
 30
0.0
 40
3.5
 41
0.0
 71
     5
 72
     1
  1
\A1;8
  7
Current-BSI
 11
0.0000000000000001
 21
1.0
 31
0.0
 73
     1
 44
1.0
1001
ACAD
1000
MTEXTBEGIN
1070
    73
1070
     1
1070
    44
1040
1.0
1070
    74
1070
     0
1000
MTEXTEND
  0
POINT
  5
CC54
330
CAA6
100
AcDbEntity
  8
Defpoints
 62
     0
100
AcDbPoint
 10
371.5342445328142
 20
259.4309804725108
 30
0.0
  0
POINT
  5
CC55
330
CAA6
100
AcDbEntity
  8
Defpoints
 62
     0
100
AcDbPoint
 10
371.5342445328142
 20
251.4309804725098
 30
0.0
  0
POINT
  5
CC56
330
CAA6
100
AcDbEntity
  8
Defpoints
 62
     0
100
AcDbPoint
 10
386.4258733864879
 20
251.4309804725098
 30
0.0
  0
ENDBLK
  5
CAB2
330
CAA6
100
AcDbEntity
  8
0
 62
     0
100
AcDbBlockEnd
  0
BLOCK
  5
CDCB
330
CDC9
100
AcDbEntity
  8
0
 62
     0
100
AcDbBlockBegin
  2
GENAXEH
 70
     0
 10
0.0
 20
0.0
 30
0.0
  3
GENAXEH
  1

  0
LINE
  5
CDCA
330
CDC9
100
AcDbEntity
  8
0
100
AcDbLine
 10
-1.0
 20
0.0
 30
0.0
 11
1.0
 21
0.0
 31
0.0
  0
ENDBLK
  5
CDCC
330
CDC9
100
AcDbEntity
  8
0
 62
     0
100
AcDbBlockEnd
  0
ENDSEC
  0
SECTION
  2
ENTITIES
  0
TEXT
  5
24D3
330
1F
100
AcDbEntity
  8
0
  6
Continuous
 62
     7
370
    -3
100
AcDbText
 10
-66.0966112499043
 20
405.6268835456228
 30
0.0
 40
2.5
  1
 
 41
0.9
 72
     5
 11
-63.84661124990429
 21
405.6268835456228
 31
0.0
100
AcDbText
  0
TEXT
  5
24D4
330
1F
100
AcDbEntity
  8
0
  6
Continuous
 62
     7
370
    -3
100
AcDbText
 10
-49.04661124990432
 20
405.6268835456228
 30
0.0
 40
2.5
  1
 
 41
0.9
 72
     5
 11
-46.79661124990431
 21
405.6268835456228
 31
0.0
100
AcDbText
  0
TEXT
  5
24D5
330
1F
100
AcDbEntity
  8
0
  6
Continuous
 62
     7
370
    -3
100
AcDbText
 10
-35.74661124990431
 20
405.6268835456228
 30
0.0
 40
2.5
  1
 
 41
0.9
 72
     5
 11
-33.49661124990431
 21
405.6268835456228
 31
0.0
100
AcDbText
  0
TEXT
  5
24DB
330
1F
100
AcDbEntity
  8
0
  6
Continuous
 62
     7
370
    -3
100
AcDbText
 10
-49.2466112499043
 20
395.7262803547229
 30
0.0
 40
3.5
  1
 
 41
0.9000000000000015
 72
     5
 11
-46.0966112499043
 21
395.7262803547229
 31
0.0
100
AcDbText
  0
TEXT
  5
24DC
330
1F
100
AcDbEntity
  8
0
  6
Continuous
 62
     7
370
    -3
100
AcDbText
 10
-49.2466112499043
 20
385.0262803547229
 30
0.0
 40
3.5
  1
 
 41
0.9000000000000015
 72
     5
 11
-46.0966112499043
 21
385.0262803547229
 31
0.0
100
AcDbText
  0
TEXT
  5
24E8
330
1F
100
AcDbEntity
  8
0
  6
Continuous
 62
     7
370
    -3
100
AcDbText
 10
135.2301326998957
 20
399.0893608700229
 30
0.0
 40
3.0
  1
 
 41
0.899999999999996
 72
     5
 11
137.9301326998957
 21
399.0893608700229
 31
0.0
100
AcDbText
  0
TEXT
  5
24E9
330
1F
100
AcDbEntity
  8
0
  6
Continuous
 62
     7
370
    -3
100
AcDbText
 10
134.7801326998957
 20
404.7393608700229
 30
0.0
 40
4.0
  1
 
 41
0.8999999999999914
 72
     5
 11
138.3801326998957
 21
404.7393608700229
 31
0.0
100
AcDbText
  0
TEXT
  5
2841
330
1F
100
AcDbEntity
  8
0
  6
Continuous
 62
     7
370
    -3
100
AcDbText
 10
937.4515353925906
 20
38.17384233355558
 30
0.0
 40
2.5
  1
 
 41
0.9
 72
     5
 11
939.7015353925906
 21
38.17384233355558
 31
0.0
100
AcDbText
  0
TEXT
  5
2842
330
1F
100
AcDbEntity
  8
0
  6
Continuous
 62
     7
370
    -3
100
AcDbText
 10
954.5015353925904
 20
38.17384233355558
 30
0.0
 40
2.5
  1
 
 41
0.9
 72
     5
 11
956.7515353925905
 21
38.17384233355558
 31
0.0
100
AcDbText
  0
TEXT
  5
2843
330
1F
100
AcDbEntity
  8
0
  6
Continuous
 62
     7
370
    -3
100
AcDbText
 10
967.8015353925905
 20
38.17384233355558
 30
0.0
 40
2.5
  1
 
 41
0.9
 72
     5
 11
970.0515353925906
 21
38.17384233355558
 31
0.0
100
AcDbText
  0
TEXT
  5
2849
330
1F
100
AcDbEntity
  8
0
  6
Continuous
 62
     7
370
    -3
100
AcDbText
 10
954.3015353925905
 20
28.27323914265557
 30
0.0
 40
3.5
  1
 
 41
0.8999999999999934
 72
     5
 11
957.4515353925905
 21
28.27323914265557
 31
0.0
100
AcDbText
  0
TEXT
  5
284A
330
1F
100
AcDbEntity
  8
0
  6
Continuous
 62
     7
370
    -3
100
AcDbText
 10
954.3015353925905
 20
17.57323914265557
 30
0.0
 40
3.5
  1
 
 41
0.8999999999999934
 72
     5
 11
957.4515353925905
 21
17.57323914265557
 31
0.0
100
AcDbText
  0
TEXT
  5
2856
330
1F
100
AcDbEntity
  8
0
  6
Continuous
 62
     7
370
    -3
100
AcDbText
 10
1138.77827934239
 20
31.63631965795558
 30
0.0
 40
3.0
  1
 
 41
0.900000000000015
 72
     5
 11
1141.47827934239
 21
31.63631965795558
 31
0.0
100
AcDbText
  0
TEXT
  5
2857
330
1F
100
AcDbEntity
  8
0
  6
Continuous
 62
     7
370
    -3
100
AcDbText
 10
1138.32827934239
 20
37.28631965795557
 30
0.0
 40
4.0
  1
 
 41
0.9000000000000341
 72
     5
 11
1141.928279342391
 21
37.28631965795557
 31
0.0
100
AcDbText
  0
TEXT
  5
75F5
330
1F
100
AcDbEntity
  8
0
  6
Continuous
 62
     7
370
    -3
100
AcDbText
 10
-79.53944253003147
 20
367.6886396669046
 30
0.0
 40
2.5
  1
 
 41
0.9
 72
     5
 11
-77.28944253003146
 21
367.6886396669046
 31
0.0
100
AcDbText
  0
TEXT
  5
75F6
330
1F
100
AcDbEntity
  8
0
  6
Continuous
 62
     7
370
    -3
100
AcDbText
 10
-62.48944253003148
 20
367.6886396669046
 30
0.0
 40
2.5
  1
 
 41
0.9
 72
     5
 11
-60.23944253003148
 21
367.6886396669046
 31
0.0
100
AcDbText
  0
TEXT
  5
75F7
330
1F
100
AcDbEntity
  8
0
  6
Continuous
 62
     7
370
    -3
100
AcDbText
 10
-49.18944253003147
 20
367.6886396669046
 30
0.0
 40
2.5
  1
 
 41
0.9
 72
     5
 11
-46.93944253003147
 21
367.6886396669046
 31
0.0
100
AcDbText
  0
TEXT
  5
75F8
330
1F
100
AcDbEntity
  8
0
  6
Continuous
 62
     7
370
    -3
100
AcDbText
 10
-62.68944253003147
 20
357.7880364760046
 30
0.0
 40
3.5
  1
 
 41
0.9000000000000015
 72
     5
 11
-59.53944253003147
 21
357.7880364760046
 31
0.0
100
AcDbText
  0
TEXT
  5
75F9
330
1F
100
AcDbEntity
  8
0
  6
Continuous
 62
     7
370
    -3
100
AcDbText
 10
-62.68944253003147
 20
347.0880364760045
 30
0.0
 40
3.5
  1
 
 41
0.9000000000000015
 72
     5
 11
-59.53944253003147
 21
347.0880364760045
 31
0.0
100
AcDbText
  0
TEXT
  5
75FA
330
1F
100
AcDbEntity
  8
0
  6
Continuous
 62
     7
370
    -3
100
AcDbText
 10
121.7873014197685
 20
361.1511169913046
 30
0.0
 40
3.0
  1
 
 41
0.899999999999996
 72
     5
 11
124.4873014197685
 21
361.1511169913046
 31
0.0
100
AcDbText
  0
TEXT
  5
75FB
330
1F
100
AcDbEntity
  8
0
  6
Continuous
 62
     7
370
    -3
100
AcDbText
 10
121.3373014197685
 20
366.8011169913046
 30
0.0
 40
4.0
  1
 
 41
0.8999999999999914
 72
     5
 11
124.9373014197685
 21
366.8011169913046
 31
0.0
100
AcDbText
  0
TEXT
  5
75FC
330
1F
100
AcDbEntity
  8
0
  6
Continuous
 62
     7
370
    -3
100
AcDbText
 10
924.0087041124635
 20
0.235598454837266
 30
0.0
 40
2.5
  1
 
 41
0.9
 72
     5
 11
926.2587041124634
 21
0.235598454837266
 31
0.0
100
AcDbText
  0
TEXT
  5
75FD
330
1F
100
AcDbEntity
  8
0
  6
Continuous
 62
     7
370
    -3
100
AcDbText
 10
941.0587041124633
 20
0.235598454837266
 30
0.0
 40
2.5
  1
 
 41
0.9
 72
     5
 11
943.3087041124634
 21
0.235598454837266
 31
0.0
100
AcDbText
  0
TEXT
  5
75FE
330
1F
100
AcDbEntity
  8
0
  6
Continuous
 62
     7
370
    -3
100
AcDbText
 10
954.3587041124634
 20
0.235598454837266
 30
0.0
 40
2.5
  1
 
 41
0.9
 72
     5
 11
956.6087041124633
 21
0.235598454837266
 31
0.0
100
AcDbText
  0
TEXT
  5
75FF
330
1F
100
AcDbEntity
  8
0
  6
Continuous
 62
     7
370
    -3
100
AcDbText
 10
940.8587041124635
 20
-9.665004736062737
 30
0.0
 40
3.5
  1
 
 41
0.8999999999999934
 72
     5
 11
944.0087041124634
 21
-9.665004736062737
 31
0.0
100
AcDbText
  0
TEXT
  5
7600
330
1F
100
AcDbEntity
  8
0
  6
Continuous
 62
     7
370
    -3
100
AcDbText
 10
940.8587041124635
 20
-20.36500473606274
 30
0.0
 40
3.5
  1
 
 41
0.8999999999999934
 72
     5
 11
944.0087041124634
 21
-20.36500473606274
 31
0.0
100
AcDbText
  0
TEXT
  5
7601
330
1F
100
AcDbEntity
  8
0
  6
Continuous
 62
     7
370
    -3
100
AcDbText
 10
1125.335448062263
 20
-6.301924220762735
 30
0.0
 40
3.0
  1
 
 41
0.900000000000015
 72
     5
 11
1128.035448062263
 21
-6.301924220762735
 31
0.0
100
AcDbText
  0
TEXT
  5
7602
330
1F
100
AcDbEntity
  8
0
  6
Continuous
 62
     7
370
    -3
100
AcDbText
 10
1124.885448062263
 20
-0.6519242207627372
 30
0.0
 40
4.0
  1
 
 41
0.9000000000000341
 72
     5
 11
1128.485448062263
 21
-0.6519242207627372
 31
0.0
100
AcDbText
  0
TEXT
  5
7664
330
1F
100
AcDbEntity
  8
0
  6
Continuous
 62
     7
370
    -3
100
AcDbText
 10
12.07675204446195
 20
401.7073045424243
 30
0.0
 40
2.5
  1
 
 41
0.9
 72
     5
 11
14.32675204446195
 21
401.7073045424243
 31
0.0
100
AcDbText
  0
TEXT
  5
7665
330
1F
100
AcDbEntity
  8
0
  6
Continuous
 62
     7
370
    -3
100
AcDbText
 10
29.12675204446194
 20
401.7073045424243
 30
0.0
 40
2.5
  1
 
 41
0.9
 72
     5
 11
31.37675204446194
 21
401.7073045424243
 31
0.0
100
AcDbText
  0
TEXT
  5
7666
330
1F
100
AcDbEntity
  8
0
  6
Continuous
 62
     7
370
    -3
100
AcDbText
 10
42.42675204446195
 20
401.7073045424243
 30
0.0
 40
2.5
  1
 
 41
0.9
 72
     5
 11
44.67675204446194
 21
401.7073045424243
 31
0.0
100
AcDbText
  0
TEXT
  5
7667
330
1F
100
AcDbEntity
  8
0
  6
Continuous
 62
     7
370
    -3
100
AcDbText
 10
28.92675204446195
 20
391.8067013515244
 30
0.0
 40
3.5
  1
 
 41
0.9000000000000015
 72
     5
 11
32.07675204446196
 21
391.8067013515244
 31
0.0
100
AcDbText
  0
TEXT
  5
7668
330
1F
100
AcDbEntity
  8
0
  6
Continuous
 62
     7
370
    -3
100
AcDbText
 10
28.92675204446195
 20
381.1067013515243
 30
0.0
 40
3.5
  1
 
 41
0.9000000000000015
 72
     5
 11
32.07675204446196
 21
381.1067013515243
 31
0.0
100
AcDbText
  0
TEXT
  5
7669
330
1F
100
AcDbEntity
  8
0
  6
Continuous
 62
     7
370
    -3
100
AcDbText
 10
213.403495994262
 20
395.1697818668244
 30
0.0
 40
3.0
  1
 
 41
0.899999999999996
 72
     5
 11
216.1034959942619
 21
395.1697818668244
 31
0.0
100
AcDbText
  0
TEXT
  5
766A
330
1F
100
AcDbEntity
  8
0
  6
Continuous
 62
     7
370
    -3
100
AcDbText
 10
212.953495994262
 20
400.8197818668243
 30
0.0
 40
4.0
  1
 
 41
0.8999999999999914
 72
     5
 11
216.5534959942619
 21
400.8197818668243
 31
0.0
100
AcDbText
  0
TEXT
  5
766B
330
1F
100
AcDbEntity
  8
0
  6
Continuous
 62
     7
370
    -3
100
AcDbText
 10
1015.624898686957
 20
34.25426333035705
 30
0.0
 40
2.5
  1
 
 41
0.9
 72
     5
 11
1017.874898686957
 21
34.25426333035705
 31
0.0
100
AcDbText
  0
TEXT
  5
766C
330
1F
100
AcDbEntity
  8
0
  6
Continuous
 62
     7
370
    -3
100
AcDbText
 10
1032.674898686956
 20
34.25426333035705
 30
0.0
 40
2.5
  1
 
 41
0.9
 72
     5
 11
1034.924898686957
 21
34.25426333035705
 31
0.0
100
AcDbText
  0
TEXT
  5
766D
330
1F
100
AcDbEntity
  8
0
  6
Continuous
 62
     7
370
    -3
100
AcDbText
 10
1045.974898686957
 20
34.25426333035705
 30
0.0
 40
2.5
  1
 
 41
0.9
 72
     5
 11
1048.224898686957
 21
34.25426333035705
 31
0.0
100
AcDbText
  0
TEXT
  5
766E
330
1F
100
AcDbEntity
  8
0
  6
Continuous
 62
     7
370
    -3
100
AcDbText
 10
1032.474898686957
 20
24.35366013945705
 30
0.0
 40
3.5
  1
 
 41
0.899999999999961
 72
     5
 11
1035.624898686957
 21
24.35366013945705
 31
0.0
100
AcDbText
  0
TEXT
  5
766F
330
1F
100
AcDbEntity
  8
0
  6
Continuous
 62
     7
370
    -3
100
AcDbText
 10
1032.474898686957
 20
13.65366013945705
 30
0.0
 40
3.5
  1
 
 41
0.899999999999961
 72
     5
 11
1035.624898686957
 21
13.65366013945705
 31
0.0
100
AcDbText
  0
TEXT
  5
7670
330
1F
100
AcDbEntity
  8
0
  6
Continuous
 62
     7
370
    -3
100
AcDbText
 10
1216.951642636757
 20
27.71674065475705
 30
0.0
 40
3.0
  1
 
 41
0.900000000000015
 72
     5
 11
1219.651642636757
 21
27.71674065475705
 31
0.0
100
AcDbText
  0
TEXT
  5
7671
330
1F
100
AcDbEntity
  8
0
  6
Continuous
 62
     7
370
    -3
100
AcDbText
 10
1216.501642636757
 20
33.36674065475705
 30
0.0
 40
4.0
  1
 
 41
0.9000000000000341
 72
     5
 11
1220.101642636757
 21
33.36674065475705
 31
0.0
100
AcDbText
  0
TEXT
  5
8CEA
330
1F
100
AcDbEntity
  8
0
  6
Continuous
 62
     7
370
    -3
100
AcDbText
 10
127.7054187129383
 20
490.2568636082961
 30
0.0
 40
2.5
  1
 
 41
0.9
 72
     5
 11
129.9554187129383
 21
490.2568636082961
 31
0.0
100
AcDbText
  0
TEXT
  5
8CEB
330
1F
100
AcDbEntity
  8
0
  6
Continuous
 62
     7
370
    -3
100
AcDbText
 10
144.7554187129383
 20
490.2568636082961
 30
0.0
 40
2.5
  1
 
 41
0.9
 72
     5
 11
147.0054187129383
 21
490.2568636082961
 31
0.0
100
AcDbText
  0
TEXT
  5
8CEC
330
1F
100
AcDbEntity
  8
0
  6
Continuous
 62
     7
370
    -3
100
AcDbText
 10
158.0554187129383
 20
490.2568636082961
 30
0.0
 40
2.5
  1
 
 41
0.9
 72
     5
 11
160.3054187129383
 21
490.2568636082961
 31
0.0
100
AcDbText
  0
TEXT
  5
8CED
330
1F
100
AcDbEntity
  8
0
  6
Continuous
 62
     7
370
    -3
100
AcDbText
 10
144.5554187129383
 20
480.3562604173962
 30
0.0
 40
3.5
  1
 
 41
0.9000000000000015
 72
     5
 11
147.7054187129383
 21
480.3562604173962
 31
0.0
100
AcDbText
  0
TEXT
  5
8CEE
330
1F
100
AcDbEntity
  8
0
  6
Continuous
 62
     7
370
    -3
100
AcDbText
 10
144.5554187129383
 20
469.6562604173961
 30
0.0
 40
3.5
  1
 
 41
0.9000000000000015
 72
     5
 11
147.7054187129383
 21
469.6562604173961
 31
0.0
100
AcDbText
  0
TEXT
  5
8CEF
330
1F
100
AcDbEntity
  8
0
  6
Continuous
 62
     7
370
    -3
100
AcDbText
 10
329.0321626627384
 20
483.7193409326962
 30
0.0
 40
3.0
  1
 
 41
0.899999999999996
 72
     5
 11
331.7321626627383
 21
483.7193409326962
 31
0.0
100
AcDbText
  0
TEXT
  5
8CF0
330
1F
100
AcDbEntity
  8
0
  6
Continuous
 62
     7
370
    -3
100
AcDbText
 10
328.5821626627384
 20
489.3693409326962
 30
0.0
 40
4.0
  1
 
 41
0.8999999999999914
 72
     5
 11
332.1821626627383
 21
489.3693409326962
 31
0.0
100
AcDbText
  0
TEXT
  5
8CF1
330
1F
100
AcDbEntity
  8
0
  6
Continuous
 62
     7
370
    -3
100
AcDbText
 10
1131.253565355433
 20
122.8038223962289
 30
0.0
 40
2.5
  1
 
 41
0.9
 72
     5
 11
1133.503565355433
 21
122.8038223962289
 31
0.0
100
AcDbText
  0
TEXT
  5
8CF2
330
1F
100
AcDbEntity
  8
0
  6
Continuous
 62
     7
370
    -3
100
AcDbText
 10
1148.303565355433
 20
122.8038223962289
 30
0.0
 40
2.5
  1
 
 41
0.9
 72
     5
 11
1150.553565355433
 21
122.8038223962289
 31
0.0
100
AcDbText
  0
TEXT
  5
8CF3
330
1F
100
AcDbEntity
  8
0
  6
Continuous
 62
     7
370
    -3
100
AcDbText
 10
1161.603565355433
 20
122.8038223962289
 30
0.0
 40
2.5
  1
 
 41
0.9
 72
     5
 11
1163.853565355433
 21
122.8038223962289
 31
0.0
100
AcDbText
  0
TEXT
  5
8CF4
330
1F
100
AcDbEntity
  8
0
  6
Continuous
 62
     7
370
    -3
100
AcDbText
 10
1148.103565355433
 20
112.9032192053289
 30
0.0
 40
3.5
  1
 
 41
0.9000000000000259
 72
     5
 11
1151.253565355433
 21
112.9032192053289
 31
0.0
100
AcDbText
  0
TEXT
  5
8CF5
330
1F
100
AcDbEntity
  8
0
  6
Continuous
 62
     7
370
    -3
100
AcDbText
 10
1148.103565355433
 20
102.2032192053289
 30
0.0
 40
3.5
  1
 
 41
0.9000000000000259
 72
     5
 11
1151.253565355433
 21
102.2032192053289
 31
0.0
100
AcDbText
  0
TEXT
  5
8CF6
330
1F
100
AcDbEntity
  8
0
  6
Continuous
 62
     7
370
    -3
100
AcDbText
 10
1332.580309305233
 20
116.2662997206289
 30
0.0
 40
3.0
  1
 
 41
0.900000000000015
 72
     5
 11
1335.280309305233
 21
116.2662997206289
 31
0.0
100
AcDbText
  0
TEXT
  5
8CF7
330
1F
100
AcDbEntity
  8
0
  6
Continuous
 62
     7
370
    -3
100
AcDbText
 10
1332.130309305233
 20
121.9162997206289
 30
0.0
 40
4.0
  1
 
 41
0.9000000000000341
 72
     5
 11
1335.730309305233
 21
121.9162997206289
 31
0.0
100
AcDbText
  0
TEXT
  5
8D0F
330
1F
100
AcDbEntity
  8
0
  6
Continuous
 62
     7
370
    -3
100
AcDbText
 10
114.2625874328112
 20
452.3186197295778
 30
0.0
 40
2.5
  1
 
 41
0.9
 72
     5
 11
116.5125874328112
 21
452.3186197295778
 31
0.0
100
AcDbText
  0
TEXT
  5
8D10
330
1F
100
AcDbEntity
  8
0
  6
Continuous
 62
     7
370
    -3
100
AcDbText
 10
131.3125874328112
 20
452.3186197295778
 30
0.0
 40
2.5
  1
 
 41
0.9
 72
     5
 11
133.5625874328111
 21
452.3186197295778
 31
0.0
100
AcDbText
  0
TEXT
  5
8D11
330
1F
100
AcDbEntity
  8
0
  6
Continuous
 62
     7
370
    -3
100
AcDbText
 10
144.6125874328112
 20
452.3186197295778
 30
0.0
 40
2.5
  1
 
 41
0.9
 72
     5
 11
146.8625874328111
 21
452.3186197295778
 31
0.0
100
AcDbText
  0
TEXT
  5
8D12
330
1F
100
AcDbEntity
  8
0
  6
Continuous
 62
     7
370
    -3
100
AcDbText
 10
131.1125874328112
 20
442.4180165386779
 30
0.0
 40
3.5
  1
 
 41
0.9000000000000015
 72
     5
 11
134.2625874328112
 21
442.4180165386779
 31
0.0
100
AcDbText
  0
TEXT
  5
8D13
330
1F
100
AcDbEntity
  8
0
  6
Continuous
 62
     7
370
    -3
100
AcDbText
 10
131.1125874328112
 20
431.7180165386779
 30
0.0
 40
3.5
  1
 
 41
0.9000000000000015
 72
     5
 11
134.2625874328112
 21
431.7180165386779
 31
0.0
100
AcDbText
  0
TEXT
  5
8D14
330
1F
100
AcDbEntity
  8
0
  6
Continuous
 62
     7
370
    -3
100
AcDbText
 10
315.5893313826112
 20
445.7810970539779
 30
0.0
 40
3.0
  1
 
 41
0.899999999999996
 72
     5
 11
318.2893313826112
 21
445.7810970539779
 31
0.0
100
AcDbText
  0
TEXT
  5
8D15
330
1F
100
AcDbEntity
  8
0
  6
Continuous
 62
     7
370
    -3
100
AcDbText
 10
315.1393313826112
 20
451.4310970539779
 30
0.0
 40
4.0
  1
 
 41
0.8999999999999914
 72
     5
 11
318.7393313826112
 21
451.4310970539779
 31
0.0
100
AcDbText
  0
TEXT
  5
8D16
330
1F
100
AcDbEntity
  8
0
  6
Continuous
 62
     7
370
    -3
100
AcDbText
 10
1117.810734075306
 20
84.86557851751058
 30
0.0
 40
2.5
  1
 
 41
0.9
 72
     5
 11
1120.060734075306
 21
84.86557851751058
 31
0.0
100
AcDbText
  0
TEXT
  5
8D17
330
1F
100
AcDbEntity
  8
0
  6
Continuous
 62
     7
370
    -3
100
AcDbText
 10
1134.860734075306
 20
84.86557851751058
 30
0.0
 40
2.5
  1
 
 41
0.9
 72
     5
 11
1137.110734075306
 21
84.86557851751058
 31
0.0
100
AcDbText
  0
TEXT
  5
8D18
330
1F
100
AcDbEntity
  8
0
  6
Continuous
 62
     7
370
    -3
100
AcDbText
 10
1148.160734075306
 20
84.86557851751058
 30
0.0
 40
2.5
  1
 
 41
0.9
 72
     5
 11
1150.410734075306
 21
84.86557851751058
 31
0.0
100
AcDbText
  0
TEXT
  5
8D19
330
1F
100
AcDbEntity
  8
0
  6
Continuous
 62
     7
370
    -3
100
AcDbText
 10
1134.660734075306
 20
74.96497532661059
 30
0.0
 40
3.5
  1
 
 41
0.899999999999961
 72
     5
 11
1137.810734075306
 21
74.96497532661059
 31
0.0
100
AcDbText
  0
TEXT
  5
8D1A
330
1F
100
AcDbEntity
  8
0
  6
Continuous
 62
     7
370
    -3
100
AcDbText
 10
1134.660734075306
 20
64.26497532661059
 30
0.0
 40
3.5
  1
 
 41
0.899999999999961
 72
     5
 11
1137.810734075306
 21
64.26497532661059
 31
0.0
100
AcDbText
  0
TEXT
  5
8D1B
330
1F
100
AcDbEntity
  8
0
  6
Continuous
 62
     7
370
    -3
100
AcDbText
 10
1319.137478025106
 20
78.32805584191058
 30
0.0
 40
3.0
  1
 
 41
0.900000000000015
 72
     5
 11
1321.837478025106
 21
78.32805584191058
 31
0.0
100
AcDbText
  0
TEXT
  5
8D1C
330
1F
100
AcDbEntity
  8
0
  6
Continuous
 62
     7
370
    -3
100
AcDbText
 10
1318.687478025106
 20
83.97805584191059
 30
0.0
 40
4.0
  1
 
 41
0.9000000000000341
 72
     5
 11
1322.287478025106
 21
83.97805584191059
 31
0.0
100
AcDbText
  0
TEXT
  5
8D1D
330
1F
100
AcDbEntity
  8
0
  6
Continuous
 62
     7
370
    -3
100
AcDbText
 10
205.8787820073046
 20
486.3372846050976
 30
0.0
 40
2.5
  1
 
 41
0.9
 72
     5
 11
208.1287820073046
 21
486.3372846050976
 31
0.0
100
AcDbText
  0
TEXT
  5
8D1E
330
1F
100
AcDbEntity
  8
0
  6
Continuous
 62
     7
370
    -3
100
AcDbText
 10
222.9287820073046
 20
486.3372846050976
 30
0.0
 40
2.5
  1
 
 41
0.9
 72
     5
 11
225.1787820073046
 21
486.3372846050976
 31
0.0
100
AcDbText
  0
TEXT
  5
8D1F
330
1F
100
AcDbEntity
  8
0
  6
Continuous
 62
     7
370
    -3
100
AcDbText
 10
236.2287820073046
 20
486.3372846050976
 30
0.0
 40
2.5
  1
 
 41
0.9
 72
     5
 11
238.4787820073046
 21
486.3372846050976
 31
0.0
100
AcDbText
  0
TEXT
  5
8D20
330
1F
100
AcDbEntity
  8
0
  6
Continuous
 62
     7
370
    -3
100
AcDbText
 10
222.7287820073046
 20
476.4366814141977
 30
0.0
 40
3.5
  1
 
 41
0.9000000000000015
 72
     5
 11
225.8787820073046
 21
476.4366814141977
 31
0.0
100
AcDbText
  0
TEXT
  5
8D21
330
1F
100
AcDbEntity
  8
0
  6
Continuous
 62
     7
370
    -3
100
AcDbText
 10
222.7287820073046
 20
465.7366814141976
 30
0.0
 40
3.5
  1
 
 41
0.9000000000000015
 72
     5
 11
225.8787820073046
 21
465.7366814141976
 31
0.0
100
AcDbText
  0
TEXT
  5
8D22
330
1F
100
AcDbEntity
  8
0
  6
Continuous
 62
     7
370
    -3
100
AcDbText
 10
407.2055259571046
 20
479.7997619294977
 30
0.0
 40
3.0
  1
 
 41
0.899999999999996
 72
     5
 11
409.9055259571046
 21
479.7997619294977
 31
0.0
100
AcDbText
  0
TEXT
  5
8D23
330
1F
100
AcDbEntity
  8
0
  6
Continuous
 62
     7
370
    -3
100
AcDbText
 10
406.7555259571046
 20
485.4497619294977
 30
0.0
 40
4.0
  1
 
 41
0.8999999999999914
 72
     5
 11
410.3555259571045
 21
485.4497619294977
 31
0.0
100
AcDbText
  0
TEXT
  5
8D24
330
1F
100
AcDbEntity
  8
0
  6
Continuous
 62
     7
370
    -3
100
AcDbText
 10
1209.426928649799
 20
118.8842433930304
 30
0.0
 40
2.5
  1
 
 41
0.9
 72
     5
 11
1211.676928649799
 21
118.8842433930304
 31
0.0
100
AcDbText
  0
TEXT
  5
8D25
330
1F
100
AcDbEntity
  8
0
  6
Continuous
 62
     7
370
    -3
100
AcDbText
 10
1226.476928649799
 20
118.8842433930304
 30
0.0
 40
2.5
  1
 
 41
0.9
 72
     5
 11
1228.726928649799
 21
118.8842433930304
 31
0.0
100
AcDbText
  0
TEXT
  5
8D26
330
1F
100
AcDbEntity
  8
0
  6
Continuous
 62
     7
370
    -3
100
AcDbText
 10
1239.776928649799
 20
118.8842433930304
 30
0.0
 40
2.5
  1
 
 41
0.9
 72
     5
 11
1242.0269286498
 21
118.8842433930304
 31
0.0
100
AcDbText
  0
TEXT
  5
8D27
330
1F
100
AcDbEntity
  8
0
  6
Continuous
 62
     7
370
    -3
100
AcDbText
 10
1226.2769286498
 20
108.9836402021304
 30
0.0
 40
3.5
  1
 
 41
0.899999999999961
 72
     5
 11
1229.426928649799
 21
108.9836402021304
 31
0.0
100
AcDbText
  0
TEXT
  5
8D28
330
1F
100
AcDbEntity
  8
0
  6
Continuous
 62
     7
370
    -3
100
AcDbText
 10
1226.2769286498
 20
98.28364020213038
 30
0.0
 40
3.5
  1
 
 41
0.899999999999961
 72
     5
 11
1229.426928649799
 21
98.28364020213038
 31
0.0
100
AcDbText
  0
TEXT
  5
8D29
330
1F
100
AcDbEntity
  8
0
  6
Continuous
 62
     7
370
    -3
100
AcDbText
 10
1410.753672599599
 20
112.3467207174303
 30
0.0
 40
3.0
  1
 
 41
0.900000000000015
 72
     5
 11
1413.453672599599
 21
112.3467207174303
 31
0.0
100
AcDbText
  0
TEXT
  5
8D2A
330
1F
100
AcDbEntity
  8
0
  6
Continuous
 62
     7
370
    -3
100
AcDbText
 10
1410.303672599599
 20
117.9967207174303
 30
0.0
 40
4.0
  1
 
 41
0.9000000000000341
 72
     5
 11
1413.903672599599
 21
117.9967207174303
 31
0.0
100
AcDbText
  0
TEXT
  5
8D66
330
1F
100
AcDbEntity
  8
0
  6
Continuous
 62
     7
370
    -3
100
AcDbText
 10
-35724.54779924528
 20
4782.953127938831
 30
0.0
 40
2.5
  1
 
 41
0.9
 72
     5
 11
-35722.29779924528
 21
4782.953127938831
 31
0.0
100
AcDbText
  0
TEXT
  5
8D67
330
1F
100
AcDbEntity
  8
0
  6
Continuous
 62
     7
370
    -3
100
AcDbText
 10
-35707.49779924529
 20
4782.953127938831
 30
0.0
 40
2.5
  1
 
 41
0.9
 72
     5
 11
-35705.24779924529
 21
4782.953127938831
 31
0.0
100
AcDbText
  0
TEXT
  5
8D68
330
1F
100
AcDbEntity
  8
0
  6
Continuous
 62
     7
370
    -3
100
AcDbText
 10
-35694.19779924528
 20
4782.953127938831
 30
0.0
 40
2.5
  1
 
 41
0.9
 72
     5
 11
-35691.94779924528
 21
4782.953127938831
 31
0.0
100
AcDbText
  0
TEXT
  5
8D69
330
1F
100
AcDbEntity
  8
0
  6
Continuous
 62
     7
370
    -3
100
AcDbText
 10
-35707.69779924528
 20
4773.052524747932
 30
0.0
 40
3.5
  1
 
 41
0.9000000000004158
 72
     5
 11
-35704.54779924528
 21
4773.052524747932
 31
0.0
100
AcDbText
  0
TEXT
  5
8D6A
330
1F
100
AcDbEntity
  8
0
  6
Continuous
 62
     7
370
    -3
100
AcDbText
 10
-35707.69779924528
 20
4762.352524747932
 30
0.0
 40
3.5
  1
 
 41
0.9000000000004158
 72
     5
 11
-35704.54779924528
 21
4762.352524747932
 31
0.0
100
AcDbText
  0
TEXT
  5
8D6B
330
1F
100
AcDbEntity
  8
0
  6
Continuous
 62
     7
370
    -3
100
AcDbText
 10
-35523.22105529549
 20
4776.415605263231
 30
0.0
 40
3.0
  1
 
 41
0.9000000000014551
 72
     5
 11
-35520.52105529548
 21
4776.415605263231
 31
0.0
100
AcDbText
  0
TEXT
  5
8D6C
330
1F
100
AcDbEntity
  8
0
  6
Continuous
 62
     7
370
    -3
100
AcDbText
 10
-35523.67105529548
 20
4782.065605263232
 30
0.0
 40
4.0
  1
 
 41
0.8999999999996362
 72
     5
 11
-35520.07105529549
 21
4782.065605263232
 31
0.0
100
AcDbText
  0
TEXT
  5
8D6D
330
1F
100
AcDbEntity
  8
0
  6
Continuous
 62
     7
370
    -3
100
AcDbText
 10
-34720.99965260279
 20
4415.500086726765
 30
0.0
 40
2.5
  1
 
 41
0.9
 72
     5
 11
-34718.74965260279
 21
4415.500086726765
 31
0.0
100
AcDbText
  0
TEXT
  5
8D6E
330
1F
100
AcDbEntity
  8
0
  6
Continuous
 62
     7
370
    -3
100
AcDbText
 10
-34703.94965260279
 20
4415.500086726765
 30
0.0
 40
2.5
  1
 
 41
0.9
 72
     5
 11
-34701.69965260279
 21
4415.500086726765
 31
0.0
100
AcDbText
  0
TEXT
  5
8D6F
330
1F
100
AcDbEntity
  8
0
  6
Continuous
 62
     7
370
    -3
100
AcDbText
 10
-34690.64965260279
 20
4415.500086726765
 30
0.0
 40
2.5
  1
 
 41
0.9
 72
     5
 11
-34688.39965260279
 21
4415.500086726765
 31
0.0
100
AcDbText
  0
TEXT
  5
8D70
330
1F
100
AcDbEntity
  8
0
  6
Continuous
 62
     7
370
    -3
100
AcDbText
 10
-34704.14965260279
 20
4405.599483535865
 30
0.0
 40
3.5
  1
 
 41
0.9000000000004158
 72
     5
 11
-34700.99965260279
 21
4405.599483535865
 31
0.0
100
AcDbText
  0
TEXT
  5
8D71
330
1F
100
AcDbEntity
  8
0
  6
Continuous
 62
     7
370
    -3
100
AcDbText
 10
-34704.14965260279
 20
4394.899483535865
 30
0.0
 40
3.5
  1
 
 41
0.9000000000004158
 72
     5
 11
-34700.99965260279
 21
4394.899483535865
 31
0.0
100
AcDbText
  0
TEXT
  5
8D72
330
1F
100
AcDbEntity
  8
0
  6
Continuous
 62
     7
370
    -3
100
AcDbText
 10
-34519.67290865299
 20
4408.962564051164
 30
0.0
 40
3.0
  1
 
 41
0.8999999999990297
 72
     5
 11
-34516.97290865299
 21
4408.962564051164
 31
0.0
100
AcDbText
  0
TEXT
  5
8D73
330
1F
100
AcDbEntity
  8
0
  6
Continuous
 62
     7
370
    -3
100
AcDbText
 10
-34520.12290865299
 20
4414.612564051164
 30
0.0
 40
4.0
  1
 
 41
0.8999999999996362
 72
     5
 11
-34516.52290865299
 21
4414.612564051164
 31
0.0
100
AcDbText
  0
TEXT
  5
8D74
330
1F
100
AcDbEntity
  8
0
  6
Continuous
 62
     7
370
    -3
100
AcDbText
 10
493.2337990972103
 20
289.1830220889136
 30
0.0
 40
2.5
  1
 
 41
0.9
 72
     5
 11
495.4837990972102
 21
289.1830220889136
 31
0.0
100
AcDbText
  0
TEXT
  5
8D75
330
1F
100
AcDbEntity
  8
0
  6
Continuous
 62
     7
370
    -3
100
AcDbText
 10
510.2837990972059
 20
289.1830220889136
 30
0.0
 40
2.5
  1
 
 41
0.9
 72
     5
 11
512.5337990972059
 21
289.1830220889136
 31
0.0
100
AcDbText
  0
TEXT
  5
8D76
330
1F
100
AcDbEntity
  8
0
  6
Continuous
 62
     7
370
    -3
100
AcDbText
 10
523.5837990972088
 20
289.1830220889136
 30
0.0
 40
2.5
  1
 
 41
0.9
 72
     5
 11
525.8337990972088
 21
289.1830220889136
 31
0.0
100
AcDbText
  0
TEXT
  5
8D77
330
1F
100
AcDbEntity
  8
0
  6
Continuous
 62
     7
370
    -3
100
AcDbText
 10
510.0837990972088
 20
279.2824188980134
 30
0.0
 40
3.5
  1
 
 41
0.9000000000004158
 72
     5
 11
513.2337990972103
 21
279.2824188980134
 31
0.0
100
AcDbText
  0
TEXT
  5
8D78
330
1F
100
AcDbEntity
  8
0
  6
Continuous
 62
     7
370
    -3
100
AcDbText
 10
510.0837990972088
 20
268.5824188980135
 30
0.0
 40
3.5
  1
 
 41
0.9000000000004158
 72
     5
 11
513.2337990972103
 21
268.5824188980135
 31
0.0
100
AcDbText
  0
TEXT
  5
8D79
330
1F
100
AcDbEntity
  8
0
  6
Continuous
 62
     7
370
    -3
100
AcDbText
 10
694.5605430470043
 20
282.6454994133136
 30
0.0
 40
3.0
  1
 
 41
0.9000000000014551
 72
     5
 11
697.2605430470086
 21
282.6454994133136
 31
0.0
100
AcDbText
  0
TEXT
  5
8D7A
330
1F
100
AcDbEntity
  8
0
  6
Continuous
 62
     7
370
    -3
100
AcDbText
 10
694.1105430470072
 20
288.2954994133137
 30
0.0
 40
4.0
  1
 
 41
0.8999999999996362
 72
     5
 11
697.7105430470057
 21
288.2954994133137
 31
0.0
100
AcDbText
  0
TEXT
  5
8D7B
330
1F
100
AcDbEntity
  8
0
  6
Continuous
 62
     7
370
    -3
100
AcDbText
 10
1496.7819457397
 20
-78.27001912315393
 30
0.0
 40
2.5
  1
 
 41
0.9
 72
     5
 11
1499.0319457397
 21
-78.27001912315393
 31
0.0
100
AcDbText
  0
TEXT
  5
8D7C
330
1F
100
AcDbEntity
  8
0
  6
Continuous
 62
     7
370
    -3
100
AcDbText
 10
1513.831945739703
 20
-78.27001912315393
 30
0.0
 40
2.5
  1
 
 41
0.9
 72
     5
 11
1516.081945739703
 21
-78.27001912315393
 31
0.0
100
AcDbText
  0
TEXT
  5
8D7D
330
1F
100
AcDbEntity
  8
0
  6
Continuous
 62
     7
370
    -3
100
AcDbText
 10
1527.131945739698
 20
-78.27001912315393
 30
0.0
 40
2.5
  1
 
 41
0.9
 72
     5
 11
1529.381945739699
 21
-78.27001912315393
 31
0.0
100
AcDbText
  0
TEXT
  5
8D7E
330
1F
100
AcDbEntity
  8
0
  6
Continuous
 62
     7
370
    -3
100
AcDbText
 10
1513.631945739699
 20
-88.17062231405419
 30
0.0
 40
3.5
  1
 
 41
0.9000000000004158
 72
     5
 11
1516.7819457397
 21
-88.17062231405419
 31
0.0
100
AcDbText
  0
TEXT
  5
8D7F
330
1F
100
AcDbEntity
  8
0
  6
Continuous
 62
     7
370
    -3
100
AcDbText
 10
1513.631945739699
 20
-98.87062231405401
 30
0.0
 40
3.5
  1
 
 41
0.9000000000004158
 72
     5
 11
1516.7819457397
 21
-98.87062231405401
 31
0.0
100
AcDbText
  0
TEXT
  5
8D80
330
1F
100
AcDbEntity
  8
0
  6
Continuous
 62
     7
370
    -3
100
AcDbText
 10
1698.108689689501
 20
-84.80754179875351
 30
0.0
 40
3.0
  1
 
 41
0.8999999999990297
 72
     5
 11
1700.808689689498
 21
-84.80754179875351
 31
0.0
100
AcDbText
  0
TEXT
  5
8D81
330
1F
100
AcDbEntity
  8
0
  6
Continuous
 62
     7
370
    -3
100
AcDbText
 10
1697.658689689504
 20
-79.15754179875387
 30
0.0
 40
4.0
  1
 
 41
0.8999999999996362
 72
     5
 11
1701.258689689503
 21
-79.15754179875387
 31
0.0
100
AcDbText
  0
TEXT
  5
8D82
330
1F
100
AcDbEntity
  8
0
  6
Continuous
 62
     7
370
    -3
100
AcDbText
 10
479.7909678170783
 20
251.2447782101948
 30
0.0
 40
2.5
  1
 
 41
0.9
 72
     5
 11
482.0409678170783
 21
251.2447782101948
 31
0.0
100
AcDbText
  0
TEXT
  5
8D83
330
1F
100
AcDbEntity
  8
0
  6
Continuous
 62
     7
370
    -3
100
AcDbText
 10
496.8409678170813
 20
251.2447782101948
 30
0.0
 40
2.5
  1
 
 41
0.9
 72
     5
 11
499.0909678170813
 21
251.2447782101948
 31
0.0
100
AcDbText
  0
TEXT
  5
8D84
330
1F
100
AcDbEntity
  8
0
  6
Continuous
 62
     7
370
    -3
100
AcDbText
 10
510.1409678170768
 20
251.2447782101948
 30
0.0
 40
2.5
  1
 
 41
0.9
 72
     5
 11
512.3909678170768
 21
251.2447782101948
 31
0.0
100
AcDbText
  0
TEXT
  5
8D85
330
1F
100
AcDbEntity
  8
0
  6
Continuous
 62
     7
370
    -3
100
AcDbText
 10
496.6409678170768
 20
241.3441750192955
 30
0.0
 40
3.5
  1
 
 41
0.9000000000004158
 72
     5
 11
499.7909678170783
 21
241.3441750192955
 31
0.0
100
AcDbText
  0
TEXT
  5
8D86
330
1F
100
AcDbEntity
  8
0
  6
Continuous
 62
     7
370
    -3
100
AcDbText
 10
496.6409678170768
 20
230.6441750192947
 30
0.0
 40
3.5
  1
 
 41
0.9000000000004158
 72
     5
 11
499.7909678170783
 21
230.6441750192947
 31
0.0
100
AcDbText
  0
TEXT
  5
8D87
330
1F
100
AcDbEntity
  8
0
  6
Continuous
 62
     7
370
    -3
100
AcDbText
 10
681.1177117668797
 20
244.7072555345952
 30
0.0
 40
3.0
  1
 
 41
0.8999999999990297
 72
     5
 11
683.8177117668768
 21
244.7072555345952
 31
0.0
100
AcDbText
  0
TEXT
  5
8D88
330
1F
100
AcDbEntity
  8
0
  6
Continuous
 62
     7
370
    -3
100
AcDbText
 10
680.6677117668826
 20
250.3572555345948
 30
0.0
 40
4.0
  1
 
 41
0.8999999999996362
 72
     5
 11
684.2677117668811
 21
250.3572555345948
 31
0.0
100
AcDbText
  0
TEXT
  5
8D89
330
1F
100
AcDbEntity
  8
0
  6
Continuous
 62
     7
370
    -3
100
AcDbText
 10
1483.339114459575
 20
-116.2082630018718
 30
0.0
 40
2.5
  1
 
 41
0.9
 72
     5
 11
1485.589114459575
 21
-116.2082630018718
 31
0.0
100
AcDbText
  0
TEXT
  5
8D8A
330
1F
100
AcDbEntity
  8
0
  6
Continuous
 62
     7
370
    -3
100
AcDbText
 10
1500.389114459571
 20
-116.2082630018718
 30
0.0
 40
2.5
  1
 
 41
0.9
 72
     5
 11
1502.639114459571
 21
-116.2082630018718
 31
0.0
100
AcDbText
  0
TEXT
  5
8D8B
330
1F
100
AcDbEntity
  8
0
  6
Continuous
 62
     7
370
    -3
100
AcDbText
 10
1513.689114459574
 20
-116.2082630018718
 30
0.0
 40
2.5
  1
 
 41
0.9
 72
     5
 11
1515.939114459574
 21
-116.2082630018718
 31
0.0
100
AcDbText
  0
TEXT
  5
8D8C
330
1F
100
AcDbEntity
  8
0
  6
Continuous
 62
     7
370
    -3
100
AcDbText
 10
1500.189114459574
 20
-126.1088661927721
 30
0.0
 40
3.5
  1
 
 41
0.9000000000004158
 72
     5
 11
1503.339114459575
 21
-126.1088661927721
 31
0.0
100
AcDbText
  0
TEXT
  5
8D8D
330
1F
100
AcDbEntity
  8
0
  6
Continuous
 62
     7
370
    -3
100
AcDbText
 10
1500.189114459574
 20
-136.8088661927719
 30
0.0
 40
3.5
  1
 
 41
0.9000000000004158
 72
     5
 11
1503.339114459575
 21
-136.8088661927719
 31
0.0
100
AcDbText
  0
TEXT
  5
8D8E
330
1F
100
AcDbEntity
  8
0
  6
Continuous
 62
     7
370
    -3
100
AcDbText
 10
1684.665858409377
 20
-122.7457856774723
 30
0.0
 40
3.0
  1
 
 41
0.8999999999990297
 72
     5
 11
1687.365858409374
 21
-122.7457856774723
 31
0.0
100
AcDbText
  0
TEXT
  5
8D8F
330
1F
100
AcDbEntity
  8
0
  6
Continuous
 62
     7
370
    -3
100
AcDbText
 10
1684.215858409372
 20
-117.0957856774718
 30
0.0
 40
4.0
  1
 
 41
0.9000000000014551
 72
     5
 11
1687.815858409378
 21
-117.0957856774718
 31
0.0
100
AcDbText
  0
TEXT
  5
8D90
330
1F
100
AcDbEntity
  8
0
  6
Continuous
 62
     7
370
    -3
100
AcDbText
 10
571.4071623915754
 20
285.263443085715
 30
0.0
 40
2.5
  1
 
 41
0.9
 72
     5
 11
573.6571623915754
 21
285.263443085715
 31
0.0
100
AcDbText
  0
TEXT
  5
8D91
330
1F
100
AcDbEntity
  8
0
  6
Continuous
 62
     7
370
    -3
100
AcDbText
 10
588.457162391571
 20
285.263443085715
 30
0.0
 40
2.5
  1
 
 41
0.9
 72
     5
 11
590.707162391571
 21
285.263443085715
 31
0.0
100
AcDbText
  0
TEXT
  5
8D92
330
1F
100
AcDbEntity
  8
0
  6
Continuous
 62
     7
370
    -3
100
AcDbText
 10
601.7571623915739
 20
285.263443085715
 30
0.0
 40
2.5
  1
 
 41
0.9
 72
     5
 11
604.0071623915739
 21
285.263443085715
 31
0.0
100
AcDbText
  0
TEXT
  5
8D93
330
1F
100
AcDbEntity
  8
0
  6
Continuous
 62
     7
370
    -3
100
AcDbText
 10
588.2571623915739
 20
275.3628398948152
 30
0.0
 40
3.5
  1
 
 41
0.9000000000004158
 72
     5
 11
591.4071623915754
 21
275.3628398948152
 31
0.0
100
AcDbText
  0
TEXT
  5
8D94
330
1F
100
AcDbEntity
  8
0
  6
Continuous
 62
     7
370
    -3
100
AcDbText
 10
588.2571623915739
 20
264.6628398948145
 30
0.0
 40
3.5
  1
 
 41
0.9000000000004158
 72
     5
 11
591.4071623915754
 21
264.6628398948145
 31
0.0
100
AcDbText
  0
TEXT
  5
8D95
330
1F
100
AcDbEntity
  8
0
  6
Continuous
 62
     7
370
    -3
100
AcDbText
 10
772.7339063413767
 20
278.725920410115
 30
0.0
 40
3.0
  1
 
 41
0.8999999999990297
 72
     5
 11
775.4339063413738
 21
278.725920410115
 31
0.0
100
AcDbText
  0
TEXT
  5
8D96
330
1F
100
AcDbEntity
  8
0
  6
Continuous
 62
     7
370
    -3
100
AcDbText
 10
772.2839063413723
 20
284.3759204101151
 30
0.0
 40
4.0
  1
 
 41
0.8999999999996362
 72
     5
 11
775.8839063413708
 21
284.3759204101151
 31
0.0
100
AcDbText
  0
TEXT
  5
8D97
330
1F
100
AcDbEntity
  8
0
  6
Continuous
 62
     7
370
    -3
100
AcDbText
 10
1574.955309034065
 20
-82.18959812635205
 30
0.0
 40
2.5
  1
 
 41
0.9
 72
     5
 11
1577.205309034065
 21
-82.18959812635205
 31
0.0
100
AcDbText
  0
TEXT
  5
8D98
330
1F
100
AcDbEntity
  8
0
  6
Continuous
 62
     7
370
    -3
100
AcDbText
 10
1592.005309034068
 20
-82.18959812635205
 30
0.0
 40
2.5
  1
 
 41
0.9
 72
     5
 11
1594.255309034068
 21
-82.18959812635205
 31
0.0
100
AcDbText
  0
TEXT
  5
8D99
330
1F
100
AcDbEntity
  8
0
  6
Continuous
 62
     7
370
    -3
100
AcDbText
 10
1605.305309034071
 20
-82.18959812635205
 30
0.0
 40
2.5
  1
 
 41
0.9
 72
     5
 11
1607.555309034071
 21
-82.18959812635205
 31
0.0
100
AcDbText
  0
TEXT
  5
8D9A
330
1F
100
AcDbEntity
  8
0
  6
Continuous
 62
     7
370
    -3
100
AcDbText
 10
1591.805309034071
 20
-92.0902013172523
 30
0.0
 40
3.5
  1
 
 41
0.8999999999983369
 72
     5
 11
1594.955309034065
 21
-92.0902013172523
 31
0.0
100
AcDbText
  0
TEXT
  5
8D9B
330
1F
100
AcDbEntity
  8
0
  6
Continuous
 62
     7
370
    -3
100
AcDbText
 10
1591.805309034071
 20
-102.7902013172521
 30
0.0
 40
3.5
  1
 
 41
0.8999999999983369
 72
     5
 11
1594.955309034065
 21
-102.7902013172521
 31
0.0
100
AcDbText
  0
TEXT
  5
8D9C
330
1F
100
AcDbEntity
  8
0
  6
Continuous
 62
     7
370
    -3
100
AcDbText
 10
1776.282052983867
 20
-88.72712080195254
 30
0.0
 40
3.0
  1
 
 41
0.9000000000014551
 72
     5
 11
1778.982052983871
 21
-88.72712080195254
 31
0.0
100
AcDbText
  0
TEXT
  5
8D9D
330
1F
100
AcDbEntity
  8
0
  6
Continuous
 62
     7
370
    -3
100
AcDbText
 10
1775.832052983869
 20
-83.077120801952
 30
0.0
 40
4.0
  1
 
 41
0.8999999999996362
 72
     5
 11
1779.432052983868
 21
-83.077120801952
 31
0.0
100
AcDbText
  0
TEXT
  5
8D9E
330
1F
100
AcDbEntity
  8
0
  6
Continuous
 62
     7
370
    -3
100
AcDbText
 10
1082.412008154346
 20
66.12648294910503
 30
0.0
 40
2.5
  1
 
 41
0.9
  7
TEXTSTYLE_1
 72
     5
 11
1084.662008154346
 21
66.12648294910503
 31
0.0
100
AcDbText
  0
TEXT
  5
8D9F
330
1F
100
AcDbEntity
  8
0
  6
Continuous
 62
     7
370
    -3
100
AcDbText
 10
1099.462008154342
 20
66.12648294910503
 30
0.0
 40
2.5
  1
 
 41
0.9
  7
TEXTSTYLE_1
 72
     5
 11
1101.712008154342
 21
66.12648294910503
 31
0.0
100
AcDbText
  0
TEXT
  5
8DA0
330
1F
100
AcDbEntity
  8
0
  6
Continuous
 62
     7
370
    -3
100
AcDbText
 10
1099.262008154345
 20
56.22587975820568
 30
0.0
 40
3.5
  1
 
 41
0.9000000000004158
  7
TEXTSTYLE_1
 72
     5
 11
1102.412008154346
 21
56.22587975820568
 31
0.0
100
AcDbText
  0
TEXT
  5
8DA1
330
1F
100
AcDbEntity
  8
0
  6
Continuous
 62
     7
370
    -3
100
AcDbText
 10
1099.262008154345
 20
45.52587975820495
 30
0.0
 40
3.5
  1
 
 41
0.9000000000004158
  7
TEXTSTYLE_1
 72
     5
 11
1102.412008154346
 21
45.52587975820495
 31
0.0
100
AcDbText
  0
TEXT
  5
8DA2
330
1F
100
AcDbEntity
  8
0
  6
Continuous
 62
     7
370
    -3
100
AcDbText
 10
1283.738752104147
 20
59.58896027350545
 30
0.0
 40
3.0
  1
 
 41
0.8999999999990299
  7
TEXTSTYLE_1
 72
     5
 11
1286.438752104144
 21
59.58896027350545
 31
0.0
100
AcDbText
  0
TEXT
  5
8DA3
330
1F
100
AcDbEntity
  8
0
  6
Continuous
 62
     7
370
    -3
100
AcDbText
 10
1283.288752104143
 20
65.23896027350509
 30
0.0
 40
4.0
  1
 
 41
0.8999999999996362
  7
TEXTSTYLE_1
 72
     5
 11
1286.888752104142
 21
65.23896027350509
 31
0.0
100
AcDbText
  0
TEXT
  5
8DEC
330
1F
100
AcDbEntity
  8
TITLE
 62
     7
370
    -3
100
AcDbText
 10
925.1743374267599
 20
-141.6609757733438
 30
0.0
 40
5.4
  1
 
  7
ROMANS
 72
     1
 11
927.8743374267598
 21
-138.9609757733438
 31
0.0
100
AcDbText
 73
     2
  0
TEXT
  5
8DF7
330
1F
100
AcDbEntity
  8
TITLE
 62
     7
370
    -3
100
AcDbText
 10
1612.532658391263
 20
-146.2648410814105
 30
0.0
 40
3.24
  1

  7
ROMANS
100
AcDbText
  0
TEXT
  5
8DF8
330
1F
100
AcDbEntity
  8
TEXT
 62
     7
370
    -3
100
AcDbText
 10
1662.863326967754
 20
91.28649199016434
 30
0.0
 40
3.24
  1
 
 50
37.00000000012129
 41
0.8
100
AcDbText
  0
TEXT
  5
8DF9
330
1F
100
AcDbEntity
  8
TEXT
 62
     7
370
    -3
100
AcDbText
 10
1697.076180122081
 20
70.32208942337309
 30
0.0
 40
3.24
  1
 
 50
37.00000000012129
 41
0.8
100
AcDbText
  0
TEXT
  5
8DFA
330
1F
100
AcDbEntity
  8
TITLE
 62
     7
370
    -3
100
AcDbText
 10
2102.424865905235
 20
90.11583128510059
 30
0.0
 40
1.08
  1
 
  7
ROMANS
 72
     1
 11
2102.964865905235
 21
90.65583128510059
 31
0.0
100
AcDbText
 73
     2
  0
TEXT
  5
8DFB
330
1F
100
AcDbEntity
  8
TITLE
 62
     7
370
    -3
100
AcDbText
 10
2060.698919688535
 20
86.77601974513198
 30
0.0
 40
0.6480000000000002
  1
 
  7
ROMANS
100
AcDbText
  0
TEXT
  5
8DFC
330
1F
100
AcDbEntity
  8
TITLE
 62
     7
370
    -3
100
AcDbText
 10
2241.803381596025
 20
91.57484261501425
 30
0.0
 40
1.08
  1
 
  7
ROMANS
 72
     1
 11
2242.343381596025
 21
92.11484261501425
 31
0.0
100
AcDbText
 73
     2
  0
TEXT
  5
8DFD
330
1F
100
AcDbEntity
  8
TITLE
 62
     7
370
    -3
100
AcDbText
 10
2200.077435379326
 20
88.23503107504654
 30
0.0
 40
0.6480000000000002
  1
 
  7
ROMANS
100
AcDbText
  0
TEXT
  5
8DFE
330
1F
100
AcDbEntity
  8
TEXT
 62
     7
370
    -3
100
AcDbText
 10
2154.13641772303
 20
164.6301508293921
 30
0.0
 40
0.4320000000000001
  1
 
100
AcDbText
  0
TEXT
  5
8DFF
330
1F
100
AcDbEntity
  8
TEXT
 62
     7
370
    -3
100
AcDbText
 10
2073.816407924942
 20
111.600992164168
 30
0.0
 40
0.6480000000000002
  1
 
  7
ROMANS
 72
     1
 11
2074.140407924943
 21
111.924992164168
 31
0.0
100
AcDbText
 73
     2
  0
TEXT
  5
8E00
330
1F
100
AcDbEntity
  8
TEXT
 62
     7
370
    -3
100
AcDbText
 10
2080.877889984289
 20
111.600992164168
 30
0.0
 40
0.6480000000000002
  1
 
  7
ROMANS
 72
     1
 11
2081.20188998429
 21
111.924992164168
 31
0.0
100
AcDbText
 73
     2
  0
TEXT
  5
8E01
330
1F
100
AcDbEntity
  8
TEXT
 62
     7
370
    -3
100
AcDbText
 10
2073.816407924942
 20
112.8969921641682
 30
0.0
 40
0.6480000000000002
  1
 
  7
ROMANS
 72
     1
 11
2074.140407924943
 21
113.2209921641682
 31
0.0
100
AcDbText
 73
     2
  0
TEXT
  5
8E02
330
1F
100
AcDbEntity
  8
TEXT
 62
     7
370
    -3
100
AcDbText
 10
2080.877889984289
 20
112.8969921641682
 30
0.0
 40
0.6480000000000002
  1
 
  7
ROMANS
 72
     1
 11
2081.20188998429
 21
113.2209921641682
 31
0.0
100
AcDbText
 73
     2
  0
TEXT
  5
8E03
330
1F
100
AcDbEntity
  8
TEXT
 62
     7
370
    -3
100
AcDbText
 10
2073.816407924942
 20
109.0089921641683
 30
0.0
 40
0.6480000000000002
  1
 
  7
ROMANS
 72
     1
 11
2074.140407924943
 21
109.3329921641683
 31
0.0
100
AcDbText
 73
     2
  0
TEXT
  5
8E04
330
1F
100
AcDbEntity
  8
TEXT
 62
     7
370
    -3
100
AcDbText
 10
2080.877889984289
 20
109.0089921641683
 30
0.0
 40
0.6480000000000002
  1
 
  7
ROMANS
 72
     1
 11
2081.20188998429
 21
109.3329921641683
 31
0.0
100
AcDbText
 73
     2
  0
TEXT
  5
8E05
330
1F
100
AcDbEntity
  8
TEXT
 62
     7
370
    -3
100
AcDbText
 10
2089.588379290641
 20
109.0089921641683
 30
0.0
 40
0.6480000000000002
  1
 
  7
ROMANS
 72
     1
 11
2089.912379290641
 21
109.3329921641683
 31
0.0
100
AcDbText
 73
     2
  0
TEXT
  5
8E06
330
1F
100
AcDbEntity
  8
TEXT
 62
     7
370
    -3
100
AcDbText
 10
2073.816407924942
 20
110.3049921641677
 30
0.0
 40
0.6480000000000002
  1
 
  7
ROMANS
 72
     1
 11
2074.140407924943
 21
110.6289921641677
 31
0.0
100
AcDbText
 73
     2
  0
TEXT
  5
8E07
330
1F
100
AcDbEntity
  8
TEXT
 62
     7
370
    -3
100
AcDbText
 10
2080.877889984289
 20
110.3049921641677
 30
0.0
 40
0.6480000000000002
  1
 
  7
ROMANS
 72
     1
 11
2081.20188998429
 21
110.6289921641677
 31
0.0
100
AcDbText
 73
     2
  0
TEXT
  5
8E08
330
1F
100
AcDbEntity
  8
TEXT
 62
     7
370
    -3
100
AcDbText
 10
2089.588379290641
 20
110.3049921641677
 30
0.0
 40
0.6480000000000002
  1
 
  7
ROMANS
 72
     1
 11
2089.912379290641
 21
110.6289921641677
 31
0.0
100
AcDbText
 73
     2
  0
TEXT
  5
8E09
330
1F
100
AcDbEntity
  8
TEXT
 62
     7
370
    -3
100
AcDbText
 10
2073.816407924942
 20
107.712992164168
 30
0.0
 40
0.6480000000000002
  1
 
  7
ROMANS
 72
     1
 11
2074.140407924943
 21
108.036992164168
 31
0.0
100
AcDbText
 73
     2
  0
TEXT
  5
8E0A
330
1F
100
AcDbEntity
  8
TEXT
 62
     7
370
    -3
100
AcDbText
 10
2080.877889984289
 20
107.712992164168
 30
0.0
 40
0.6480000000000002
  1
 
  7
ROMANS
 72
     1
 11
2081.20188998429
 21
108.036992164168
 31
0.0
100
AcDbText
 73
     2
  0
TEXT
  5
8E0B
330
1F
100
AcDbEntity
  8
TEXT
 62
     7
370
    -3
100
AcDbText
 10
2089.588379290641
 20
107.712992164168
 30
0.0
 40
0.6480000000000002
  1
 
  7
ROMANS
 72
     1
 11
2089.912379290641
 21
108.036992164168
 31
0.0
100
AcDbText
 73
     2
  0
TEXT
  5
8E18
330
1F
100
AcDbEntity
  8
0
  6
Continuous
 62
     7
370
    -3
100
AcDbText
 10
670.9752079582633
 20
234.9580882725262
 30
0.0
 40
2.5
  1
 
 41
0.9
 72
     5
 11
673.2252079582633
 21
234.9580882725262
 31
0.0
100
AcDbText
  0
TEXT
  5
8E19
330
1F
100
AcDbEntity
  8
0
  6
Continuous
 62
     7
370
    -3
100
AcDbText
 10
688.0252079582589
 20
234.9580882725262
 30
0.0
 40
2.5
  1
 
 41
0.9
 72
     5
 11
690.2752079582589
 21
234.9580882725262
 31
0.0
100
AcDbText
  0
TEXT
  5
8E1A
330
1F
100
AcDbEntity
  8
0
  6
Continuous
 62
     7
370
    -3
100
AcDbText
 10
701.3252079582619
 20
234.9580882725262
 30
0.0
 40
2.5
  1
 
 41
0.9
 72
     5
 11
703.5752079582619
 21
234.9580882725262
 31
0.0
100
AcDbText
  0
TEXT
  5
8E1B
330
1F
100
AcDbEntity
  8
0
  6
Continuous
 62
     7
370
    -3
100
AcDbText
 10
687.8252079582619
 20
225.0574850816259
 30
0.0
 40
3.5
  1
 
 41
0.9000000000004158
 72
     5
 11
690.9752079582633
 21
225.0574850816259
 31
0.0
100
AcDbText
  0
TEXT
  5
8E1C
330
1F
100
AcDbEntity
  8
0
  6
Continuous
 62
     7
370
    -3
100
AcDbText
 10
687.8252079582619
 20
214.3574850816261
 30
0.0
 40
3.5
  1
 
 41
0.9000000000004158
 72
     5
 11
690.9752079582633
 21
214.3574850816261
 31
0.0
100
AcDbText
  0
TEXT
  5
8E1D
330
1F
100
AcDbEntity
  8
0
  6
Continuous
 62
     7
370
    -3
100
AcDbText
 10
872.3019519080574
 20
228.4205655969257
 30
0.0
 40
3.0
  1
 
 41
0.9000000000014551
 72
     5
 11
875.0019519080618
 21
228.4205655969257
 31
0.0
100
AcDbText
  0
TEXT
  5
8E1E
330
1F
100
AcDbEntity
  8
0
  6
Continuous
 62
     7
370
    -3
100
AcDbText
 10
871.8519519080603
 20
234.0705655969263
 30
0.0
 40
4.0
  1
 
 41
0.8999999999996362
 72
     5
 11
875.4519519080588
 21
234.0705655969263
 31
0.0
100
AcDbText
  0
TEXT
  5
8E1F
330
1F
100
AcDbEntity
  8
0
  6
Continuous
 62
     7
370
    -3
100
AcDbText
 10
1674.523354600753
 20
-132.4949529395413
 30
0.0
 40
2.5
  1
 
 41
0.9
 72
     5
 11
1676.773354600753
 21
-132.4949529395413
 31
0.0
100
AcDbText
  0
TEXT
  5
8E20
330
1F
100
AcDbEntity
  8
0
  6
Continuous
 62
     7
370
    -3
100
AcDbText
 10
1691.573354600756
 20
-132.4949529395413
 30
0.0
 40
2.5
  1
 
 41
0.9
 72
     5
 11
1693.823354600756
 21
-132.4949529395413
 31
0.0
100
AcDbText
  0
TEXT
  5
8E21
330
1F
100
AcDbEntity
  8
0
  6
Continuous
 62
     7
370
    -3
100
AcDbText
 10
1704.873354600752
 20
-132.4949529395413
 30
0.0
 40
2.5
  1
 
 41
0.9
 72
     5
 11
1707.123354600752
 21
-132.4949529395413
 31
0.0
100
AcDbText
  0
TEXT
  5
8E22
330
1F
100
AcDbEntity
  8
0
  6
Continuous
 62
     7
370
    -3
100
AcDbText
 10
1691.373354600752
 20
-142.3955561304416
 30
0.0
 40
3.5
  1
 
 41
0.9000000000004158
 72
     5
 11
1694.523354600753
 21
-142.3955561304416
 31
0.0
100
AcDbText
  0
TEXT
  5
8E23
330
1F
100
AcDbEntity
  8
0
  6
Continuous
 62
     7
370
    -3
100
AcDbText
 10
1691.373354600752
 20
-153.0955561304414
 30
0.0
 40
3.5
  1
 
 41
0.9000000000004158
 72
     5
 11
1694.523354600753
 21
-153.0955561304414
 31
0.0
100
AcDbText
  0
TEXT
  5
8E24
330
1F
100
AcDbEntity
  8
0
  6
Continuous
 62
     7
370
    -3
100
AcDbText
 10
1875.850098550554
 20
-139.0324756151409
 30
0.0
 40
3.0
  1
 
 41
0.8999999999990297
 72
     5
 11
1878.550098550552
 21
-139.0324756151409
 31
0.0
100
AcDbText
  0
TEXT
  5
8E25
330
1F
100
AcDbEntity
  8
0
  6
Continuous
 62
     7
370
    -3
100
AcDbText
 10
1875.400098550557
 20
-133.3824756151413
 30
0.0
 40
4.0
  1
 
 41
0.8999999999996362
 72
     5
 11
1879.000098550556
 21
-133.3824756151413
 31
0.0
100
AcDbText
  0
TEXT
  5
8E26
330
1F
100
AcDbEntity
  8
0
  6
Continuous
 62
     7
370
    -3
100
AcDbText
 10
762.5914025327531
 20
268.976753148046
 30
0.0
 40
2.5
  1
 
 41
0.9
 72
     5
 11
764.8414025327531
 21
268.976753148046
 31
0.0
100
AcDbText
  0
TEXT
  5
8E27
330
1F
100
AcDbEntity
  8
0
  6
Continuous
 62
     7
370
    -3
100
AcDbText
 10
779.641402532756
 20
268.976753148046
 30
0.0
 40
2.5
  1
 
 41
0.9
 72
     5
 11
781.891402532756
 21
268.976753148046
 31
0.0
100
AcDbText
  0
TEXT
  5
8E28
330
1F
100
AcDbEntity
  8
0
  6
Continuous
 62
     7
370
    -3
100
AcDbText
 10
792.9414025327517
 20
268.976753148046
 30
0.0
 40
2.5
  1
 
 41
0.9
 72
     5
 11
795.1914025327517
 21
268.976753148046
 31
0.0
100
AcDbText
  0
TEXT
  5
8E29
330
1F
100
AcDbEntity
  8
0
  6
Continuous
 62
     7
370
    -3
100
AcDbText
 10
779.4414025327516
 20
259.0761499571457
 30
0.0
 40
3.5
  1
 
 41
0.9000000000004158
 72
     5
 11
782.5914025327531
 21
259.0761499571457
 31
0.0
100
AcDbText
  0
TEXT
  5
8E2A
330
1F
100
AcDbEntity
  8
0
  6
Continuous
 62
     7
370
    -3
100
AcDbText
 10
779.4414025327516
 20
248.3761499571459
 30
0.0
 40
3.5
  1
 
 41
0.9000000000004158
 72
     5
 11
782.5914025327531
 21
248.3761499571459
 31
0.0
100
AcDbText
  0
TEXT
  5
8E2B
330
1F
100
AcDbEntity
  8
0
  6
Continuous
 62
     7
370
    -3
100
AcDbText
 10
963.9181464825544
 20
262.4392304724455
 30
0.0
 40
3.0
  1
 
 41
0.8999999999990297
 72
     5
 11
966.6181464825514
 21
262.4392304724455
 31
0.0
100
AcDbText
  0
TEXT
  5
8E2C
330
1F
100
AcDbEntity
  8
0
  6
Continuous
 62
     7
370
    -3
100
AcDbText
 10
963.4681464825501
 20
268.089230472446
 30
0.0
 40
4.0
  1
 
 41
0.9000000000014551
 72
     5
 11
967.0681464825559
 21
268.089230472446
 31
0.0
100
AcDbText
  0
TEXT
  5
8E2D
330
1F
100
AcDbEntity
  8
0
  6
Continuous
 62
     7
370
    -3
100
AcDbText
 10
1766.13954917525
 20
-98.47628806402155
 30
0.0
 40
2.5
  1
 
 41
0.9
 72
     5
 11
1768.38954917525
 21
-98.47628806402155
 31
0.0
100
AcDbText
  0
TEXT
  5
8E2E
330
1F
100
AcDbEntity
  8
0
  6
Continuous
 62
     7
370
    -3
100
AcDbText
 10
1783.189549175246
 20
-98.47628806402155
 30
0.0
 40
2.5
  1
 
 41
0.9
 72
     5
 11
1785.439549175246
 21
-98.47628806402155
 31
0.0
100
AcDbText
  0
TEXT
  5
8E2F
330
1F
100
AcDbEntity
  8
0
  6
Continuous
 62
     7
370
    -3
100
AcDbText
 10
1796.489549175249
 20
-98.47628806402155
 30
0.0
 40
2.5
  1
 
 41
0.9
 72
     5
 11
1798.739549175249
 21
-98.47628806402155
 31
0.0
100
AcDbText
  0
TEXT
  5
8E30
330
1F
100
AcDbEntity
  8
0
  6
Continuous
 62
     7
370
    -3
100
AcDbText
 10
1782.989549175249
 20
-108.3768912549218
 30
0.0
 40
3.5
  1
 
 41
0.9000000000004158
 72
     5
 11
1786.13954917525
 21
-108.3768912549218
 31
0.0
100
AcDbText
  0
TEXT
  5
8E31
330
1F
100
AcDbEntity
  8
0
  6
Continuous
 62
     7
370
    -3
100
AcDbText
 10
1782.989549175249
 20
-119.0768912549216
 30
0.0
 40
3.5
  1
 
 41
0.9000000000004158
 72
     5
 11
1786.13954917525
 21
-119.0768912549216
 31
0.0
100
AcDbText
  0
TEXT
  5
8E32
330
1F
100
AcDbEntity
  8
0
  6
Continuous
 62
     7
370
    -3
100
AcDbText
 10
1967.466293125051
 20
-105.0138107396211
 30
0.0
 40
3.0
  1
 
 41
0.8999999999990297
 72
     5
 11
1970.166293125049
 21
-105.0138107396211
 31
0.0
100
AcDbText
  0
TEXT
  5
8E33
330
1F
100
AcDbEntity
  8
0
  6
Continuous
 62
     7
370
    -3
100
AcDbText
 10
1967.016293125047
 20
-99.3638107396215
 30
0.0
 40
4.0
  1
 
 41
0.8999999999996362
 72
     5
 11
1970.616293125045
 21
-99.3638107396215
 31
0.0
100
AcDbText
  0
TEXT
  5
8E34
330
1F
100
AcDbEntity
  8
0
  6
Continuous
 62
     7
370
    -3
100
AcDbText
 10
702.1215044413495
 20
285.1803396877461
 30
0.0
 40
2.5
  1
 
 41
0.9
 72
     5
 11
704.3715044413495
 21
285.1803396877461
 31
0.0
100
AcDbText
  0
TEXT
  5
8E35
330
1F
100
AcDbEntity
  8
0
  6
Continuous
 62
     7
370
    -3
100
AcDbText
 10
719.1715044413451
 20
285.1803396877461
 30
0.0
 40
2.5
  1
 
 41
0.9
 72
     5
 11
721.4215044413451
 21
285.1803396877461
 31
0.0
100
AcDbText
  0
TEXT
  5
8E36
330
1F
100
AcDbEntity
  8
0
  6
Continuous
 62
     7
370
    -3
100
AcDbText
 10
732.4715044413481
 20
285.1803396877461
 30
0.0
 40
2.5
  1
 
 41
0.9
 72
     5
 11
734.7215044413481
 21
285.1803396877461
 31
0.0
100
AcDbText
  0
TEXT
  5
8E37
330
1F
100
AcDbEntity
  8
0
  6
Continuous
 62
     7
370
    -3
100
AcDbText
 10
718.9715044413481
 20
275.2797364968459
 30
0.0
 40
3.5
  1
 
 41
0.9000000000004158
 72
     5
 11
722.1215044413495
 21
275.2797364968459
 31
0.0
100
AcDbText
  0
TEXT
  5
8E38
330
1F
100
AcDbEntity
  8
0
  6
Continuous
 62
     7
370
    -3
100
AcDbText
 10
718.9715044413481
 20
264.5797364968461
 30
0.0
 40
3.5
  1
 
 41
0.9000000000004158
 72
     5
 11
722.1215044413495
 21
264.5797364968461
 31
0.0
100
AcDbText
  0
TEXT
  5
8E39
330
1F
100
AcDbEntity
  8
0
  6
Continuous
 62
     7
370
    -3
100
AcDbText
 10
903.4482483911435
 20
278.6428170121457
 30
0.0
 40
3.0
  1
 
 41
0.9000000000014551
 72
     5
 11
906.1482483911479
 21
278.6428170121457
 31
0.0
100
AcDbText
  0
TEXT
  5
8E3A
330
1F
100
AcDbEntity
  8
0
  6
Continuous
 62
     7
370
    -3
100
AcDbText
 10
902.9982483911465
 20
284.2928170121462
 30
0.0
 40
4.0
  1
 
 41
0.8999999999996362
 72
     5
 11
906.5982483911451
 21
284.2928170121462
 31
0.0
100
AcDbText
  0
TEXT
  5
8E3B
330
1F
100
AcDbEntity
  8
0
  6
Continuous
 62
     7
370
    -3
100
AcDbText
 10
1705.669651083839
 20
-82.2727015243214
 30
0.0
 40
2.5
  1
 
 41
0.9
 72
     5
 11
1707.919651083839
 21
-82.2727015243214
 31
0.0
100
AcDbText
  0
TEXT
  5
8E3C
330
1F
100
AcDbEntity
  8
0
  6
Continuous
 62
     7
370
    -3
100
AcDbText
 10
1722.719651083842
 20
-82.2727015243214
 30
0.0
 40
2.5
  1
 
 41
0.9
 72
     5
 11
1724.969651083842
 21
-82.2727015243214
 31
0.0
100
AcDbText
  0
TEXT
  5
8E3D
330
1F
100
AcDbEntity
  8
0
  6
Continuous
 62
     7
370
    -3
100
AcDbText
 10
1736.019651083838
 20
-82.2727015243214
 30
0.0
 40
2.5
  1
 
 41
0.9
 72
     5
 11
1738.269651083838
 21
-82.2727015243214
 31
0.0
100
AcDbText
  0
TEXT
  5
8E3E
330
1F
100
AcDbEntity
  8
0
  6
Continuous
 62
     7
370
    -3
100
AcDbText
 10
1722.519651083838
 20
-92.17330471522165
 30
0.0
 40
3.5
  1
 
 41
0.9000000000004158
 72
     5
 11
1725.669651083839
 21
-92.17330471522165
 31
0.0
100
AcDbText
  0
TEXT
  5
8E3F
330
1F
100
AcDbEntity
  8
0
  6
Continuous
 62
     7
370
    -3
100
AcDbText
 10
1722.519651083838
 20
-102.8733047152215
 30
0.0
 40
3.5
  1
 
 41
0.9000000000004158
 72
     5
 11
1725.669651083839
 21
-102.8733047152215
 31
0.0
100
AcDbText
  0
TEXT
  5
8E40
330
1F
100
AcDbEntity
  8
0
  6
Continuous
 62
     7
370
    -3
100
AcDbText
 10
1906.996395033641
 20
-88.81022419992097
 30
0.0
 40
3.0
  1
 
 41
0.8999999999990297
 72
     5
 11
1909.696395033638
 21
-88.81022419992097
 31
0.0
100
AcDbText
  0
TEXT
  5
8E41
330
1F
100
AcDbEntity
  8
0
  6
Continuous
 62
     7
370
    -3
100
AcDbText
 10
1906.546395033643
 20
-83.16022419992135
 30
0.0
 40
4.0
  1
 
 41
0.8999999999996362
 72
     5
 11
1910.146395033642
 21
-83.16022419992135
 31
0.0
100
AcDbText
  0
TEXT
  5
8E42
330
1F
100
AcDbEntity
  8
0
  6
Continuous
 62
     7
370
    -3
100
AcDbText
 10
793.7376990158393
 20
319.1990045632659
 30
0.0
 40
2.5
  1
 
 41
0.9
 72
     5
 11
795.9876990158393
 21
319.1990045632659
 31
0.0
100
AcDbText
  0
TEXT
  5
8E43
330
1F
100
AcDbEntity
  8
0
  6
Continuous
 62
     7
370
    -3
100
AcDbText
 10
810.7876990158422
 20
319.1990045632659
 30
0.0
 40
2.5
  1
 
 41
0.9
 72
     5
 11
813.0376990158422
 21
319.1990045632659
 31
0.0
100
AcDbText
  0
TEXT
  5
8E44
330
1F
100
AcDbEntity
  8
0
  6
Continuous
 62
     7
370
    -3
100
AcDbText
 10
824.0876990158378
 20
319.1990045632659
 30
0.0
 40
2.5
  1
 
 41
0.9
 72
     5
 11
826.3376990158379
 21
319.1990045632659
 31
0.0
100
AcDbText
  0
TEXT
  5
8E45
330
1F
100
AcDbEntity
  8
0
  6
Continuous
 62
     7
370
    -3
100
AcDbText
 10
810.5876990158378
 20
309.2984013723657
 30
0.0
 40
3.5
  1
 
 41
0.9000000000004158
 72
     5
 11
813.7376990158394
 21
309.2984013723657
 31
0.0
100
AcDbText
  0
TEXT
  5
8E46
330
1F
100
AcDbEntity
  8
0
  6
Continuous
 62
     7
370
    -3
100
AcDbText
 10
810.5876990158378
 20
298.5984013723658
 30
0.0
 40
3.5
  1
 
 41
0.9000000000004158
 72
     5
 11
813.7376990158394
 21
298.5984013723658
 31
0.0
100
AcDbText
  0
TEXT
  5
8E47
330
1F
100
AcDbEntity
  8
0
  6
Continuous
 62
     7
370
    -3
100
AcDbText
 10
995.0644429656406
 20
312.6614818876659
 30
0.0
 40
3.0
  1
 
 41
0.8999999999990297
 72
     5
 11
997.7644429656377
 21
312.6614818876659
 31
0.0
100
AcDbText
  0
TEXT
  5
8E48
330
1F
100
AcDbEntity
  8
0
  6
Continuous
 62
     7
370
    -3
100
AcDbText
 10
994.6144429656362
 20
318.311481887666
 30
0.0
 40
4.0
  1
 
 41
0.9000000000014551
 72
     5
 11
998.214442965642
 21
318.311481887666
 31
0.0
100
AcDbText
  0
TEXT
  5
8E49
330
1F
100
AcDbEntity
  8
0
  6
Continuous
 62
     7
370
    -3
100
AcDbText
 10
1797.285845658336
 20
-48.25403664880162
 30
0.0
 40
2.5
  1
 
 41
0.9
 72
     5
 11
1799.535845658336
 21
-48.25403664880162
 31
0.0
100
AcDbText
  0
TEXT
  5
8E4A
330
1F
100
AcDbEntity
  8
0
  6
Continuous
 62
     7
370
    -3
100
AcDbText
 10
1814.335845658332
 20
-48.25403664880162
 30
0.0
 40
2.5
  1
 
 41
0.9
 72
     5
 11
1816.585845658332
 21
-48.25403664880162
 31
0.0
100
AcDbText
  0
TEXT
  5
8E4B
330
1F
100
AcDbEntity
  8
0
  6
Continuous
 62
     7
370
    -3
100
AcDbText
 10
1827.635845658335
 20
-48.25403664880162
 30
0.0
 40
2.5
  1
 
 41
0.9
 72
     5
 11
1829.885845658335
 21
-48.25403664880162
 31
0.0
100
AcDbText
  0
TEXT
  5
8E4C
330
1F
100
AcDbEntity
  8
0
  6
Continuous
 62
     7
370
    -3
100
AcDbText
 10
1814.135845658335
 20
-58.15463983970187
 30
0.0
 40
3.5
  1
 
 41
0.9000000000004158
 72
     5
 11
1817.285845658336
 21
-58.15463983970187
 31
0.0
100
AcDbText
  0
TEXT
  5
8E4D
330
1F
100
AcDbEntity
  8
0
  6
Continuous
 62
     7
370
    -3
100
AcDbText
 10
1814.135845658335
 20
-68.85463983970169
 30
0.0
 40
3.5
  1
 
 41
0.9000000000004158
 72
     5
 11
1817.285845658336
 21
-68.85463983970169
 31
0.0
100
AcDbText
  0
TEXT
  5
8E4E
330
1F
100
AcDbEntity
  8
0
  6
Continuous
 62
     7
370
    -3
100
AcDbText
 10
1998.612589608138
 20
-54.79155932440119
 30
0.0
 40
3.0
  1
 
 41
0.8999999999990297
 72
     5
 11
2001.312589608135
 21
-54.79155932440119
 31
0.0
100
AcDbText
  0
TEXT
  5
8E4F
330
1F
100
AcDbEntity
  8
0
  6
Continuous
 62
     7
370
    -3
100
AcDbText
 10
1998.162589608133
 20
-49.14155932440156
 30
0.0
 40
4.0
  1
 
 41
0.8999999999996362
 72
     5
 11
2001.762589608132
 21
-49.14155932440156
 31
0.0
100
AcDbText
  0
TEXT
  5
8E50
330
1F
100
AcDbEntity
  8
0
  6
Continuous
 62
     7
370
    -3
100
AcDbText
 10
1283.205830158122
 20
9.363166342358795
 30
0.0
 40
2.5
  1
 
 41
0.9
  7
TEXTSTYLE_1
 72
     5
 11
1285.455830158122
 21
9.363166342358795
 31
0.0
100
AcDbText
  0
TEXT
  5
8E51
330
1F
100
AcDbEntity
  8
0
  6
Continuous
 62
     7
370
    -3
100
AcDbText
 10
1300.255830158118
 20
9.363166342358795
 30
0.0
 40
2.5
  1
 
 41
0.9
  7
TEXTSTYLE_1
 72
     5
 11
1302.505830158118
 21
9.363166342358795
 31
0.0
100
AcDbText
  0
TEXT
  5
8E52
330
1F
100
AcDbEntity
  8
0
  6
Continuous
 62
     7
370
    -3
100
AcDbText
 10
1300.055830158121
 20
-0.5374368485414607
 30
0.0
 40
3.5
  1
 
 41
0.9000000000004158
  7
TEXTSTYLE_1
 72
     5
 11
1303.205830158122
 21
-0.5374368485414607
 31
0.0
100
AcDbText
  0
TEXT
  5
8E53
330
1F
100
AcDbEntity
  8
0
  6
Continuous
 62
     7
370
    -3
100
AcDbText
 10
1300.055830158121
 20
-11.23743684854128
 30
0.0
 40
3.5
  1
 
 41
0.9000000000004158
  7
TEXTSTYLE_1
 72
     5
 11
1303.205830158122
 21
-11.23743684854128
 31
0.0
100
AcDbText
  0
TEXT
  5
8E54
330
1F
100
AcDbEntity
  8
0
  6
Continuous
 62
     7
370
    -3
100
AcDbText
 10
1484.532574107923
 20
2.82564366675831
 30
0.0
 40
3.0
  1
 
 41
0.8999999999990297
  7
TEXTSTYLE_1
 72
     5
 11
1487.23257410792
 21
2.82564366675831
 31
0.0
100
AcDbText
  0
TEXT
  5
8E55
330
1F
100
AcDbEntity
  8
0
  6
Continuous
 62
     7
370
    -3
100
AcDbText
 10
1484.082574107919
 20
8.475643666757946
 30
0.0
 40
4.0
  1
 
 41
0.8999999999996362
  7
TEXTSTYLE_1
 72
     5
 11
1487.682574107918
 21
8.475643666757946
 31
0.0
100
AcDbText
  0
TEXT
  5
B3FA
330
1F
100
AcDbEntity
  8
0
 62
     7
100
AcDbText
 10
175.4791549439281
 20
130.6464521699588
 30
0.0
 40
4.5
  1
3A/290 BRACKET
100
AcDbText
1001
ACAD
1000
ACAD_MTEXT_DEFINED_HEIGHT_BEGIN
1070
    46
1040
0.0
1000
ACAD_MTEXT_DEFINED_HEIGHT_END
  0
TEXT
  5
B3FB
330
1F
100
AcDbEntity
  8
0
 62
     7
100
AcDbText
 10
210.4571283093313
 20
117.3447410512056
 30
0.0
 40
4.5
  1
709930
  7
ROMANS
100
AcDbText
  0
TEXT
  5
B3FC
330
1F
100
AcDbEntity
  8
0
 62
     7
100
AcDbText
 10
211.2836732723118
 20
105.8208130492423
 30
0.0
 40
4.5
  1
----
  7
ROMANS
100
AcDbText
  0
TEXT
  5
B3FD
330
1F
100
AcDbEntity
  8
0
 62
     7
100
AcDbText
 10
210.7163031356539
 20
93.47605914464322
 30
0.0
 40
4.5
  1
A4
  7
ROMANS
100
AcDbText
  0
TEXT
  5
B3FE
330
1F
100
AcDbEntity
  8
0
 62
     7
100
AcDbText
 10
211.1012002456806
 20
81.94601318712697
 30
0.0
 40
4.5
  1
A
  7
ROMANS
100
AcDbText
  0
INSERT
  5
B3FF
330
1F
100
AcDbEntity
  8
0
100
AcDbBlockReference
  2
Header box
 10
438.5512650754829
 20
77.76219128709664
 30
0.0
  0
LINE
  5
B400
330
1F
100
AcDbEntity
  8
COMPONENT
100
AcDbLine
 10
438.5512650754825
 20
77.76219128709664
 30
0.0
 11
438.5512650754825
 21
487.7621912870966
 31
0.0
  0
LINE
  5
B401
330
1F
100
AcDbEntity
  8
COMPONENT
100
AcDbLine
 10
148.1968756859849
 20
77.76219128709664
 30
0.0
 11
148.196875685985
 21
487.7621912870966
 31
0.0
  0
LINE
  5
B402
330
1F
100
AcDbEntity
  8
COMPONENT
100
AcDbLine
 10
148.196875685985
 20
487.7621912870966
 30
0.0
 11
438.5512650754825
 21
487.7621912870966
 31
0.0
  0
LINE
  5
B403
330
1F
100
AcDbEntity
  8
COMPONENT
100
AcDbLine
 10
148.1968756859849
 20
77.76219128709664
 30
0.0
 11
438.5512650754829
 21
77.76219128709664
 31
0.0
  0
LINE
  5
C7F8
330
1F
100
AcDbEntity
  8
Visible Edges(ISO)
100
AcDbLine
 10
238.56852883221
 20
202.3309825705933
 30
0.0
 11
238.7387906921039
 21
202.3323606299805
 31
0.0
  0
LINE
  5
C7F9
330
1F
100
AcDbEntity
  8
Visible Edges(ISO)
100
AcDbLine
 10
262.1860077393184
 20
202.3313068198609
 30
0.0
 11
262.268529177917
 21
202.3309825705933
 31
0.0
  0
LINE
  5
C7FA
330
1F
100
AcDbEntity
  8
Visible Edges(ISO)
100
AcDbLine
 10
262.0982583773265
 20
202.3323606299805
 30
0.0
 11
262.1860077393184
 21
202.3313068198609
 31
0.0
  0
LINE
  5
C7FB
330
1F
100
AcDbEntity
  8
Hidden
 48
0.5
100
AcDbLine
 10
222.8685293090473
 20
259.4309804725108
 30
0.0
 11
222.8685293090473
 21
251.4309804725098
 31
0.0
  0
LINE
  5
C7FC
330
1F
100
AcDbEntity
  8
Hidden
 48
0.5
100
AcDbLine
 10
214.4685293090473
 20
259.4309804725108
 30
0.0
 11
214.4685293090473
 21
251.4309804725098
 31
0.0
  0
LINE
  5
C7FD
330
1F
100
AcDbEntity
  8
Hidden
 48
0.5
100
AcDbLine
 10
286.3685293090473
 20
259.4309804725108
 30
0.0
 11
286.3685293090473
 21
251.4309804725098
 31
0.0
  0
LINE
  5
C7FE
330
1F
100
AcDbEntity
  8
Hidden
 48
0.5
100
AcDbLine
 10
277.9685293090472
 20
259.4309804725108
 30
0.0
 11
277.9685293090472
 21
251.4309804725098
 31
0.0
  0
LINE
  5
C7FF
330
1F
100
AcDbEntity
  8
Visible Edges(ISO)
100
AcDbLine
 10
209.1685293090472
 20
259.4309804725108
 30
0.0
 11
215.5685293090472
 21
259.4309804725108
 31
0.0
  0
LINE
  5
C800
330
1F
100
AcDbEntity
  8
Visible Edges(ISO)
100
AcDbLine
 10
285.2685293090473
 20
259.4309804725108
 30
0.0
 11
215.5685293090472
 21
259.4309804725108
 31
0.0
  0
LINE
  5
C801
330
1F
100
AcDbEntity
  8
Visible Edges(ISO)
100
AcDbLine
 10
291.6685293090472
 20
259.4309804725108
 30
0.0
 11
285.2685293090473
 21
259.4309804725108
 31
0.0
  0
LINE
  5
C802
330
1F
100
AcDbEntity
  8
Visible Edges(ISO)
100
AcDbLine
 10
291.6685293090472
 20
251.4309804725098
 30
0.0
 11
285.2685293090473
 21
251.4309804725098
 31
0.0
  0
LINE
  5
C803
330
1F
100
AcDbEntity
  8
Visible Edges(ISO)
100
AcDbLine
 10
276.0506374175272
 20
251.4309804725098
 30
0.0
 11
285.2685293090473
 21
251.4309804725098
 31
0.0
  0
LINE
  5
C804
330
1F
100
AcDbEntity
  8
Visible Edges(ISO)
100
AcDbLine
 10
275.4165493460793
 20
215.1040991888198
 30
0.0
 11
276.0506374175272
 21
251.4309804725098
 31
0.0
  0
ARC
  5
C805
330
1F
100
AcDbEntity
  8
Visible Edges(ISO)
100
AcDbCircle
 10
238.4185293090472
 20
215.3309804725098
 30
0.0
 40
13.00000000000001
100
AcDbArc
 50
181.0000000000229
 51
270.0
  0
LINE
  5
C806
330
1F
100
AcDbEntity
  8
Visible Edges(ISO)
100
AcDbLine
 10
224.7864212005672
 20
251.4309804725098
 30
0.0
 11
225.4205092720173
 21
215.1040991888198
 31
0.0
  0
LINE
  5
C807
330
1F
100
AcDbEntity
  8
Visible Edges(ISO)
100
AcDbLine
 10
215.5685293090472
 20
251.4309804725098
 30
0.0
 11
224.7864212005672
 21
251.4309804725098
 31
0.0
  0
LINE
  5
C808
330
1F
100
AcDbEntity
  8
Visible Edges(ISO)
100
AcDbLine
 10
209.1685293090472
 20
251.4309804725098
 30
0.0
 11
215.5685293090472
 21
251.4309804725098
 31
0.0
  0
LINE
  5
C809
330
1F
100
AcDbEntity
  8
Visible Edges(ISO)
100
AcDbLine
 10
238.4185293090472
 20
202.3309804725098
 30
0.0
 11
242.8421158247372
 21
202.3309804725098
 31
0.0
  0
LINE
  5
C80A
330
1F
100
AcDbEntity
  8
Visible Edges(ISO)
100
AcDbLine
 10
242.8421158247372
 20
202.3309804725098
 30
0.0
 11
244.6675674147273
 21
205.4927553731198
 31
0.0
  0
ARC
  5
C80B
330
1F
100
AcDbEntity
  8
Visible Edges(ISO)
100
AcDbCircle
 10
243.3685293090473
 20
206.2427553731198
 30
0.0
 40
1.499999999998993
100
AcDbArc
 50
330.0000000000637
 51
124.1232945406854
  0
ARC
  5
C80C
330
1F
100
AcDbEntity
  8
Visible Edges(ISO)
100
AcDbCircle
 10
238.7685293090473
 20
213.0309804725099
 30
0.0
 40
6.700000000001006
100
AcDbArc
 50
180.0
 51
304.1232945408241
  0
LINE
  5
C80D
330
1F
100
AcDbEntity
  8
Visible Edges(ISO)
100
AcDbLine
 10
232.0685293090472
 20
213.0309804725098
 30
0.0
 11
232.0685293090472
 21
249.5309804725098
 31
0.0
  0
ARC
  5
C80E
330
1F
100
AcDbEntity
  8
Visible Edges(ISO)
100
AcDbCircle
 10
235.2685293090473
 20
249.5309804725098
 30
0.0
 40
3.200000000000002
100
AcDbArc
 50
90.0
 51
180.0
  0
LINE
  5
C80F
330
1F
100
AcDbEntity
  8
Visible Edges(ISO)
100
AcDbLine
 10
235.2685293090473
 20
252.7309804725098
 30
0.0
 11
240.4185293090472
 21
252.7309804725098
 31
0.0
  0
LINE
  5
C810
330
1F
100
AcDbEntity
  8
Visible Edges(ISO)
100
AcDbLine
 10
240.4185293090472
 20
252.7309804725098
 30
0.0
 11
240.4185293090472
 21
254.7309804725118
 31
0.0
  0
LINE
  5
C811
330
1F
100
AcDbEntity
  8
Visible Edges(ISO)
100
AcDbLine
 10
240.4185293090472
 20
254.7309804725118
 30
0.0
 11
260.4185293090472
 21
254.7309804725118
 31
0.0
  0
LINE
  5
C812
330
1F
100
AcDbEntity
  8
Visible Edges(ISO)
100
AcDbLine
 10
260.4185293090472
 20
254.7309804725118
 30
0.0
 11
260.4185293090472
 21
252.7309804725098
 31
0.0
  0
LINE
  5
C813
330
1F
100
AcDbEntity
  8
Visible Edges(ISO)
100
AcDbLine
 10
260.4185293090472
 20
252.7309804725098
 30
0.0
 11
265.5685293090472
 21
252.7309804725098
 31
0.0
  0
ARC
  5
C814
330
1F
100
AcDbEntity
  8
Visible Edges(ISO)
100
AcDbCircle
 10
265.5685293090472
 20
249.5309804725098
 30
0.0
 40
3.2
100
AcDbArc
 50
0.0
 51
90.0
  0
LINE
  5
C815
330
1F
100
AcDbEntity
  8
Visible Edges(ISO)
100
AcDbLine
 10
268.7685293090473
 20
249.5309804725098
 30
0.0
 11
268.7685293090473
 21
213.0309804725098
 31
0.0
  0
ARC
  5
C816
330
1F
100
AcDbEntity
  8
Visible Edges(ISO)
100
AcDbCircle
 10
262.0685293090462
 20
213.0309804725098
 30
0.0
 40
6.700000000001002
100
AcDbArc
 50
235.8767054592043
 51
0.0
  0
ARC
  5
C817
330
1F
100
AcDbEntity
  8
Visible Edges(ISO)
100
AcDbCircle
 10
257.4685293090463
 20
206.2427553731198
 30
0.0
 40
1.499999999999
100
AcDbArc
 50
55.87670545918761
 51
210.0000000000318
  0
LINE
  5
C818
330
1F
100
AcDbEntity
  8
Visible Edges(ISO)
100
AcDbLine
 10
256.1694912033713
 20
205.4927553731198
 30
0.0
 11
257.9949427933542
 21
202.3309804725098
 31
0.0
  0
LINE
  5
C819
330
1F
100
AcDbEntity
  8
Visible Edges(ISO)
100
AcDbLine
 10
257.9949427933542
 20
202.3309804725098
 30
0.0
 11
262.4185293090472
 21
202.3309804725098
 31
0.0
  0
ARC
  5
C81A
330
1F
100
AcDbEntity
  8
Visible Edges(ISO)
100
AcDbCircle
 10
262.4185293090472
 20
215.3309804725098
 30
0.0
 40
13.0
100
AcDbArc
 50
270.0
 51
358.999999999977
  0
LINE
  5
C81B
330
1F
100
AcDbEntity
  8
Visible Edges(ISO)
100
AcDbLine
 10
209.1685293090472
 20
259.4309804725108
 30
0.0
 11
209.1685293090472
 21
251.4309804725098
 31
0.0
  0
LINE
  5
C81C
330
1F
100
AcDbEntity
  8
Visible Edges(ISO)
100
AcDbLine
 10
291.6685293090472
 20
251.4309804725098
 30
0.0
 11
291.6685293090472
 21
259.4309804725108
 31
0.0
  0
LINE
  5
C81D
330
1F
100
AcDbEntity
  8
Visible Edges(ISO)
100
AcDbLine
 10
371.5342445328142
 20
251.4309804725098
 30
0.0
 11
371.5342445328142
 21
259.4309804725108
 31
0.0
  0
LINE
  5
C81E
330
1F
100
AcDbEntity
  8
Visible Edges(ISO)
100
AcDbLine
 10
371.5342445328113
 20
215.1040991888198
 30
0.0
 11
371.5342445328115
 21
251.4309804725098
 31
0.0
  0
LINE
  5
C81F
330
1F
100
AcDbEntity
  8
Visible Edges(ISO)
100
AcDbLine
 10
371.5342445328113
 20
215.1040991888198
 30
0.0
 11
371.5342445328074
 21
202.3309804725098
 31
0.0
  0
LINE
  5
C820
330
1F
100
AcDbEntity
  8
Visible Edges(ISO)
100
AcDbLine
 10
345.9342445328161
 20
259.4309804725108
 30
0.0
 11
339.5342445328142
 21
259.4309804725108
 31
0.0
  0
LINE
  5
C821
330
1F
100
AcDbEntity
  8
Visible Edges(ISO)
100
AcDbLine
 10
365.1342445328161
 20
259.4309804725108
 30
0.0
 11
345.9342445328161
 21
259.4309804725108
 31
0.0
  0
LINE
  5
C822
330
1F
100
AcDbEntity
  8
Visible Edges(ISO)
100
AcDbLine
 10
365.1342445328161
 20
259.4309804725108
 30
0.0
 11
371.5342445328142
 21
259.4309804725108
 31
0.0
  0
LINE
  5
C823
330
1F
100
AcDbEntity
  8
Visible Edges(ISO)
100
AcDbLine
 10
365.1342445328161
 20
251.4309804725098
 30
0.0
 11
371.5342445328142
 21
251.4309804725098
 31
0.0
  0
LINE
  5
C824
330
1F
100
AcDbEntity
  8
Visible Edges(ISO)
100
AcDbLine
 10
365.1342445328161
 20
251.4309804725098
 30
0.0
 11
345.9342445328161
 21
251.4309804725098
 31
0.0
  0
LINE
  5
C825
330
1F
100
AcDbEntity
  8
Visible Edges(ISO)
100
AcDbLine
 10
345.9342445328161
 20
251.4309804725098
 30
0.0
 11
339.5342445328142
 21
251.4309804725098
 31
0.0
  0
LINE
  5
C826
330
1F
100
AcDbEntity
  8
Visible Edges(ISO)
100
AcDbLine
 10
342.7342445328112
 20
215.1040991888198
 30
0.0
 11
342.7342445328114
 21
250.7309804725098
 31
0.0
  0
POLYLINE
  5
C827
330
1F
100
AcDbEntity
  8
Visible Edges(ISO)
100
AcDb2dPolyline
 66
     1
 10
0.0
 20
0.0
 30
0.0
 70
   128
  0
VERTEX
  5
C828
330
C827
100
AcDbEntity
  8
Visible Edges(ISO)
100
AcDbVertex
100
AcDb2dVertex
 10
342.7342433884023
 20
250.7309804456877
 30
0.0
  0
VERTEX
  5
C829
330
C827
100
AcDbEntity
  8
Visible Edges(ISO)
100
AcDbVertex
100
AcDb2dVertex
 10
342.73643683933
 20
250.7871163236546
 30
0.0
  0
VERTEX
  5
C82A
330
C827
100
AcDbEntity
  8
Visible Edges(ISO)
100
AcDbVertex
100
AcDb2dVertex
 10
342.7425999595998
 20
250.8392832028317
 30
0.0
  0
VERTEX
  5
C82B
330
C827
100
AcDbEntity
  8
Visible Edges(ISO)
100
AcDbVertex
100
AcDb2dVertex
 10
342.7521080925344
 20
250.8881071555066
 30
0.0
  0
VERTEX
  5
C82C
330
C827
100
AcDbEntity
  8
Visible Edges(ISO)
100
AcDbVertex
100
AcDb2dVertex
 10
342.7643985702871
 20
250.934146975224
 30
0.0
  0
VERTEX
  5
C82D
330
C827
100
AcDbEntity
  8
Visible Edges(ISO)
100
AcDbVertex
100
AcDb2dVertex
 10
342.7791805221914
 20
250.9776945757317
 30
0.0
  0
VERTEX
  5
C82E
330
C827
100
AcDbEntity
  8
Visible Edges(ISO)
100
AcDbVertex
100
AcDb2dVertex
 10
342.7962322189687
 20
251.0189751135754
 30
0.0
  0
VERTEX
  5
C82F
330
C827
100
AcDbEntity
  8
Visible Edges(ISO)
100
AcDbVertex
100
AcDb2dVertex
 10
342.8153533890127
 20
251.0581869232106
 30
0.0
  0
VERTEX
  5
C830
330
C827
100
AcDbEntity
  8
Visible Edges(ISO)
100
AcDbVertex
100
AcDb2dVertex
 10
342.8364486648916
 20
251.0954232859063
 30
0.0
  0
VERTEX
  5
C831
330
C827
100
AcDbEntity
  8
Visible Edges(ISO)
100
AcDbVertex
100
AcDb2dVertex
 10
342.8594536735891
 20
251.1307505118298
 30
0.0
  0
VERTEX
  5
C832
330
C827
100
AcDbEntity
  8
Visible Edges(ISO)
100
AcDbVertex
100
AcDb2dVertex
 10
342.8843016579031
 20
251.1642353581834
 30
0.0
  0
VERTEX
  5
C833
330
C827
100
AcDbEntity
  8
Visible Edges(ISO)
100
AcDbVertex
100
AcDb2dVertex
 10
342.9109258606313
 20
251.1959444331574
 30
0.0
  0
VERTEX
  5
C834
330
C827
100
AcDbEntity
  8
Visible Edges(ISO)
100
AcDbVertex
100
AcDb2dVertex
 10
342.9392595245718
 20
251.2259441959309
 30
0.0
  0
VERTEX
  5
C835
330
C827
100
AcDbEntity
  8
Visible Edges(ISO)
100
AcDbVertex
100
AcDb2dVertex
 10
342.9692573501943
 20
251.2542790519642
 30
0.0
  0
VERTEX
  5
C836
330
C827
100
AcDbEntity
  8
Visible Edges(ISO)
100
AcDbVertex
100
AcDb2dVertex
 10
343.000964637029
 20
251.2809047448087
 30
0.0
  0
VERTEX
  5
C837
330
C827
100
AcDbEntity
  8
Visible Edges(ISO)
100
AcDbVertex
100
AcDb2dVertex
 10
343.0344505264638
 20
251.3057543682503
 30
0.0
  0
VERTEX
  5
C838
330
C827
100
AcDbEntity
  8
Visible Edges(ISO)
100
AcDbVertex
100
AcDb2dVertex
 10
343.0697770073293
 20
251.3287614631104
 30
0.0
  0
VERTEX
  5
C839
330
C827
100
AcDbEntity
  8
Visible Edges(ISO)
100
AcDbVertex
100
AcDb2dVertex
 10
343.1070132210134
 20
251.3498594211983
 30
0.0
  0
VERTEX
  5
C83A
330
C827
100
AcDbEntity
  8
Visible Edges(ISO)
100
AcDbVertex
100
AcDb2dVertex
 10
343.1462259247183
 20
251.3689816343236
 30
0.0
  0
VERTEX
  5
C83B
330
C827
100
AcDbEntity
  8
Visible Edges(ISO)
100
AcDbVertex
100
AcDb2dVertex
 10
343.1875081016897
 20
251.3860349702286
 30
0.0
  0
VERTEX
  5
C83C
330
C827
100
AcDbEntity
  8
Visible Edges(ISO)
100
AcDbVertex
100
AcDb2dVertex
 10
343.2310576393484
 20
251.4008206474232
 30
0.0
  0
VERTEX
  5
C83D
330
C827
100
AcDbEntity
  8
Visible Edges(ISO)
100
AcDbVertex
100
AcDb2dVertex
 10
343.2771010353445
 20
251.413113807385
 30
0.0
  0
VERTEX
  5
C83E
330
C827
100
AcDbEntity
  8
Visible Edges(ISO)
100
AcDbVertex
100
AcDb2dVertex
 10
343.3259291603445
 20
251.4226222383427
 30
0.0
  0
VERTEX
  5
C83F
330
C827
100
AcDbEntity
  8
Visible Edges(ISO)
100
AcDbVertex
100
AcDb2dVertex
 10
343.3780999138235
 20
251.4287865507054
 30
0.0
  0
VERTEX
  5
C840
330
C827
100
AcDbEntity
  8
Visible Edges(ISO)
100
AcDbVertex
100
AcDb2dVertex
 10
343.4342451050161
 20
251.430980448668
 30
0.0
  0
SEQEND
  5
C841
330
C827
100
AcDbEntity
  8
Visible Edges(ISO)
  0
LINE
  5
C842
330
1F
100
AcDbEntity
  8
Visible Edges(ISO)
100
AcDbLine
 10
339.5342445328113
 20
215.1040991888198
 30
0.0
 11
339.5342445328115
 21
251.4309804725098
 31
0.0
  0
LINE
  5
C843
330
1F
100
AcDbEntity
  8
Visible Edges(ISO)
100
AcDbLine
 10
368.3342445328112
 20
215.1040991888198
 30
0.0
 11
368.3342445328114
 21
250.7309804725098
 31
0.0
  0
POLYLINE
  5
C844
330
1F
100
AcDbEntity
  8
Visible Edges(ISO)
100
AcDb2dPolyline
 66
     1
 10
0.0
 20
0.0
 30
0.0
 70
   128
  0
VERTEX
  5
C845
330
C844
100
AcDbEntity
  8
Visible Edges(ISO)
100
AcDbVertex
100
AcDb2dVertex
 10
368.334244604337
 20
250.7309804456877
 30
0.0
  0
VERTEX
  5
C846
330
C844
100
AcDbEntity
  8
Visible Edges(ISO)
100
AcDbVertex
100
AcDb2dVertex
 10
368.3320511534093
 20
250.7871163236546
 30
0.0
  0
VERTEX
  5
C847
330
C844
100
AcDbEntity
  8
Visible Edges(ISO)
100
AcDbVertex
100
AcDb2dVertex
 10
368.3258883311627
 20
250.8392832028317
 30
0.0
  0
VERTEX
  5
C848
330
C844
100
AcDbEntity
  8
Visible Edges(ISO)
100
AcDbVertex
100
AcDb2dVertex
 10
368.3163816883443
 20
250.8881071555066
 30
0.0
  0
VERTEX
  5
C849
330
C844
100
AcDbEntity
  8
Visible Edges(ISO)
100
AcDbVertex
100
AcDb2dVertex
 10
368.3040909125684
 20
250.934146975224
 30
0.0
  0
VERTEX
  5
C84A
330
C844
100
AcDbEntity
  8
Visible Edges(ISO)
100
AcDbVertex
100
AcDb2dVertex
 10
368.2893074705479
 20
250.9776945757317
 30
0.0
  0
VERTEX
  5
C84B
330
C844
100
AcDbEntity
  8
Visible Edges(ISO)
100
AcDbVertex
100
AcDb2dVertex
 10
368.2722563698171
 20
251.0189751135754
 30
0.0
  0
VERTEX
  5
C84C
330
C844
100
AcDbEntity
  8
Visible Edges(ISO)
100
AcDbVertex
100
AcDb2dVertex
 10
368.253136391866
 20
251.0581869232106
 30
0.0
  0
VERTEX
  5
C84D
330
C844
100
AcDbEntity
  8
Visible Edges(ISO)
100
AcDbVertex
100
AcDb2dVertex
 10
368.2320405199407
 20
251.0954232859063
 30
0.0
  0
VERTEX
  5
C84E
330
C844
100
AcDbEntity
  8
Visible Edges(ISO)
100
AcDbVertex
100
AcDb2dVertex
 10
368.2090355112431
 20
251.1307505118298
 30
0.0
  0
VERTEX
  5
C84F
330
C844
100
AcDbEntity
  8
Visible Edges(ISO)
100
AcDbVertex
100
AcDb2dVertex
 10
368.1841878249524
 20
251.1642353581834
 30
0.0
  0
VERTEX
  5
C850
330
C844
100
AcDbEntity
  8
Visible Edges(ISO)
100
AcDbVertex
100
AcDb2dVertex
 10
368.1575636222242
 20
251.1959444331574
 30
0.0
  0
VERTEX
  5
C851
330
C844
100
AcDbEntity
  8
Visible Edges(ISO)
100
AcDbVertex
100
AcDb2dVertex
 10
368.129230256307
 20
251.2259441959309
 30
0.0
  0
VERTEX
  5
C852
330
C844
100
AcDbEntity
  8
Visible Edges(ISO)
100
AcDbVertex
100
AcDb2dVertex
 10
368.099231834638
 20
251.2542790519642
 30
0.0
  0
VERTEX
  5
C853
330
C844
100
AcDbEntity
  8
Visible Edges(ISO)
100
AcDbVertex
100
AcDb2dVertex
 10
368.0675236537336
 20
251.2809047448087
 30
0.0
  0
VERTEX
  5
C854
330
C844
100
AcDbEntity
  8
Visible Edges(ISO)
100
AcDbVertex
100
AcDb2dVertex
 10
368.0340392544149
 20
251.3057543682503
 30
0.0
  0
VERTEX
  5
C855
330
C844
100
AcDbEntity
  8
Visible Edges(ISO)
100
AcDbVertex
100
AcDb2dVertex
 10
367.998712177503
 20
251.3287614631104
 30
0.0
  0
VERTEX
  5
C856
330
C844
100
AcDbEntity
  8
Visible Edges(ISO)
100
AcDbVertex
100
AcDb2dVertex
 10
367.9614756657957
 20
251.3498594211983
 30
0.0
  0
VERTEX
  5
C857
330
C844
100
AcDbEntity
  8
Visible Edges(ISO)
100
AcDbVertex
100
AcDb2dVertex
 10
367.9222629620908
 20
251.3689816343236
 30
0.0
  0
VERTEX
  5
C858
330
C844
100
AcDbEntity
  8
Visible Edges(ISO)
100
AcDbVertex
100
AcDb2dVertex
 10
367.8809810831426
 20
251.3860349702286
 30
0.0
  0
VERTEX
  5
C859
330
C844
100
AcDbEntity
  8
Visible Edges(ISO)
100
AcDbVertex
100
AcDb2dVertex
 10
367.8374312474607
 20
251.4008206474232
 30
0.0
  0
VERTEX
  5
C85A
330
C844
100
AcDbEntity
  8
Visible Edges(ISO)
100
AcDbVertex
100
AcDb2dVertex
 10
367.7913884475111
 20
251.413113807385
 30
0.0
  0
VERTEX
  5
C85B
330
C844
100
AcDbEntity
  8
Visible Edges(ISO)
100
AcDbVertex
100
AcDb2dVertex
 10
367.7425606205343
 20
251.4226222383427
 30
0.0
  0
VERTEX
  5
C85C
330
C844
100
AcDbEntity
  8
Visible Edges(ISO)
100
AcDbVertex
100
AcDb2dVertex
 10
367.6903880789159
 20
251.4287865507054
 30
0.0
  0
VERTEX
  5
C85D
330
C844
100
AcDbEntity
  8
Visible Edges(ISO)
100
AcDbVertex
100
AcDb2dVertex
 10
367.6342446758626
 20
251.430980448668
 30
0.0
  0
SEQEND
  5
C85E
330
C844
100
AcDbEntity
  8
Visible Edges(ISO)
  0
LINE
  5
C85F
330
1F
100
AcDbEntity
  8
Visible Edges(ISO)
100
AcDbLine
 10
342.7342445328112
 20
215.1040991888198
 30
0.0
 11
342.7342445328077
 21
202.3915421190832
 31
0.0
  0
LINE
  5
C860
330
1F
100
AcDbEntity
  8
Visible Edges(ISO)
100
AcDbLine
 10
368.3342445328112
 20
215.1040991888198
 30
0.0
 11
368.3342445328078
 21
202.3915412877395
 31
0.0
  0
LINE
  5
C861
330
1F
100
AcDbEntity
  8
Visible Edges(ISO)
100
AcDbLine
 10
339.5342445328113
 20
215.1040991888198
 30
0.0
 11
339.5342445328074
 21
202.3309804725098
 31
0.0
  0
LINE
  5
C862
330
1F
100
AcDbEntity
  8
Visible Edges(ISO)
100
AcDbLine
 10
339.5342445328142
 20
251.4309804725098
 30
0.0
 11
339.5342445328142
 21
259.4309804725108
 31
0.0
  0
LINE
  5
C863
330
1F
100
AcDbEntity
  8
Visible Edges(ISO)
100
AcDbLine
 10
342.7608909063374
 20
202.3309804725098
 30
0.0
 11
339.5342445328074
 21
202.3309804725098
 31
0.0
  0
POLYLINE
  5
C864
330
1F
100
AcDbEntity
  8
Visible Edges(ISO)
100
AcDb2dPolyline
 66
     1
 10
0.0
 20
0.0
 30
0.0
 70
   128
  0
VERTEX
  5
C865
330
C864
100
AcDbEntity
  8
Visible Edges(ISO)
100
AcDbVertex
100
AcDb2dVertex
 10
342.7342433883986
 20
202.3915408896851
 30
0.0
  0
VERTEX
  5
C866
330
C864
100
AcDbEntity
  8
Visible Edges(ISO)
100
AcDbVertex
100
AcDb2dVertex
 10
342.7342719986281
 20
202.3848079490113
 30
0.0
  0
VERTEX
  5
C867
330
C864
100
AcDbEntity
  8
Visible Edges(ISO)
100
AcDbVertex
100
AcDb2dVertex
 10
342.7343554451308
 20
202.3786472129273
 30
0.0
  0
VERTEX
  5
C868
330
C864
100
AcDbEntity
  8
Visible Edges(ISO)
100
AcDbVertex
100
AcDb2dVertex
 10
342.7344865753492
 20
202.3730205344605
 30
0.0
  0
VERTEX
  5
C869
330
C864
100
AcDbEntity
  8
Visible Edges(ISO)
100
AcDbVertex
100
AcDb2dVertex
 10
342.7346630050977
 20
202.3679088401246
 30
0.0
  0
VERTEX
  5
C86A
330
C864
100
AcDbEntity
  8
Visible Edges(ISO)
100
AcDbVertex
100
AcDb2dVertex
 10
342.7348847343763
 20
202.3632739829468
 30
0.0
  0
VERTEX
  5
C86B
330
C864
100
AcDbEntity
  8
Visible Edges(ISO)
100
AcDbVertex
100
AcDb2dVertex
 10
342.7351589157423
 20
202.3590730475831
 30
0.0
  0
VERTEX
  5
C86C
330
C864
100
AcDbEntity
  8
Visible Edges(ISO)
100
AcDbVertex
100
AcDb2dVertex
 10
342.7354903175672
 20
202.3552821921754
 30
0.0
  0
VERTEX
  5
C86D
330
C864
100
AcDbEntity
  8
Visible Edges(ISO)
100
AcDbVertex
100
AcDb2dVertex
 10
342.7358765556653
 20
202.3518585013795
 30
0.0
  0
VERTEX
  5
C86E
330
C864
100
AcDbEntity
  8
Visible Edges(ISO)
100
AcDbVertex
100
AcDb2dVertex
 10
342.7362914039929
 20
202.3487781333375
 30
0.0
  0
VERTEX
  5
C86F
330
C864
100
AcDbEntity
  8
Visible Edges(ISO)
100
AcDbVertex
100
AcDb2dVertex
 10
342.7367110206921
 20
202.3460220145631
 30
0.0
  0
VERTEX
  5
C870
330
C864
100
AcDbEntity
  8
Visible Edges(ISO)
100
AcDbVertex
100
AcDb2dVertex
 10
342.7371091797192
 20
202.3435615348267
 30
0.0
  0
VERTEX
  5
C871
330
C864
100
AcDbEntity
  8
Visible Edges(ISO)
100
AcDbVertex
100
AcDb2dVertex
 10
342.7375502540905
 20
202.3413823890138
 30
0.0
  0
VERTEX
  5
C872
330
C864
100
AcDbEntity
  8
Visible Edges(ISO)
100
AcDbVertex
100
AcDb2dVertex
 10
342.7381319954236
 20
202.3394559668946
 30
0.0
  0
VERTEX
  5
C873
330
C864
100
AcDbEntity
  8
Visible Edges(ISO)
100
AcDbVertex
100
AcDb2dVertex
 10
342.7389569237072
 20
202.3377775000977
 30
0.0
  0
VERTEX
  5
C874
330
C864
100
AcDbEntity
  8
Visible Edges(ISO)
100
AcDbVertex
100
AcDb2dVertex
 10
342.739963050111
 20
202.3363183783936
 30
0.0
  0
VERTEX
  5
C875
330
C864
100
AcDbEntity
  8
Visible Edges(ISO)
100
AcDbVertex
100
AcDb2dVertex
 10
342.7407951309521
 20
202.3350690650391
 30
0.0
  0
VERTEX
  5
C876
330
C864
100
AcDbEntity
  8
Visible Edges(ISO)
100
AcDbVertex
100
AcDb2dVertex
 10
342.741069312318
 20
202.3340200232911
 30
0.0
  0
VERTEX
  5
C877
330
C864
100
AcDbEntity
  8
Visible Edges(ISO)
100
AcDbVertex
100
AcDb2dVertex
 10
342.7405948593456
 20
202.33314264292
 30
0.0
  0
VERTEX
  5
C878
330
C864
100
AcDbEntity
  8
Visible Edges(ISO)
100
AcDbVertex
100
AcDb2dVertex
 10
342.7403635933238
 20
202.3324369239258
 30
0.0
  0
VERTEX
  5
C879
330
C864
100
AcDbEntity
  8
Visible Edges(ISO)
100
AcDbVertex
100
AcDb2dVertex
 10
342.7418227150279
 20
202.3318837928223
 30
0.0
  0
VERTEX
  5
C87A
330
C864
100
AcDbEntity
  8
Visible Edges(ISO)
100
AcDbVertex
100
AcDb2dVertex
 10
342.7463550522166
 20
202.3314689444947
 30
0.0
  0
VERTEX
  5
C87B
330
C864
100
AcDbEntity
  8
Visible Edges(ISO)
100
AcDbVertex
100
AcDb2dVertex
 10
342.753240580781
 20
202.3311923789429
 30
0.0
  0
VERTEX
  5
C87C
330
C864
100
AcDbEntity
  8
Visible Edges(ISO)
100
AcDbVertex
100
AcDb2dVertex
 10
342.7592201187449
 20
202.3310302543091
 30
0.0
  0
VERTEX
  5
C87D
330
C864
100
AcDbEntity
  8
Visible Edges(ISO)
100
AcDbVertex
100
AcDb2dVertex
 10
342.7608914329844
 20
202.3309825705933
 30
0.0
  0
SEQEND
  5
C87E
330
C864
100
AcDbEntity
  8
Visible Edges(ISO)
  0
POLYLINE
  5
C87F
330
1F
100
AcDbEntity
  8
Visible Edges(ISO)
100
AcDb2dPolyline
 66
     1
 10
0.0
 20
0.0
 30
0.0
 70
   128
  0
VERTEX
  5
C880
330
C87F
100
AcDbEntity
  8
Visible Edges(ISO)
100
AcDbVertex
100
AcDb2dVertex
 10
368.3342446043333
 20
202.3915408896851
 30
0.0
  0
VERTEX
  5
C881
330
C87F
100
AcDbEntity
  8
Visible Edges(ISO)
100
AcDbVertex
100
AcDb2dVertex
 10
368.3342159941038
 20
202.3848079490113
 30
0.0
  0
VERTEX
  5
C882
330
C87F
100
AcDbEntity
  8
Visible Edges(ISO)
100
AcDbVertex
100
AcDb2dVertex
 10
368.3341334416708
 20
202.3786472129273
 30
0.0
  0
VERTEX
  5
C883
330
C87F
100
AcDbEntity
  8
Visible Edges(ISO)
100
AcDbVertex
100
AcDb2dVertex
 10
368.334002013429
 20
202.3730205344605
 30
0.0
  0
VERTEX
  5
C884
330
C87F
100
AcDbEntity
  8
Visible Edges(ISO)
100
AcDbVertex
100
AcDb2dVertex
 10
368.3338258817037
 20
202.3679088401246
 30
0.0
  0
VERTEX
  5
C885
330
C87F
100
AcDbEntity
  8
Visible Edges(ISO)
100
AcDbVertex
100
AcDb2dVertex
 10
368.3336041524252
 20
202.3632739829468
 30
0.0
  0
VERTEX
  5
C886
330
C87F
100
AcDbEntity
  8
Visible Edges(ISO)
100
AcDbVertex
100
AcDb2dVertex
 10
368.3333305671056
 20
202.3590730475831
 30
0.0
  0
VERTEX
  5
C887
330
C87F
100
AcDbEntity
  8
Visible Edges(ISO)
100
AcDbVertex
100
AcDb2dVertex
 10
368.3329997613271
 20
202.3552821921754
 30
0.0
  0
VERTEX
  5
C888
330
C87F
100
AcDbEntity
  8
Visible Edges(ISO)
100
AcDbVertex
100
AcDb2dVertex
 10
368.3326135232289
 20
202.3518585013795
 30
0.0
  0
VERTEX
  5
C889
330
C87F
100
AcDbEntity
  8
Visible Edges(ISO)
100
AcDbVertex
100
AcDb2dVertex
 10
368.3321971847851
 20
202.3487829017091
 30
0.0
  0
VERTEX
  5
C88A
330
C87F
100
AcDbEntity
  8
Visible Edges(ISO)
100
AcDbVertex
100
AcDb2dVertex
 10
368.331779058202
 20
202.3460220145631
 30
0.0
  0
VERTEX
  5
C88B
330
C87F
100
AcDbEntity
  8
Visible Edges(ISO)
100
AcDbVertex
100
AcDb2dVertex
 10
368.3313791110356
 20
202.3435615348267
 30
0.0
  0
VERTEX
  5
C88C
330
C87F
100
AcDbEntity
  8
Visible Edges(ISO)
100
AcDbVertex
100
AcDb2dVertex
 10
368.3309395267804
 20
202.3413823890138
 30
0.0
  0
VERTEX
  5
C88D
330
C87F
100
AcDbEntity
  8
Visible Edges(ISO)
100
AcDbVertex
100
AcDb2dVertex
 10
368.3303574874241
 20
202.3394559668946
 30
0.0
  0
VERTEX
  5
C88E
330
C87F
100
AcDbEntity
  8
Visible Edges(ISO)
100
AcDbVertex
100
AcDb2dVertex
 10
368.3295316650707
 20
202.3377775000977
 30
0.0
  0
VERTEX
  5
C88F
330
C87F
100
AcDbEntity
  8
Visible Edges(ISO)
100
AcDbVertex
100
AcDb2dVertex
 10
368.3285261347133
 20
202.3363183783936
 30
0.0
  0
VERTEX
  5
C890
330
C87F
100
AcDbEntity
  8
Visible Edges(ISO)
100
AcDbVertex
100
AcDb2dVertex
 10
368.3276940538723
 20
202.3350738334107
 30
0.0
  0
VERTEX
  5
C891
330
C87F
100
AcDbEntity
  8
Visible Edges(ISO)
100
AcDbVertex
100
AcDb2dVertex
 10
368.3274198725063
 20
202.3340200232911
 30
0.0
  0
VERTEX
  5
C892
330
C87F
100
AcDbEntity
  8
Visible Edges(ISO)
100
AcDbVertex
100
AcDb2dVertex
 10
368.327894623502
 20
202.33314264292
 30
0.0
  0
VERTEX
  5
C893
330
C87F
100
AcDbEntity
  8
Visible Edges(ISO)
100
AcDbVertex
100
AcDb2dVertex
 10
368.328124995454
 20
202.3324369239258
 30
0.0
  0
VERTEX
  5
C894
330
C87F
100
AcDbEntity
  8
Visible Edges(ISO)
100
AcDbVertex
100
AcDb2dVertex
 10
368.3266652777034
 20
202.3318837928223
 30
0.0
  0
VERTEX
  5
C895
330
C87F
100
AcDbEntity
  8
Visible Edges(ISO)
100
AcDbVertex
100
AcDb2dVertex
 10
368.3221329405147
 20
202.3314689444947
 30
0.0
  0
VERTEX
  5
C896
330
C87F
100
AcDbEntity
  8
Visible Edges(ISO)
100
AcDbVertex
100
AcDb2dVertex
 10
368.3152489020663
 20
202.3311923789429
 30
0.0
  0
VERTEX
  5
C897
330
C87F
100
AcDbEntity
  8
Visible Edges(ISO)
100
AcDbVertex
100
AcDb2dVertex
 10
368.3092684700327
 20
202.3310302543091
 30
0.0
  0
VERTEX
  5
C898
330
C87F
100
AcDbEntity
  8
Visible Edges(ISO)
100
AcDbVertex
100
AcDb2dVertex
 10
368.3075986459094
 20
202.3309825705933
 30
0.0
  0
SEQEND
  5
C899
330
C87F
100
AcDbEntity
  8
Visible Edges(ISO)
  0
LINE
  5
C89A
330
1F
100
AcDbEntity
  8
Visible Edges(ISO)
100
AcDbLine
 10
371.5342445328074
 20
202.3309804725098
 30
0.0
 11
368.3075990255854
 21
202.3309804725098
 31
0.0
  0
LINE
  5
C89B
330
1F
100
AcDbEntity
  8
Visible Edges(ISO)
100
AcDbLine
 10
368.3075990255854
 20
202.3309804725098
 30
0.0
 11
342.7608909063374
 21
202.3309804725098
 31
0.0
  0
LINE
  5
C89C
330
1F
100
AcDbEntity
  8
Visible Edges(ISO)
100
AcDbLine
 10
351.5342445328108
 20
229.8309804725098
 30
0.0
 11
351.5342445328108
 21
237.3309804725098
 31
0.0
  0
LINE
  5
C89D
330
1F
100
AcDbEntity
  8
Visible Edges(ISO)
100
AcDbLine
 10
359.5342445328108
 20
229.8309804725098
 30
0.0
 11
351.5342445328108
 21
229.8309804725098
 31
0.0
  0
LINE
  5
C89E
330
1F
100
AcDbEntity
  8
Visible Edges(ISO)
100
AcDbLine
 10
359.5342445328108
 20
237.3309804725098
 30
0.0
 11
359.5342445328108
 21
229.8309804725098
 31
0.0
  0
LINE
  5
C89F
330
1F
100
AcDbEntity
  8
Visible Edges(ISO)
100
AcDbLine
 10
360.5342445328107
 20
237.3309804725098
 30
0.0
 11
359.5342445328108
 21
237.3309804725098
 31
0.0
  0
LINE
  5
C8A0
330
1F
100
AcDbEntity
  8
Visible Edges(ISO)
100
AcDbLine
 10
360.5342445328107
 20
221.3309804725098
 30
0.0
 11
360.5342445328107
 21
237.3309804725098
 31
0.0
  0
LINE
  5
C8A1
330
1F
100
AcDbEntity
  8
Visible Edges(ISO)
100
AcDbLine
 10
359.5342445328108
 20
221.3309804725098
 30
0.0
 11
360.5342445328107
 21
221.3309804725098
 31
0.0
  0
LINE
  5
C8A2
330
1F
100
AcDbEntity
  8
Visible Edges(ISO)
100
AcDbLine
 10
359.5342445328108
 20
228.8309804725098
 30
0.0
 11
359.5342445328108
 21
221.3309804725098
 31
0.0
  0
LINE
  5
C8A3
330
1F
100
AcDbEntity
  8
Visible Edges(ISO)
100
AcDbLine
 10
351.5342445328108
 20
228.8309804725098
 30
0.0
 11
359.5342445328108
 21
228.8309804725098
 31
0.0
  0
LINE
  5
C8A4
330
1F
100
AcDbEntity
  8
Visible Edges(ISO)
100
AcDbLine
 10
351.5342445328108
 20
221.3309804725098
 30
0.0
 11
351.5342445328108
 21
228.8309804725098
 31
0.0
  0
LINE
  5
C8A5
330
1F
100
AcDbEntity
  8
Visible Edges(ISO)
100
AcDbLine
 10
350.5342445328107
 20
221.3309804725098
 30
0.0
 11
351.5342445328108
 21
221.3309804725098
 31
0.0
  0
LINE
  5
C8A6
330
1F
100
AcDbEntity
  8
Visible Edges(ISO)
100
AcDbLine
 10
350.5342445328107
 20
237.3309804725098
 30
0.0
 11
350.5342445328107
 21
221.3309804725098
 31
0.0
  0
LINE
  5
C8A7
330
1F
100
AcDbEntity
  8
Visible Edges(ISO)
100
AcDbLine
 10
351.5342445328108
 20
237.3309804725098
 30
0.0
 11
350.5342445328107
 21
237.3309804725098
 31
0.0
  0
POLYLINE
  5
C8A8
330
1F
100
AcDbEntity
  8
Visible Edges(ISO)
100
AcDb2dPolyline
 66
     1
 10
0.0
 20
0.0
 30
0.0
 70
   128
  0
VERTEX
  5
C8A9
330
C8A8
100
AcDbEntity
  8
Visible Edges(ISO)
100
AcDbVertex
100
AcDb2dVertex
 10
342.7692551567322
 20
202.3241971778321
 30
0.0
  0
VERTEX
  5
C8AA
330
C8A8
100
AcDbEntity
  8
Visible Edges(ISO)
100
AcDbVertex
100
AcDb2dVertex
 10
342.7417607261902
 20
202.326605205481
 30
0.0
  0
VERTEX
  5
C8AB
330
C8A8
100
AcDbEntity
  8
Visible Edges(ISO)
100
AcDbVertex
100
AcDb2dVertex
 10
342.7342433883911
 20
202.310998325293
 30
0.0
  0
SEQEND
  5
C8AC
330
C8A8
100
AcDbEntity
  8
Visible Edges(ISO)
  0
POLYLINE
  5
C8AD
330
1F
100
AcDbEntity
  8
Visible Edges(ISO)
100
AcDb2dPolyline
 66
     1
 10
0.0
 20
0.0
 30
0.0
 70
   128
  0
VERTEX
  5
C8AE
330
C8AD
100
AcDbEntity
  8
Visible Edges(ISO)
100
AcDbVertex
100
AcDb2dVertex
 10
368.3342443063027
 20
202.3110841559815
 30
0.0
  0
VERTEX
  5
C8AF
330
C8AD
100
AcDbEntity
  8
Visible Edges(ISO)
100
AcDbVertex
100
AcDb2dVertex
 10
368.3212424471146
 20
202.3297141837525
 30
0.0
  0
VERTEX
  5
C8B0
330
C8AD
100
AcDbEntity
  8
Visible Edges(ISO)
100
AcDbVertex
100
AcDb2dVertex
 10
368.2992078020341
 20
202.3241685676026
 30
0.0
  0
SEQEND
  5
C8B1
330
C8AD
100
AcDbEntity
  8
Visible Edges(ISO)
  0
POLYLINE
  5
C8B2
330
1F
100
AcDbEntity
  8
Visible Edges(ISO)
100
AcDb2dPolyline
 66
     1
 10
0.0
 20
0.0
 30
0.0
 70
   128
  0
VERTEX
  5
C8B3
330
C8B2
100
AcDbEntity
  8
Visible Edges(ISO)
100
AcDbVertex
100
AcDb2dVertex
 10
342.7342433883907
 20
202.3915408896851
 30
0.0
  0
VERTEX
  5
C8B4
330
C8B2
100
AcDbEntity
  8
Visible Edges(ISO)
100
AcDbVertex
100
AcDb2dVertex
 10
342.7342719986202
 20
202.3848079490113
 30
0.0
  0
VERTEX
  5
C8B5
330
C8B2
100
AcDbEntity
  8
Visible Edges(ISO)
100
AcDbVertex
100
AcDb2dVertex
 10
342.734355445123
 20
202.3786472129273
 30
0.0
  0
VERTEX
  5
C8B6
330
C8B2
100
AcDbEntity
  8
Visible Edges(ISO)
100
AcDbVertex
100
AcDb2dVertex
 10
342.7344865753415
 20
202.3730205344605
 30
0.0
  0
VERTEX
  5
C8B7
330
C8B2
100
AcDbEntity
  8
Visible Edges(ISO)
100
AcDbVertex
100
AcDb2dVertex
 10
342.7346630050901
 20
202.3679088401246
 30
0.0
  0
VERTEX
  5
C8B8
330
C8B2
100
AcDbEntity
  8
Visible Edges(ISO)
100
AcDbVertex
100
AcDb2dVertex
 10
342.7348847343686
 20
202.3632739829468
 30
0.0
  0
VERTEX
  5
C8B9
330
C8B2
100
AcDbEntity
  8
Visible Edges(ISO)
100
AcDbVertex
100
AcDb2dVertex
 10
342.7351589157346
 20
202.3590730475831
 30
0.0
  0
VERTEX
  5
C8BA
330
C8B2
100
AcDbEntity
  8
Visible Edges(ISO)
100
AcDbVertex
100
AcDb2dVertex
 10
342.7354903175596
 20
202.3552821921754
 30
0.0
  0
VERTEX
  5
C8BB
330
C8B2
100
AcDbEntity
  8
Visible Edges(ISO)
100
AcDbVertex
100
AcDb2dVertex
 10
342.7358765556578
 20
202.3518585013795
 30
0.0
  0
VERTEX
  5
C8BC
330
C8B2
100
AcDbEntity
  8
Visible Edges(ISO)
100
AcDbVertex
100
AcDb2dVertex
 10
342.7362914039854
 20
202.3487781333375
 30
0.0
  0
VERTEX
  5
C8BD
330
C8B2
100
AcDbEntity
  8
Visible Edges(ISO)
100
AcDbVertex
100
AcDb2dVertex
 10
342.7367110206847
 20
202.3460220145631
 30
0.0
  0
VERTEX
  5
C8BE
330
C8B2
100
AcDbEntity
  8
Visible Edges(ISO)
100
AcDbVertex
100
AcDb2dVertex
 10
342.7371091797117
 20
202.3435615348267
 30
0.0
  0
VERTEX
  5
C8BF
330
C8B2
100
AcDbEntity
  8
Visible Edges(ISO)
100
AcDbVertex
100
AcDb2dVertex
 10
342.7375502540831
 20
202.3413823890138
 30
0.0
  0
VERTEX
  5
C8C0
330
C8B2
100
AcDbEntity
  8
Visible Edges(ISO)
100
AcDbVertex
100
AcDb2dVertex
 10
342.7381319954161
 20
202.3394559668946
 30
0.0
  0
VERTEX
  5
C8C1
330
C8B2
100
AcDbEntity
  8
Visible Edges(ISO)
100
AcDbVertex
100
AcDb2dVertex
 10
342.7389569236999
 20
202.3377775000977
 30
0.0
  0
VERTEX
  5
C8C2
330
C8B2
100
AcDbEntity
  8
Visible Edges(ISO)
100
AcDbVertex
100
AcDb2dVertex
 10
342.7399630501037
 20
202.3363183783936
 30
0.0
  0
VERTEX
  5
C8C3
330
C8B2
100
AcDbEntity
  8
Visible Edges(ISO)
100
AcDbVertex
100
AcDb2dVertex
 10
342.7407951309447
 20
202.3350690650391
 30
0.0
  0
VERTEX
  5
C8C4
330
C8B2
100
AcDbEntity
  8
Visible Edges(ISO)
100
AcDbVertex
100
AcDb2dVertex
 10
342.7410693123107
 20
202.3340200232911
 30
0.0
  0
VERTEX
  5
C8C5
330
C8B2
100
AcDbEntity
  8
Visible Edges(ISO)
100
AcDbVertex
100
AcDb2dVertex
 10
342.7405948593383
 20
202.33314264292
 30
0.0
  0
VERTEX
  5
C8C6
330
C8B2
100
AcDbEntity
  8
Visible Edges(ISO)
100
AcDbVertex
100
AcDb2dVertex
 10
342.7403635933166
 20
202.3324369239258
 30
0.0
  0
VERTEX
  5
C8C7
330
C8B2
100
AcDbEntity
  8
Visible Edges(ISO)
100
AcDbVertex
100
AcDb2dVertex
 10
342.7418227150207
 20
202.3318837928223
 30
0.0
  0
VERTEX
  5
C8C8
330
C8B2
100
AcDbEntity
  8
Visible Edges(ISO)
100
AcDbVertex
100
AcDb2dVertex
 10
342.7463550522094
 20
202.3314689444947
 30
0.0
  0
VERTEX
  5
C8C9
330
C8B2
100
AcDbEntity
  8
Visible Edges(ISO)
100
AcDbVertex
100
AcDb2dVertex
 10
342.7532405807739
 20
202.3311923789429
 30
0.0
  0
VERTEX
  5
C8CA
330
C8B2
100
AcDbEntity
  8
Visible Edges(ISO)
100
AcDbVertex
100
AcDb2dVertex
 10
342.7592201187378
 20
202.3310302543091
 30
0.0
  0
VERTEX
  5
C8CB
330
C8B2
100
AcDbEntity
  8
Visible Edges(ISO)
100
AcDbVertex
100
AcDb2dVertex
 10
342.7608914329773
 20
202.3309825705933
 30
0.0
  0
SEQEND
  5
C8CC
330
C8B2
100
AcDbEntity
  8
Visible Edges(ISO)
  0
POLYLINE
  5
C8CD
330
1F
100
AcDbEntity
  8
Visible Edges(ISO)
100
AcDb2dPolyline
 66
     1
 10
0.0
 20
0.0
 30
0.0
 70
   128
  0
VERTEX
  5
C8CE
330
C8CD
100
AcDbEntity
  8
Visible Edges(ISO)
100
AcDbVertex
100
AcDb2dVertex
 10
368.3342446043255
 20
202.3915408896851
 30
0.0
  0
VERTEX
  5
C8CF
330
C8CD
100
AcDbEntity
  8
Visible Edges(ISO)
100
AcDbVertex
100
AcDb2dVertex
 10
368.334215994096
 20
202.3848079490113
 30
0.0
  0
VERTEX
  5
C8D0
330
C8CD
100
AcDbEntity
  8
Visible Edges(ISO)
100
AcDbVertex
100
AcDb2dVertex
 10
368.334133441663
 20
202.3786472129273
 30
0.0
  0
VERTEX
  5
C8D1
330
C8CD
100
AcDbEntity
  8
Visible Edges(ISO)
100
AcDbVertex
100
AcDb2dVertex
 10
368.3340020134214
 20
202.3730205344605
 30
0.0
  0
VERTEX
  5
C8D2
330
C8CD
100
AcDbEntity
  8
Visible Edges(ISO)
100
AcDbVertex
100
AcDb2dVertex
 10
368.333825881696
 20
202.3679088401246
 30
0.0
  0
VERTEX
  5
C8D3
330
C8CD
100
AcDbEntity
  8
Visible Edges(ISO)
100
AcDbVertex
100
AcDb2dVertex
 10
368.3336041524175
 20
202.3632739829468
 30
0.0
  0
VERTEX
  5
C8D4
330
C8CD
100
AcDbEntity
  8
Visible Edges(ISO)
100
AcDbVertex
100
AcDb2dVertex
 10
368.333330567098
 20
202.3590730475831
 30
0.0
  0
VERTEX
  5
C8D5
330
C8CD
100
AcDbEntity
  8
Visible Edges(ISO)
100
AcDbVertex
100
AcDb2dVertex
 10
368.3329997613195
 20
202.3552821921754
 30
0.0
  0
VERTEX
  5
C8D6
330
C8CD
100
AcDbEntity
  8
Visible Edges(ISO)
100
AcDbVertex
100
AcDb2dVertex
 10
368.3326135232214
 20
202.3518585013795
 30
0.0
  0
VERTEX
  5
C8D7
330
C8CD
100
AcDbEntity
  8
Visible Edges(ISO)
100
AcDbVertex
100
AcDb2dVertex
 10
368.3321971847777
 20
202.3487781333375
 30
0.0
  0
VERTEX
  5
C8D8
330
C8CD
100
AcDbEntity
  8
Visible Edges(ISO)
100
AcDbVertex
100
AcDb2dVertex
 10
368.3317790581946
 20
202.3460220145631
 30
0.0
  0
VERTEX
  5
C8D9
330
C8CD
100
AcDbEntity
  8
Visible Edges(ISO)
100
AcDbVertex
100
AcDb2dVertex
 10
368.3313791110281
 20
202.3435615348267
 30
0.0
  0
VERTEX
  5
C8DA
330
C8CD
100
AcDbEntity
  8
Visible Edges(ISO)
100
AcDbVertex
100
AcDb2dVertex
 10
368.3309395267729
 20
202.3413823890138
 30
0.0
  0
VERTEX
  5
C8DB
330
C8CD
100
AcDbEntity
  8
Visible Edges(ISO)
100
AcDbVertex
100
AcDb2dVertex
 10
368.3303574874167
 20
202.3394559668946
 30
0.0
  0
VERTEX
  5
C8DC
330
C8CD
100
AcDbEntity
  8
Visible Edges(ISO)
100
AcDbVertex
100
AcDb2dVertex
 10
368.3295316650634
 20
202.3377775000977
 30
0.0
  0
VERTEX
  5
C8DD
330
C8CD
100
AcDbEntity
  8
Visible Edges(ISO)
100
AcDbVertex
100
AcDb2dVertex
 10
368.3285258366828
 20
202.3363183783936
 30
0.0
  0
VERTEX
  5
C8DE
330
C8CD
100
AcDbEntity
  8
Visible Edges(ISO)
100
AcDbVertex
100
AcDb2dVertex
 10
368.3276940538649
 20
202.3350690650391
 30
0.0
  0
VERTEX
  5
C8DF
330
C8CD
100
AcDbEntity
  8
Visible Edges(ISO)
100
AcDbVertex
100
AcDb2dVertex
 10
368.327419872499
 20
202.3340200232911
 30
0.0
  0
VERTEX
  5
C8E0
330
C8CD
100
AcDbEntity
  8
Visible Edges(ISO)
100
AcDbVertex
100
AcDb2dVertex
 10
368.3278946234946
 20
202.33314264292
 30
0.0
  0
VERTEX
  5
C8E1
330
C8CD
100
AcDbEntity
  8
Visible Edges(ISO)
100
AcDbVertex
100
AcDb2dVertex
 10
368.3281249954467
 20
202.3324369239258
 30
0.0
  0
VERTEX
  5
C8E2
330
C8CD
100
AcDbEntity
  8
Visible Edges(ISO)
100
AcDbVertex
100
AcDb2dVertex
 10
368.3266652776962
 20
202.3318837928223
 30
0.0
  0
VERTEX
  5
C8E3
330
C8CD
100
AcDbEntity
  8
Visible Edges(ISO)
100
AcDbVertex
100
AcDb2dVertex
 10
368.3221329405075
 20
202.3314689444947
 30
0.0
  0
VERTEX
  5
C8E4
330
C8CD
100
AcDbEntity
  8
Visible Edges(ISO)
100
AcDbVertex
100
AcDb2dVertex
 10
368.3152489020592
 20
202.3311923789429
 30
0.0
  0
VERTEX
  5
C8E5
330
C8CD
100
AcDbEntity
  8
Visible Edges(ISO)
100
AcDbVertex
100
AcDb2dVertex
 10
368.3092684700256
 20
202.3310302543091
 30
0.0
  0
VERTEX
  5
C8E6
330
C8CD
100
AcDbEntity
  8
Visible Edges(ISO)
100
AcDbVertex
100
AcDb2dVertex
 10
368.3075986459023
 20
202.3309825705933
 30
0.0
  0
SEQEND
  5
C8E7
330
C8CD
100
AcDbEntity
  8
Visible Edges(ISO)
  0
LINE
  5
C8E8
330
1F
100
AcDbEntity
  8
Visible Edges(ISO)
100
AcDbLine
 10
342.7342433883911
 20
202.310998325293
 30
0.0
 11
342.7342433883907
 21
202.3915408896851
 31
0.0
  0
LINE
  5
C8E9
330
1F
100
AcDbEntity
  8
Hidden
 48
0.5
100
AcDbLine
 10
359.7342445328132
 20
259.4309804725108
 30
0.0
 11
359.7342445328132
 21
251.4309804725098
 31
0.0
  0
LINE
  5
C8EA
330
1F
100
AcDbEntity
  8
Hidden
 48
0.5
100
AcDbLine
 10
351.3342445328133
 20
259.4309804725108
 30
0.0
 11
351.3342445328133
 21
251.4309804725098
 31
0.0
  0
LINE
  5
C8EB
330
1F
100
AcDbEntity
  8
Centre
  6
CENTER
 48
0.25
100
AcDbLine
 10
250.4185293090472
 20
262.400282638968
 30
0.0
 11
250.4185293090472
 21
200.2586815771757
 31
0.0
  0
LINE
  5
C8EC
330
1F
100
AcDbEntity
  8
Centre
  6
CENTER
 48
0.25
100
AcDbLine
 10
355.534244532816
 20
262.400282638968
 30
0.0
 11
355.534244532816
 21
200.2586815771757
 31
0.0
  0
DIMENSION
  5
C8ED
330
1F
100
AcDbEntity
  8
DIMENSION
100
AcDbDimension
  2
*D2
 10
291.6685293090472
 20
286.3601718132857
 30
0.0
 11
250.4185293090472
 21
288.9103709947318
 31
0.0
 70
    32
 71
     5
 42
82.5
  3
DEFAULT-ISO
100
AcDbAlignedDimension
 13
209.1685293090472
 23
259.4309804725108
 33
0.0
 14
291.6685293090472
 24
259.4309804725108
 34
0.0
100
AcDbRotatedDimension
  0
LINE
  5
C8EE
330
1F
100
AcDbEntity
  8
CENTER
  6
CENTER
 48
0.25
100
AcDbLine
 10
218.6685293090472
 20
261.7448744580024
 30
0.0
 11
218.6685293090472
 21
249.294460901846
 31
0.0
  0
LINE
  5
C8EF
330
1F
100
AcDbEntity
  8
CENTER
  6
CENTER
 48
0.25
100
AcDbLine
 10
282.1685293090472
 20
261.7448744580024
 30
0.0
 11
282.1685293090472
 21
249.294460901846
 31
0.0
  0
DIMENSION
  5
C8F0
330
1F
100
AcDbEntity
  8
DIMENSION
100
AcDbDimension
  2
*D3
 10
282.1685293090472
 20
273.493834193815
 30
0.0
 11
250.4185293090472
 21
276.0428396508409
 31
0.0
 70
    32
 71
     5
 42
63.5
  3
DEFAULT-ISO
100
AcDbAlignedDimension
 13
218.6685293090472
 23
261.7448744580024
 33
0.0
 14
282.1685293090472
 24
261.7448744580024
 34
0.0
100
AcDbRotatedDimension
  0
DIMENSION
  5
C8F1
330
1F
100
AcDbEntity
  8
DIMENSION
100
AcDbDimension
  2
*D4
 10
371.5342445328142
 20
287.436300119926
 30
0.0
 11
355.5342445328142
 21
289.9864993013721
 31
0.0
 70
    32
 71
     5
 42
32.0
  3
DEFAULT-ISO
100
AcDbAlignedDimension
 13
339.5342445328142
 23
259.4309804725108
 33
0.0
 14
371.5342445328142
 24
259.4309804725108
 34
0.0
100
AcDbRotatedDimension
  0
DIMENSION
  5
C8F2
330
1F
100
AcDbEntity
  8
DIMENSION
100
AcDbDimension
  2
*D5
 10
402.1813980317232
 20
202.3309804725098
 30
0.0
 11
399.6395549212185
 21
230.8809804725103
 31
0.0
 70
    32
 71
     5
 42
57.10000000000093
  3
DEFAULT-ISO
100
AcDbAlignedDimension
 13
371.5342445328142
 23
259.4309804725108
 33
0.0
 14
371.5342445328074
 24
202.3309804725098
 34
0.0
 50
90.0
100
AcDbRotatedDimension
  0
LEADER
  5
C8F3
330
1F
100
AcDbEntity
  8
CENTER
  6
CENTER
100
AcDbLeader
  3
DEFAULT-ISO
 76
     2
 10
355.534244532816
 20
259.4309804725108
 30
0.0
 10
382.7728418950036
 20
286.6041059302803
 30
0.0
1001
ACAD
1000
DSTYLE
1002
{
1070
   147
1040
0.762
1070
    77
1070
     0
1002
}
  0
MTEXT
  5
C8F4
330
1F
100
AcDbEntity
  8
DIMENSION
100
AcDbMText
 10
388.7814473061975
 20
288.4743422365838
 30
0.0
 40
3.5
 41
28.62929583977143
 71
     1
 72
     5
  1
{\fArial|b0|i0|c0|p34;\C7;M8}
  7
ROMANS
 73
     1
 44
1.0
1001
ACAD
1000
MTEXTBEGIN
1070
    73
1070
     1
1070
    44
1040
1.0
1070
    74
1070
     0
1000
MTEXTEND
  0
LINE
  5
C8F5
330
1F
100
AcDbEntity
  8
DIMENSION
 62
     7
100
AcDbLine
 10
382.7728418950036
 20
286.6041059302803
 30
0.0
 11
387.1653155022735
 21
286.6041059302803
 31
0.0
  0
LINE
  5
C9D2
330
1F
100
AcDbEntity
  8
Visible Edges(ISO)
100
AcDbLine
 10
289.5855959395959
 20
441.4927432334501
 30
0.0
 11
252.6215889530692
 21
420.1515638494519
 31
0.0
  0
ELLIPSE
  5
C9D3
330
1F
100
AcDbEntity
  8
Visible Edges(ISO)
100
AcDbEllipse
 10
264.7396314156535
 20
400.1422945130908
 30
0.0
 11
-4.87499999999991
 21
-8.443747686898321
 31
0.0
210
0.0
220
0.0
230
0.9999999999999998
 40
0.5773502691896261
 41
5.515240436302483
 42
6.283185307179574
  0
LINE
  5
C9D4
330
1F
100
AcDbEntity
  8
Visible Edges(ISO)
100
AcDbLine
 10
257.6572567142803
 20
408.4260566379469
 30
0.0
 11
257.8463903330168
 21
396.0235440741345
 31
0.0
  0
ELLIPSE
  5
C9D5
330
1F
100
AcDbEntity
  8
Visible Edges(ISO)
100
AcDbEllipse
 10
256.0157015027646
 20
413.2929925696583
 30
0.0
 11
-4.799999999999984
 21
0.0000000000000045
 31
0.0
210
0.0
220
0.0
230
1.0
 40
0.5773502691896264
 41
0.000000000000001
 42
0.7853981633974515
  0
ELLIPSE
  5
C9D6
330
1F
100
AcDbEntity
  8
Visible Edges(ISO)
100
AcDbEllipse
 10
256.0157015027646
 20
418.1919720552253
 30
0.0
 11
-4.79999999999999
 21
0.0000000000000052
 31
0.0
210
0.0
220
0.0
230
1.0
 40
0.5773502691896262
 41
5.497787143782137
 42
7.068583470577038
  0
LINE
  5
C9D7
330
1F
100
AcDbEntity
  8
Visible Edges(ISO)
100
AcDbLine
 10
252.6215889530692
 20
416.2323802609988
 30
0.0
 11
262.8039266021555
 21
410.3536048783191
 31
0.0
  0
ELLIPSE
  5
C9D8
330
1F
100
AcDbEntity
  8
Visible Edges(ISO)
100
AcDbEllipse
 10
266.1980391518509
 20
412.3131966725456
 30
0.0
 11
-4.799999999999985
 21
0.000000000000291
 31
0.0
210
0.0
220
0.0
230
1.0
 40
0.5773502691896264
 41
0.7853981633976863
 42
2.356194490192585
  0
LINE
  5
C9D9
330
1F
100
AcDbEntity
  8
Visible Edges(ISO)
100
AcDbLine
 10
306.5561586880729
 20
431.6947842623175
 30
0.0
 11
269.5921517015463
 21
410.3536048783191
 31
0.0
  0
ELLIPSE
  5
C9DA
330
1F
100
AcDbEntity
  8
Visible Edges(ISO)
100
AcDbEllipse
 10
303.1620461383775
 20
433.654376056544
 30
0.0
 11
4.799999999999985
 21
-0.0000000000000056
 31
0.0
210
0.0
220
0.0
230
1.0
 40
0.5773502691896264
 41
5.497787143782147
 42
7.068583470577034
  0
LINE
  5
C9DB
330
1F
100
AcDbEntity
  8
Visible Edges(ISO)
100
AcDbLine
 10
296.3738210389867
 20
441.4927432334501
 30
0.0
 11
306.5561586880729
 21
435.6139678507705
 31
0.0
  0
ELLIPSE
  5
C9DC
330
1F
100
AcDbEntity
  8
Visible Edges(ISO)
100
AcDbEllipse
 10
292.9797084892913
 20
439.5331514392236
 30
0.0
 11
4.799999999999985
 21
-0.0000000000002914
 31
0.0
210
0.0
220
0.0
230
1.0
 40
0.5773502691896264
 41
0.7853981633976935
 42
2.356194490192585
  0
ELLIPSE
  5
C9DD
330
1F
100
AcDbEntity
  8
Visible Edges(ISO)
100
AcDbEllipse
 10
296.4268540475756
 20
435.6445864725554
 30
0.0
 11
3.149999999999987
 21
-0.0000000000000034
 31
0.0
210
0.0
220
0.0
230
1.0
 40
0.5773502691896263
 41
0.0000000000000018
 42
6.283185307179586
  0
ELLIPSE
  5
C9DE
330
1F
100
AcDbEntity
  8
Visible Edges(ISO)
100
AcDbEllipse
 10
262.7508935935664
 20
416.2017616392139
 30
0.0
 11
3.149999999999987
 21
-0.0000000000000034
 31
0.0
210
0.0
220
0.0
230
1.0
 40
0.5773502691896263
 41
0.0000000000000018
 42
6.283185307179586
  0
ELLIPSE
  5
C9DF
330
1F
100
AcDbEntity
  8
Visible Edges(ISO)
100
AcDbEllipse
 10
303.1620461383775
 20
428.755396570977
 30
0.0
 11
4.799999999999998
 21
-0.000000000000005
 31
0.0
210
0.0
220
0.0
230
1.0
 40
0.5773502691896264
 41
5.49778714378214
 42
6.283185307179588
  0
LINE
  5
C9E0
330
1F
100
AcDbEntity
  8
Visible Edges(ISO)
100
AcDbLine
 10
301.6676332895193
 20
423.9734133219551
 30
0.0
 11
306.5561586880729
 21
426.7958047767505
 31
0.0
  0
LINE
  5
C9E1
330
1F
100
AcDbEntity
  8
Visible Edges(ISO)
100
AcDbLine
 10
301.5610444609866
 20
416.8607301556209
 30
0.0
 11
301.6676332895193
 21
423.9734133219551
 31
0.0
  0
ELLIPSE
  5
C9E2
330
1F
100
AcDbEntity
  8
Visible Edges(ISO)
100
AcDbEllipse
 10
280.013137889283
 20
391.3241314390715
 30
0.0
 11
-4.874999999999923
 21
-8.443747686898346
 31
0.0
210
0.0
220
0.0
230
1.0
 40
0.577350269189626
 41
5.515240436302481
 42
6.283185307179572
  0
LINE
  5
C9E3
330
1F
100
AcDbEntity
  8
Visible Edges(ISO)
100
AcDbLine
 10
272.8132430527166
 20
407.3143233514347
 30
0.0
 11
273.1198968066461
 21
387.205381000115
 31
0.0
  0
ELLIPSE
  5
C9E4
330
1F
100
AcDbEntity
  8
Visible Edges(ISO)
100
AcDbEllipse
 10
266.4366876905013
 20
399.1624986159776
 30
0.0
 11
-4.874999999999916
 21
-8.443747686898335
 31
0.0
210
0.0
220
0.0
230
1.0
 40
0.577350269189626
 41
5.515240436302481
 42
6.644266340808479
  0
ELLIPSE
  5
C9E5
330
1F
100
AcDbEntity
  8
Visible Edges(ISO)
100
AcDbEllipse
 10
281.7101941641307
 20
390.3443355419582
 30
0.0
 11
-4.874999999999925
 21
-8.443747686898353
 31
0.0
210
0.0
220
0.0
230
1.0
 40
0.577350269189626
 41
5.515240436302481
 42
7.068583470577018
  0
LINE
  5
C9E6
330
1F
100
AcDbEntity
  8
Visible Edges(ISO)
100
AcDbLine
 10
259.3543129891281
 20
407.4462607408334
 30
0.0
 11
259.5434466078645
 21
395.0437481770212
 31
0.0
  0
LINE
  5
C9E7
330
1F
100
AcDbEntity
  8
Visible Edges(ISO)
100
AcDbLine
 10
274.4806771000999
 20
408.2770168475474
 30
0.0
 11
274.8169530814938
 21
386.2255851030018
 31
0.0
  0
LINE
  5
C9E8
330
1F
100
AcDbEntity
  8
Visible Edges(ISO)
100
AcDbLine
 10
269.5921517015463
 20
405.454625392752
 30
0.0
 11
274.4806771000999
 21
408.2770168475474
 31
0.0
  0
ELLIPSE
  5
C9E9
330
1F
100
AcDbEntity
  8
Visible Edges(ISO)
100
AcDbEllipse
 10
266.1980391518509
 20
407.4142171869786
 30
0.0
 11
-4.799999999999985
 21
0.000000000000291
 31
0.0
210
0.0
220
0.0
230
1.0
 40
0.5773502691896264
 41
0.7853981633976863
 42
2.356194490192585
  0
LINE
  5
C9EA
330
1F
100
AcDbEntity
  8
Visible Edges(ISO)
100
AcDbLine
 10
252.6215889530692
 20
411.3334007754317
 30
0.0
 11
262.8039266021555
 21
405.454625392752
 31
0.0
  0
LINE
  5
C9EB
330
1F
100
AcDbEntity
  8
Visible Edges(ISO)
100
AcDbLine
 10
281.7101941641307
 20
382.3834938779128
 30
0.0
 11
282.9543959972643
 21
383.1018341411986
 31
0.0
  0
ELLIPSE
  5
C9EC
330
1F
100
AcDbEntity
  8
Visible Edges(ISO)
100
AcDbEllipse
 10
281.8958096941922
 20
389.0430441161046
 30
0.0
 11
-2.512500000000343
 21
-4.351777654017503
 31
0.0
210
0.0
220
0.0
230
1.0
 40
0.5773502691896261
 41
5.497787143782124
 42
6.689468237076323
  0
LINE
  5
C9ED
330
1F
100
AcDbEntity
  8
Visible Edges(ISO)
100
AcDbLine
 10
278.3425981187298
 20
386.9915964565237
 30
0.0
 11
278.3425981187298
 21
409.3431903594204
 31
0.0
  0
ELLIPSE
  5
C9EE
330
1F
100
AcDbEntity
  8
Visible Edges(ISO)
100
AcDbEllipse
 10
280.0396543935775
 20
410.3229862565337
 30
0.0
 11
1.200000000000106
 21
2.0784609690826
 31
0.0
210
0.0
220
0.0
230
0.9999999999999998
 40
0.5773502691896259
 41
0.7853981633976721
 42
2.356194490192573
  0
LINE
  5
C9EF
330
1F
100
AcDbEntity
  8
Visible Edges(ISO)
100
AcDbLine
 10
280.0396543935775
 20
412.2825780507602
 30
0.0
 11
282.7708543359105
 21
413.8594370726768
 31
0.0
  0
LINE
  5
C9F0
330
1F
100
AcDbEntity
  8
Visible Edges(ISO)
100
AcDbLine
 10
282.7708543359105
 20
413.8594370726768
 30
0.0
 11
282.7708543359105
 21
415.0841819440696
 31
0.0
  0
LINE
  5
C9F1
330
1F
100
AcDbEntity
  8
Visible Edges(ISO)
100
AcDbLine
 10
282.7708543359105
 20
415.0841819440696
 30
0.0
 11
293.3774560537086
 21
421.2079063010276
 31
0.0
  0
LINE
  5
C9F2
330
1F
100
AcDbEntity
  8
Visible Edges(ISO)
100
AcDbLine
 10
293.3774560537086
 20
421.2079063010276
 30
0.0
 11
293.3774560537086
 21
419.9831614296348
 31
0.0
  0
LINE
  5
C9F3
330
1F
100
AcDbEntity
  8
Visible Edges(ISO)
100
AcDbLine
 10
293.3774560537086
 20
419.9831614296348
 30
0.0
 11
296.1086559960417
 21
421.5600204515514
 31
0.0
  0
ELLIPSE
  5
C9F4
330
1F
100
AcDbEntity
  8
Visible Edges(ISO)
100
AcDbEllipse
 10
296.1086559960417
 20
419.6004286573249
 30
0.0
 11
1.199999999999981
 21
2.078460969082669
 31
0.0
210
0.0
220
0.0
230
0.9999999999999998
 40
0.5773502691896261
 41
5.497787143782126
 42
7.068583470577022
  0
LINE
  5
C9F5
330
1F
100
AcDbEntity
  8
Visible Edges(ISO)
100
AcDbLine
 10
297.8057122708894
 20
420.5802245544382
 30
0.0
 11
297.8057122708894
 21
419.02887220647
 31
0.0
  0
LINE
  5
C9F6
330
1F
100
AcDbEntity
  8
Visible Edges(ISO)
100
AcDbLine
 10
292.3531884319351
 20
420.6165451138743
 30
0.0
 11
293.3774560537086
 21
419.9831614296348
 31
0.0
  0
LINE
  5
C9F7
330
1F
100
AcDbEntity
  8
Visible Edges(ISO)
100
AcDbLine
 10
251.2157015027646
 20
413.2929925696583
 30
0.0
 11
251.2157015027646
 21
418.1919720552253
 31
0.0
  0
LINE
  5
C9F8
330
1F
100
AcDbEntity
  8
Visible Edges(ISO)
100
AcDbLine
 10
259.8646314156537
 20
391.6985468261925
 30
0.0
 11
261.5616876905014
 21
390.7187509290793
 31
0.0
  0
LINE
  5
C9F9
330
1F
100
AcDbEntity
  8
Visible Edges(ISO)
100
AcDbLine
 10
275.138137889283
 20
382.8803837521732
 30
0.0
 11
276.8351941641307
 21
381.9005878550598
 31
0.0
  0
LINE
  5
C9FA
330
1F
100
AcDbEntity
  8
Visible Edges(ISO)
100
AcDbLine
 10
262.7660840729643
 20
390.7493806390292
 30
0.0
 11
273.7302319428703
 21
384.4192269149041
 31
0.0
  0
LINE
  5
C9FB
330
1F
100
AcDbEntity
  8
Visible Edges(ISO)
100
AcDbLine
 10
307.9620461383774
 20
428.755396570977
 30
0.0
 11
307.9620461383774
 21
433.654376056544
 31
0.0
  0
ELLIPSE
  5
C9FC
330
1F
100
AcDbEntity
  8
Visible Edges(ISO)
100
AcDbEllipse
 10
217.0099236855668
 20
427.6990541194005
 30
0.0
 11
-1.499999999999896
 21
-2.598076211353208
 31
0.0
210
0.0
220
0.0
230
0.9999999999999998
 40
0.5773502691896163
 41
5.497787143782132
 42
6.168573136528342
  0
ELLIPSE
  5
C9FD
330
1F
100
AcDbEntity
  8
Visible Edges(ISO)
100
AcDbEllipse
 10
323.0759408635445
 20
366.4618105498248
 30
0.0
 11
-1.49999999999989
 21
-2.5980762113532
 31
0.0
210
0.0
220
0.0
230
1.0
 40
0.5773502691896161
 41
5.497787143782133
 42
6.168573136528341
  0
ELLIPSE
  5
C9FE
330
1F
100
AcDbEntity
  8
Visible Edges(ISO)
100
AcDbEllipse
 10
214.5173722818844
 20
423.9760677764043
 30
0.0
 11
0.749999999999954
 21
1.299038105676615
 31
0.0
210
0.0
220
0.0
230
0.9999999999999998
 40
0.5773502691896159
 41
5.497787143782137
 42
6.16857313652835
  0
ELLIPSE
  5
C9FF
330
1F
100
AcDbEntity
  8
Visible Edges(ISO)
100
AcDbEllipse
 10
320.583389459862
 20
362.7388242068287
 30
0.0
 11
0.7499999999999517
 21
1.299038105676611
 31
0.0
210
0.0
220
0.0
230
0.9999999999999998
 40
0.5773502691896163
 41
5.497787143782115
 42
6.168573136528341
  0
LINE
  5
CA00
330
1F
100
AcDbEntity
  8
Visible Edges(ISO)
100
AcDbLine
 10
215.5780324536641
 20
424.5884402121
 30
0.0
 11
215.5780324536641
 21
423.3205912041758
 31
0.0
  0
LINE
  5
CA01
330
1F
100
AcDbEntity
  8
Visible Edges(ISO)
100
AcDbLine
 10
321.6440496316417
 20
362.0833476346001
 30
0.0
 11
321.6440496316417
 21
363.3511966425244
 31
0.0
  0
ELLIPSE
  5
CA02
330
1F
100
AcDbEntity
  8
Visible Edges(ISO)
100
AcDbEllipse
 10
218.3357489002915
 20
424.9127595369848
 30
0.0
 11
-1.949999999999859
 21
-3.37749907475916
 31
0.0
210
0.0
220
0.0
230
1.0
 40
0.577350269189616
 41
5.49778714378213
 42
6.283185307179587
  0
ELLIPSE
  5
CA04
330
1F
100
AcDbEntity
  8
Visible Edges(ISO)
100
AcDbEllipse
 10
324.4017660782692
 20
363.6755159674091
 30
0.0
 11
-1.949999999999862
 21
-3.377499074759167
 31
0.0
210
0.0
220
0.0
230
0.9999999999999998
 40
0.577350269189616
 41
5.497787143782126
 42
8.114500863870249
  0
LINE
  5
CA05
330
1F
100
AcDbEntity
  8
Visible Edges(ISO)
100
AcDbLine
 10
325.9524715628792
 20
363.774732029978
 30
0.0
 11
322.0152806917647
 21
366.0478702392669
 31
0.0
  0
LINE
  5
CA06
330
1F
100
AcDbEntity
  8
Visible Edges(ISO)
100
AcDbLine
 10
325.9524715628792
 20
363.774732029978
 30
0.0
 11
326.7882514647736
 21
363.4576566080014
 31
0.0
  0
ELLIPSE
  5
CA07
330
1F
100
AcDbEntity
  8
Visible Edges(ISO)
100
AcDbEllipse
 10
324.4017660782692
 20
363.6755159674091
 30
0.0
 11
-1.199999999999918
 21
-2.078460969082568
 31
0.0
210
0.0
220
0.0
230
1.0
 40
0.5773502691896161
 41
5.497787143782132
 42
8.22103341092845
  0
LINE
  5
CA08
330
1F
100
AcDbEntity
  8
Visible Edges(ISO)
100
AcDbLine
 10
322.7047098034216
 20
363.9635690782202
 30
0.0
 11
322.7047098034216
 21
362.6957200702959
 31
0.0
  0
ELLIPSE
  5
CA09
330
1F
100
AcDbEntity
  8
Visible Edges(ISO)
100
AcDbEllipse
 10
320.583389459862
 20
362.7388242068287
 30
0.0
 11
1.4999999999999
 21
2.598076211353216
 31
0.0
210
0.0
220
0.0
230
1.0
 40
0.5773502691896161
 41
5.497787143782137
 42
6.168573136528346
  0
ELLIPSE
  5
CA0A
330
1F
100
AcDbEntity
  8
Visible Edges(ISO)
100
AcDbEllipse
 10
323.0759408635444
 20
366.4618105498248
 30
0.0
 11
-0.74999999999994
 21
-1.29903810567659
 31
0.0
210
0.0
220
0.0
230
0.9999999999999998
 40
0.5773502691896161
 41
5.497787143782129
 42
6.168573136528333
  0
LINE
  5
CA0B
330
1F
100
AcDbEntity
  8
Visible Edges(ISO)
100
AcDbLine
 10
322.0152806917647
 20
382.5059683650538
 30
0.0
 11
322.0152806917647
 21
365.8494381141291
 31
0.0
  0
ELLIPSE
  5
CA0C
330
1F
100
AcDbEntity
  8
Visible Edges(ISO)
100
AcDbEllipse
 10
324.5608651040361
 20
383.9756622107237
 30
0.0
 11
-1.799999999999687
 21
-3.117691453623956
 31
0.0
210
0.0
220
0.0
230
1.0
 40
0.5773502691896159
 41
3.926990816986979
 42
5.497787143781897
  0
LINE
  5
CA0D
330
1F
100
AcDbEntity
  8
Visible Edges(ISO)
100
AcDbLine
 10
336.4402590279693
 20
393.773621181856
 30
0.0
 11
324.5608651040361
 21
386.9150499020634
 31
0.0
  0
ELLIPSE
  5
CA0E
330
1F
100
AcDbEntity
  8
Visible Edges(ISO)
100
AcDbEllipse
 10
336.4402590279693
 20
390.8342334905163
 30
0.0
 11
1.799999999999875
 21
3.117691453623851
 31
0.0
210
0.0
220
0.0
230
1.0
 40
0.5773502691896163
 41
5.497787143782133
 42
7.068583470577029
  0
LINE
  5
CA0F
330
1F
100
AcDbEntity
  8
Visible Edges(ISO)
100
AcDbLine
 10
338.9858434402407
 20
375.6473970852614
 30
0.0
 11
338.9858434402407
 21
392.3039273361863
 31
0.0
  0
ELLIPSE
  5
CA10
330
1F
100
AcDbEntity
  8
Visible Edges(ISO)
100
AcDbEllipse
 10
337.925183268461
 20
375.0350246495657
 30
0.0
 11
0.749999999999943
 21
1.299038105676595
 31
0.0
210
0.0
220
0.0
230
1.0
 40
0.577350269189616
 41
4.827001151035925
 42
5.497787143782126
  0
ELLIPSE
  5
CA11
330
1F
100
AcDbEntity
  8
Visible Edges(ISO)
100
AcDbEllipse
 10
340.4177346721434
 20
374.1901887543396
 30
0.0
 11
1.500000000000058
 21
2.598076211353133
 31
0.0
210
0.0
220
0.0
230
1.0
 40
0.5773502691896161
 41
1.685408497446235
 42
2.356194490192571
  0
LINE
  5
CA12
330
1F
100
AcDbEntity
  8
Visible Edges(ISO)
100
AcDbLine
 10
338.2964143285839
 20
371.6975948750238
 30
0.0
 11
338.2964143285839
 21
372.9654438829481
 31
0.0
  0
LINE
  5
CA13
330
1F
100
AcDbEntity
  8
Visible Edges(ISO)
100
AcDbLine
 10
335.0486525691263
 20
369.0264145825326
 30
0.0
 11
322.0152806917648
 21
376.5512353443757
 31
0.0
  0
ELLIPSE
  5
CA14
330
1F
100
AcDbEntity
  8
Visible Edges(ISO)
100
AcDbEllipse
 10
336.5993580537363
 20
370.7177989779105
 30
0.0
 11
-1.199999999999914
 21
-2.078460969082563
 31
0.0
210
0.0
220
0.0
230
1.0
 40
0.5773502691896161
 41
5.916133530225584
 42
8.639379797371912
  0
LINE
  5
CA15
330
1F
100
AcDbEntity
  8
Visible Edges(ISO)
100
AcDbLine
 10
334.2128726672318
 20
367.7442636578719
 30
0.0
 11
322.0152806917648
 21
374.7865466683728
 31
0.0
  0
LINE
  5
CA16
330
1F
100
AcDbEntity
  8
Visible Edges(ISO)
100
AcDbLine
 10
334.2128726672318
 20
367.7442636578719
 30
0.0
 11
335.0486525691263
 21
369.0264145825326
 31
0.0
  0
ELLIPSE
  5
CA17
330
1F
100
AcDbEntity
  8
Visible Edges(ISO)
100
AcDbEllipse
 10
336.5993580537363
 20
370.7177989779105
 30
0.0
 11
-1.950000000000065
 21
-3.377499074759053
 31
0.0
210
0.0
220
0.0
230
1.0
 40
0.577350269189616
 41
6.022666077284148
 42
8.639379797372157
  0
LINE
  5
CA18
330
1F
100
AcDbEntity
  8
Visible Edges(ISO)
100
AcDbLine
 10
339.3570745003636
 20
373.5778163186438
 30
0.0
 11
339.3570745003636
 21
372.3099673107196
 31
0.0
  0
ELLIPSE
  5
CA19
330
1F
100
AcDbEntity
  8
Visible Edges(ISO)
100
AcDbEllipse
 10
340.4177346721434
 20
374.1901887543396
 30
0.0
 11
-0.749999999999942
 21
-1.299038105676594
 31
0.0
210
0.0
220
0.0
230
0.9999999999999998
 40
0.5773502691896163
 41
4.827001151035925
 42
5.497787143782126
  0
ELLIPSE
  5
CA1A
330
1F
100
AcDbEntity
  8
Visible Edges(ISO)
100
AcDbEllipse
 10
337.925183268461
 20
375.0350246495657
 30
0.0
 11
-1.500000000000049
 21
-2.598076211353114
 31
0.0
210
0.0
220
0.0
230
1.0
 40
0.5773502691896163
 41
1.685408497446246
 42
2.356194490192599
  0
LINE
  5
CA1B
330
1F
100
AcDbEntity
  8
Visible Edges(ISO)
100
AcDbLine
 10
340.0465036120205
 20
392.916299771882
 30
0.0
 11
340.0465036120205
 21
376.2597695209572
 31
0.0
  0
ELLIPSE
  5
CA1C
330
1F
100
AcDbEntity
  8
Visible Edges(ISO)
100
AcDbEllipse
 10
230.3742418499918
 20
452.0714770600919
 30
0.0
 11
2.549999999999821
 21
4.416729559300483
 31
0.0
210
0.0
220
0.0
230
1.0
 40
0.5773502691896161
 41
0.0
 42
0.785398163397427
  0
ELLIPSE
  5
CA1D
330
1F
100
AcDbEntity
  8
Visible Edges(ISO)
100
AcDbEllipse
 10
336.4402590279693
 20
390.8342334905163
 30
0.0
 11
2.549999999999823
 21
4.416729559300456
 31
0.0
210
0.0
220
0.0
230
1.0
 40
0.5773502691896161
 41
5.497787143782134
 42
7.068583470577028
  0
LINE
  5
CA1E
330
1F
100
AcDbEntity
  8
Visible Edges(ISO)
100
AcDbLine
 10
230.3742418499918
 20
456.2356096228232
 30
0.0
 11
218.4948479260585
 21
449.3770383430305
 31
0.0
  0
LINE
  5
CA1F
330
1F
100
AcDbEntity
  8
Visible Edges(ISO)
100
AcDbLine
 10
324.5608651040361
 20
388.1397947734549
 30
0.0
 11
336.4402590279693
 21
394.9983660532475
 31
0.0
  0
ELLIPSE
  5
CA20
330
1F
100
AcDbEntity
  8
Visible Edges(ISO)
100
AcDbEllipse
 10
218.4948479260585
 20
445.2129057802993
 30
0.0
 11
-2.54999999999956
 21
-4.416729559300605
 31
0.0
210
0.0
220
0.0
230
0.9999999999999998
 40
0.5773502691896163
 41
3.92699081698699
 42
5.497787143781891
  0
ELLIPSE
  5
CA21
330
1F
100
AcDbEntity
  8
Visible Edges(ISO)
100
AcDbEllipse
 10
324.5608651040361
 20
383.9756622107237
 30
0.0
 11
2.550000000000086
 21
4.416729559300297
 31
0.0
210
0.0
220
0.0
230
1.0
 40
0.5773502691896161
 41
0.7853981633976748
 42
2.356194490192578
  0
LINE
  5
CA22
330
1F
100
AcDbEntity
  8
Visible Edges(ISO)
100
AcDbLine
 10
214.8886033420073
 20
443.1308394989336
 30
0.0
 11
214.8886033420073
 21
426.4743092480089
 31
0.0
  0
LINE
  5
CA23
330
1F
100
AcDbEntity
  8
Visible Edges(ISO)
100
AcDbLine
 10
320.9546205199849
 20
365.2370656784333
 30
0.0
 11
320.9546205199849
 21
381.8935959293581
 31
0.0
  0
LINE
  5
CA24
330
1F
100
AcDbEntity
  8
Visible Edges(ISO)
100
AcDbLine
 10
322.4517660782693
 20
360.29801689265
 30
0.0
 11
278.594902967145
 21
385.6187886156697
 31
0.0
  0
LINE
  5
CA25
330
1F
100
AcDbEntity
  8
Visible Edges(ISO)
100
AcDbLine
 10
257.8221680075764
 20
397.6119327363812
 30
0.0
 11
216.3857489002916
 21
421.5352604622256
 31
0.0
  0
LINE
  5
CA27
330
1F
100
AcDbEntity
  8
Visible Edges(ISO)
100
AcDbLine
 10
338.9902590279691
 20
395.2509630498168
 30
0.0
 11
294.7651454524828
 21
420.7843442775651
 31
0.0
  0
LINE
  5
CA28
330
1F
100
AcDbEntity
  8
Visible Edges(ISO)
100
AcDbLine
 10
274.2413711285436
 20
432.6337509082783
 30
0.0
 11
232.9242418499915
 21
456.4882066193924
 31
0.0
  0
ELLIPSE
  5
CA29
330
1F
100
AcDbEntity
  8
Hidden
100
AcDbEllipse
 10
218.3357489002915
 20
424.9127595369848
 30
0.0
 11
-1.949999999999861
 21
-3.377499074759172
 31
0.0
210
0.0
220
0.0
230
0.9999999999999998
 40
0.5773502691896161
 41
0.0000000000000027
 42
1.831315556690669
  0
LINE
  5
CA2A
330
1F
100
AcDbEntity
  8
Hidden
100
AcDbLine
 10
322.0152806917647
 20
366.2133325686323
 30
0.0
 11
220.722234286796
 21
424.6949001775771
 31
0.0
  0
LINE
  5
CA2B
330
1F
100
AcDbEntity
  8
Hidden
100
AcDbLine
 10
220.722234286796
 20
424.6949001775771
 30
0.0
 11
219.8864543849016
 21
425.0119755995537
 31
0.0
  0
ELLIPSE
  5
CA2C
330
1F
100
AcDbEntity
  8
Hidden
100
AcDbEllipse
 10
218.3357489002915
 20
424.9127595369848
 30
0.0
 11
-1.199999999999918
 21
-2.078460969082569
 31
0.0
210
0.0
220
0.0
230
1.0
 40
0.5773502691896163
 41
5.49778714378214
 42
8.221033410928463
  0
LINE
  5
CA2D
330
1F
100
AcDbEntity
  8
Hidden
100
AcDbLine
 10
216.6386926254439
 20
423.9329636398715
 30
0.0
 11
216.6386926254439
 21
425.2008126477958
 31
0.0
  0
ELLIPSE
  5
CA2E
330
1F
100
AcDbEntity
  8
Hidden
100
AcDbEllipse
 10
214.5173722818844
 20
423.9760677764043
 30
0.0
 11
1.499999999999897
 21
2.598076211353212
 31
0.0
210
0.0
220
0.0
230
0.9999999999999998
 40
0.5773502691896161
 41
5.497787143782132
 42
6.168573136528341
  0
ELLIPSE
  5
CA2F
330
1F
100
AcDbEntity
  8
Hidden
100
AcDbEllipse
 10
217.0099236855668
 20
427.6990541194004
 30
0.0
 11
-0.7499999999999427
 21
-1.299038105676596
 31
0.0
210
0.0
220
0.0
230
1.0
 40
0.577350269189616
 41
5.497787143782128
 42
6.16857313652835
  0
LINE
  5
CA30
330
1F
100
AcDbEntity
  8
Hidden
100
AcDbLine
 10
215.9492635137871
 20
427.0866816837046
 30
0.0
 11
215.9492635137871
 21
443.7432119346294
 31
0.0
  0
ELLIPSE
  5
CA31
330
1F
100
AcDbEntity
  8
Hidden
100
AcDbEllipse
 10
218.4948479260585
 20
445.2129057802993
 30
0.0
 11
1.800000000000056
 21
3.117691453623735
 31
0.0
210
0.0
220
0.0
230
1.0
 40
0.5773502691896161
 41
0.7853981633976784
 42
2.356194490192585
  0
LINE
  5
CA32
330
1F
100
AcDbEntity
  8
Hidden
100
AcDbLine
 10
218.4948479260585
 20
448.152293471639
 30
0.0
 11
230.3742418499918
 21
455.0108647514317
 31
0.0
  0
ELLIPSE
  5
CA33
330
1F
100
AcDbEntity
  8
Hidden
100
AcDbEllipse
 10
230.3742418499918
 20
452.071477060092
 30
0.0
 11
1.799999999999873
 21
3.117691453623848
 31
0.0
210
0.0
220
0.0
230
1.0
 40
0.577350269189616
 41
5.497787143782126
 42
7.068583470577028
  0
LINE
  5
CA34
330
1F
100
AcDbEntity
  8
Hidden
100
AcDbLine
 10
232.9198262622631
 20
453.5411709057618
 30
0.0
 11
232.9198262622631
 21
436.8846406548372
 31
0.0
  0
ELLIPSE
  5
CA35
330
1F
100
AcDbEntity
  8
Hidden
100
AcDbEllipse
 10
231.8591660904834
 20
436.2722682191413
 30
0.0
 11
-0.7500000000000206
 21
-1.299038105676551
 31
0.0
210
0.0
220
0.0
230
1.0
 40
0.5773502691896161
 41
1.685408497446241
 42
2.356194490192617
  0
ELLIPSE
  5
CA36
330
1F
100
AcDbEntity
  8
Hidden
100
AcDbEllipse
 10
234.3517174941658
 20
435.4274323239153
 30
0.0
 11
-1.499999999999904
 21
-2.598076211353224
 31
0.0
210
0.0
220
0.0
230
1.0
 40
0.5773502691896157
 41
4.827001151035927
 42
5.497787143782143
  0
LINE
  5
CA37
330
1F
100
AcDbEntity
  8
Hidden
100
AcDbLine
 10
232.2303971506063
 20
434.2026874525237
 30
0.0
 11
232.2303971506063
 21
432.9348384445994
 31
0.0
  0
ELLIPSE
  5
CA38
330
1F
100
AcDbEntity
  8
Hidden
100
AcDbEllipse
 10
230.5333408757586
 20
431.9550425474862
 30
0.0
 11
-1.200000000000038
 21
-2.07846096908249
 31
0.0
210
0.0
220
0.0
230
1.0
 40
0.577350269189616
 41
5.916133530225935
 42
8.639379797372173
  0
LINE
  5
CA39
330
1F
100
AcDbEntity
  8
Hidden
100
AcDbLine
 10
228.9826353911486
 20
430.2636581521083
 30
0.0
 11
228.1468554892542
 21
428.9815072274475
 31
0.0
  0
LINE
  5
CA3A
330
1F
100
AcDbEntity
  8
Hidden
100
AcDbLine
 10
322.0152806917648
 20
374.7865466683728
 30
0.0
 11
229.1514264428073
 21
428.4015179169935
 31
0.0
  0
ELLIPSE
  5
CA3B
330
1F
100
AcDbEntity
  8
Hidden
100
AcDbEllipse
 10
230.5333408757586
 20
431.9550425474862
 30
0.0
 11
-1.949999999999862
 21
-3.37749907475917
 31
0.0
210
0.0
220
0.0
230
0.9999999999999998
 40
0.5773502691896161
 41
6.022666077283802
 42
8.639379797371923
  0
LINE
  5
CA3C
330
1F
100
AcDbEntity
  8
Hidden
100
AcDbLine
 10
233.291057322386
 20
433.5472108802952
 30
0.0
 11
233.291057322386
 21
434.8150598882195
 31
0.0
  0
ELLIPSE
  5
CA3D
330
1F
100
AcDbEntity
  8
Hidden
100
AcDbEllipse
 10
234.3517174941658
 20
435.4274323239153
 30
0.0
 11
0.7500000000000237
 21
1.299038105676557
 31
0.0
210
0.0
220
0.0
230
1.0
 40
0.5773502691896163
 41
1.685408497446241
 42
2.356194490192594
  0
ELLIPSE
  5
CA3E
330
1F
100
AcDbEntity
  8
Hidden
100
AcDbEllipse
 10
231.8591660904834
 20
436.2722682191413
 30
0.0
 11
1.499999999999893
 21
2.598076211353205
 31
0.0
210
0.0
220
0.0
230
1.0
 40
0.5773502691896161
 41
4.827001151035925
 42
5.497787143782132
  0
LINE
  5
CA3F
330
1F
100
AcDbEntity
  8
Hidden
100
AcDbLine
 10
233.9804864340429
 20
437.4970130905329
 30
0.0
 11
233.9804864340429
 21
454.1535433414577
 31
0.0
  0
ELLIPSE
  5
CA40
330
1F
100
AcDbEntity
  8
Hidden
100
AcDbEllipse
 10
230.3742418499918
 20
452.071477060092
 30
0.0
 11
2.549999999999822
 21
4.416729559300453
 31
0.0
210
0.0
220
0.0
230
0.9999999999999998
 40
0.5773502691896163
 41
5.497787143782134
 42
6.283185307179589
  0
LINE
  5
CA41
330
1F
100
AcDbEntity
  8
Hidden Edges(ISO)
100
AcDbLine
 10
278.594902967145
 20
385.6187886156697
 30
0.0
 11
257.8221680075764
 21
397.6119327363812
 31
0.0
  0
LINE
  5
CA42
330
1F
100
AcDbEntity
  8
Hidden
100
AcDbLine
 10
323.2017660782692
 20
361.5970549983266
 30
0.0
 11
217.1357489002916
 21
422.8342985679022
 31
0.0
  0
LINE
  5
CA43
330
1F
100
AcDbEntity
  8
Hidden
100
AcDbLine
 10
338.2402590279692
 20
393.9519249441403
 30
0.0
 11
232.1742418499916
 21
455.1891685137158
 31
0.0
  0
LINE
  5
CA44
330
1F
100
AcDbEntity
  8
Hidden
100
AcDbLine
 10
294.7651454524828
 20
420.7843442775651
 30
0.0
 11
274.2413711285436
 21
432.6337509082783
 31
0.0
  0
DIMENSION
  5
CA8F
330
1F
100
AcDbEntity
  8
DIMENSION
 62
     0
100
AcDbDimension
  2
*D6
 10
255.9685293090473
 20
181.341417167162
 30
0.0
 11
250.4185293090468
 21
183.8605795136832
 31
0.0
 70
    32
 71
     5
 42
11.10000000000099
  3
DEFAULT-ISO
100
AcDbAlignedDimension
 13
244.8685293090463
 23
206.2427553731198
 33
0.0
 14
255.9685293090473
 24
206.2427553731198
 34
0.0
100
AcDbRotatedDimension
  0
DIMENSION
  5
CAA5
330
1F
100
AcDbEntity
  8
DIMENSION
 62
     0
100
AcDbDimension
  2
*D7
 10
386.4258733864879
 20
251.4309804725098
 30
0.0
 11
383.8768679294619
 21
255.4309804725104
 31
0.0
 70
    32
 71
     5
 42
8.000000000000937
  3
DEFAULT-ISO
100
AcDbAlignedDimension
 13
371.5342445328142
 23
259.4309804725108
 33
0.0
 14
371.5342445328142
 24
251.4309804725098
 34
0.0
 50
90.0
100
AcDbRotatedDimension
  0
LINE
  5
CC9E
330
1F
100
AcDbEntity
  8
Hidden
100
AcDbLine
 10
322.0152806917648
 20
376.5512353443757
 30
0.0
 11
229.843911764102
 21
429.766400006337
 31
0.0
  0
ENDSEC
  0
SECTION
  2
OBJECTS
  0
DICTIONARY
  5
C
330
0
100
AcDbDictionary
281
     1
  3
ACAD_2007HEADERVARS_RT
350
CFA1
  3
ACAD_CIP_PREVIOUS_PRODUCT_INFO
350
CD6D
  3
ACAD_COLOR
350
8E87
  3
ACAD_GROUP
350
D
  3
ACAD_LAYOUT
350
1A
  3
ACAD_MATERIAL
350
8E86
  3
ACAD_MLEADERSTYLE
350
CD00
  3
ACAD_MLINESTYLE
350
17
  3
ACAD_PLOTSETTINGS
350
19
  3
ACAD_PLOTSTYLENAME
350
E
  3
ACAD_SCALELIST
350
CCEE
  3
ACAD_TABLESTYLE
350
8E88
  3
ACAD_VISUALSTYLE
350
CCDA
  3
ACDB_RECOMPOSE_DATA
350
CF9F
  3
AcDbVariableDictionary
350
BC
  3
AcmDictionary
350
CD9A
  3
AMG
350
CD6F
  3
AMGSNAPSETTINGS
350
CDDC
  3
DWGPROPS
350
CFA0
  0
DICTIONARY
  5
CD29
330
8
100
AcDbDictionary
280
     1
281
     1
  0
DICTIONARY
  5
A769
330
2
100
AcDbDictionary
280
     1
281
     1
  3
ACAD_LAYERFILTERS
360
B4CC
  3
ACAD_LAYERSTATES
360
A76A
  3
ACLYDICTIONARY
360
B4CB
  0
DICTIONARY
  5
CD0F
330
10
100
AcDbDictionary
280
     1
281
     1
  3
ADSK_XREC_LAYER_RECONCILED
360
CD10
  0
DICTIONARY
  5
CD11
330
33
100
AcDbDictionary
280
     1
281
     1
  3
ADSK_XREC_LAYER_RECONCILED
360
CD12
  0
DICTIONARY
  5
CD13
330
E85
100
AcDbDictionary
280
     1
281
     1
  3
ADSK_XREC_LAYER_RECONCILED
360
CD14
  0
DICTIONARY
  5
CD15
330
E95
100
AcDbDictionary
280
     1
281
     1
  3
ADSK_XREC_LAYER_RECONCILED
360
CD16
  0
DICTIONARY
  5
CD17
330
8B01
100
AcDbDictionary
280
     1
281
     1
  3
ADSK_XREC_LAYER_RECONCILED
360
CD18
  0
DICTIONARY
  5
CD19
330
8B03
100
AcDbDictionary
280
     1
281
     1
  3
ADSK_XREC_LAYER_RECONCILED
360
CD1A
  0
DICTIONARY
  5
CD1B
330
8B04
100
AcDbDictionary
280
     1
281
     1
  3
ADSK_XREC_LAYER_RECONCILED
360
CD1C
  0
DICTIONARY
  5
CD1D
330
A761
100
AcDbDictionary
280
     1
281
     1
  3
ADSK_XREC_LAYER_RECONCILED
360
CD1E
  0
DICTIONARY
  5
CD1F
330
BE7C
100
AcDbDictionary
280
     1
281
     1
  3
ADSK_XREC_LAYER_RECONCILED
360
CD20
  0
DICTIONARY
  5
CD21
330
C958
100
AcDbDictionary
280
     1
281
     1
  3
ADSK_XREC_LAYER_RECONCILED
360
CD22
  0
DICTIONARY
  5
BE
330
1F
100
AcDbDictionary
280
     1
281
     1
  3
ACAD_INDEX
360
A64A
  3
ACAD_SORTENTS
360
BF
  0
DICTIONARY
  5
CEF2
330
A6C6
100
AcDbDictionary
280
     1
281
     1
  3
ACAD_SORTENTS
360
CEF3
  0
DICTIONARY
  5
CFA1
102
{ACAD_REACTORS
330
C
102
}
330
C
100
AcDbDictionary
281
     1
  3
DIMARCSYM
350
CFA3
  3
DIMFXL
350
CFA2
  3
DIMLTEX1
350
CFA5
  3
DIMLTEX2
350
CFA6
  3
DIMLTYPE
350
CFA4
  0
XRECORD
  5
CD6D
102
{ACAD_REACTORS
330
C
102
}
330
C
100
AcDbXrecord
280
     1
300
AMECH_PP
300
2012
300
PDSP_F_S
  0
DICTIONARY
  5
8E87
102
{ACAD_REACTORS
330
C
102
}
330
C
100
AcDbDictionary
281
     1
  0
DICTIONARY
  5
D
102
{ACAD_REACTORS
330
C
102
}
330
C
100
AcDbDictionary
281
     1
  0
DICTIONARY
  5
1A
102
{ACAD_REACTORS
330
C
102
}
330
C
100
AcDbDictionary
281
     1
  3
Layout1
350
1E
  3
Layout2
350
26
  3
Model
350
22
  0
DICTIONARY
  5
8E86
102
{ACAD_REACTORS
330
C
102
}
330
C
100
AcDbDictionary
281
     1
  3
ByBlock
350
CCCA
  3
ByLayer
350
CCC2
  3
Global
350
CCD2
  0
DICTIONARY
  5
CD00
102
{ACAD_REACTORS
330
C
102
}
330
C
100
AcDbDictionary
281
     1
  3
Standard
350
CD01
  0
DICTIONARY
  5
17
102
{ACAD_REACTORS
330
C
102
}
330
C
100
AcDbDictionary
281
     1
  3
Standard
350
18
  0
DICTIONARY
  5
19
102
{ACAD_REACTORS
330
C
102
}
330
C
100
AcDbDictionary
281
     1
  0
ACDBDICTIONARYWDFLT
  5
E
102
{ACAD_REACTORS
330
C
102
}
330
C
100
AcDbDictionary
281
     1
  3
Normal
350
F
100
AcDbDictionaryWithDefault
340
F
  0
DICTIONARY
  5
CCEE
102
{ACAD_REACTORS
330
C
102
}
330
C
100
AcDbDictionary
281
     1
  3
A0
350
CCEF
  3
A1
350
CCF0
  3
A2
350
CCF1
  3
A3
350
CCF2
  3
A4
350
CCF3
  3
A5
350
CCF4
  3
A6
350
CCF5
  3
A7
350
CCF6
  3
A8
350
CCF7
  3
A9
350
CCF8
  3
B0
350
CCF9
  3
B1
350
CCFA
  3
B2
350
CCFB
  3
B3
350
CCFC
  3
B4
350
CCFD
  3
B5
350
CCFE
  3
B6
350
CCFF
  0
DICTIONARY
  5
8E88
102
{ACAD_REACTORS
330
C
102
}
330
C
100
AcDbDictionary
281
     1
  3
Standard
350
8E89
  0
DICTIONARY
  5
CCDA
102
{ACAD_REACTORS
330
C
102
}
330
C
100
AcDbDictionary
281
     1
  3
2dWireframe
350
CCE0
  3
3D Hidden
350
CCE2
  3
3dWireframe
350
CCE1
  3
Basic
350
CCDF
  3
Brighten
350
CCE6
  3
ColorChange
350
CCEA
  3
Conceptual
350
CCE3
  3
Dim
350
CCE5
  3
EdgeColorOff
350
CCED
  3
Facepattern
350
CCE9
  3
Flat
350
CCDB
  3
FlatWithEdges
350
CCDC
  3
Gouraud
350
CCDD
  3
GouraudWithEdges
350
CCDE
  3
Hidden
350
CD61
  3
JitterOff
350
CCEB
  3
Linepattern
350
CCE8
  3
OverhangOff
350
CCEC
  3
Realistic
350
CCE4
  3
Shaded
350
CD66
  3
Shaded with edges
350
CD65
  3
Shades of Gray
350
CD62
  3
Sketchy
350
CD63
  3
Thicken
350
CCE7
  3
Wireframe
350
CD60
  3
X-Ray
350
CD64
  0
XRECORD
  5
CF9F
102
{ACAD_REACTORS
330
C
102
}
330
C
100
AcDbXrecord
280
     1
 90
        1
330
8E89
  0
DICTIONARY
  5
BC
102
{ACAD_REACTORS
330
C
102
}
330
C
100
AcDbDictionary
281
     1
  3
CANNOSCALE
350
CD5D
  3
CMLEADERSTYLE
350
CD5C
  3
CTABLESTYLE
350
8EA5
  3
DIMASSOC
350
38B5
  3
INDEXCTL
350
144
  3
PROJECTNAME
350
94DB
  3
SORTENTS
350
BD
  3
XCLIPFRAME
350
CF9D
  0
DICTIONARY
  5
CD9A
102
{ACAD_REACTORS
330
C
102
}
330
C
100
AcDbDictionary
281
     1
  3
AcmStdDictionary
350
CDA5
  0
DICTIONARY
  5
CD6F
102
{ACAD_REACTORS
330
C
102
}
330
C
100
AcDbDictionary
281
     1
  0
DICTIONARY
  5
CDDC
102
{ACAD_REACTORS
330
C
102
}
330
C
100
AcDbDictionary
281
     1
  0
XRECORD
  5
CFA0
102
{ACAD_REACTORS
330
C
102
}
330
C
100
AcDbXrecord
280
     1
  1
DWGPROPS COOKIE
  2

  3

  4

  6

  7

  8
REBI01
  9

300
=
301
=
302
=
303
=
304
=
305
=
306
=
307
=
308
=
309
=
 40
0.999535335648148
 41
2451682.620146146
 42
2455943.454846586
  1

 90
        0
  0
DICTIONARY
  5
B4CC
102
{ACAD_REACTORS
330
A769
102
}
330
A769
100
AcDbDictionary
281
     1
  0
DICTIONARY
  5
A76A
102
{ACAD_REACTORS
330
A769
102
}
330
A769
100
AcDbDictionary
281
     1
  0
DICTIONARY
  5
B4CB
102
{ACAD_REACTORS
330
A769
102
}
330
A769
100
AcDbDictionary
281
     1
1001
ACAD
1000
<All
  0
XRECORD
  5
CD10
102
{ACAD_REACTORS
330
CD0F
102
}
330
CD0F
100
AcDbXrecord
280
     1
290
     1
  0
XRECORD
  5
CD12
102
{ACAD_REACTORS
330
CD11
102
}
330
CD11
100
AcDbXrecord
280
     1
290
     1
  0
XRECORD
  5
CD14
102
{ACAD_REACTORS
330
CD13
102
}
330
CD13
100
AcDbXrecord
280
     1
290
     1
  0
XRECORD
  5
CD16
102
{ACAD_REACTORS
330
CD15
102
}
330
CD15
100
AcDbXrecord
280
     1
290
     1
  0
XRECORD
  5
CD18
102
{ACAD_REACTORS
330
CD17
102
}
330
CD17
100
AcDbXrecord
280
     1
290
     1
  0
XRECORD
  5
CD1A
102
{ACAD_REACTORS
330
CD19
102
}
330
CD19
100
AcDbXrecord
280
     1
290
     1
  0
XRECORD
  5
CD1C
102
{ACAD_REACTORS
330
CD1B
102
}
330
CD1B
100
AcDbXrecord
280
     1
290
     1
  0
XRECORD
  5
CD1E
102
{ACAD_REACTORS
330
CD1D
102
}
330
CD1D
100
AcDbXrecord
280
     1
290
     1
  0
XRECORD
  5
CD20
102
{ACAD_REACTORS
330
CD1F
102
}
330
CD1F
100
AcDbXrecord
280
     1
290
     1
  0
XRECORD
  5
CD22
102
{ACAD_REACTORS
330
CD21
102
}
330
CD21
100
AcDbXrecord
280
     1
290
     1
  0
DICTIONARY
  5
A64A
102
{ACAD_REACTORS
330
BE
102
}
330
BE
100
AcDbDictionary
281
     1
  3
*A1
350
A64B
  3
*A2
350
A64C
  0
SORTENTSTABLE
  5
BF
102
{ACAD_REACTORS
330
BE
102
}
330
BE
100
AcDbSortentsTable
330
1F
331
24D3
  5
24D3
331
8D28
  5
8D28
331
8E1E
  5
8E1E
331
24DB
  5
24DB
331
8D9F
  5
8D9F
331
8E26
  5
8E26
331
8D68
  5
8D68
331
75FA
  5
75FA
331
8CF1
  5
8CF1
331
8E2E
  5
8E2E
331
7602
  5
7602
331
8D70
  5
8D70
331
8E36
  5
8E36
331
B3FF
  5
B3FF
331
8D78
  5
8D78
331
8D80
  5
8D80
331
766A
  5
766A
331
2843
  5
2843
331
8D11
  5
8D11
331
8DF7
  5
8DF7
331
8E3E
  5
8E3E
331
8D88
  5
8D88
331
8D19
  5
8D19
331
8DFF
  5
8DFF
331
8E46
  5
8E46
331
8E4E
  5
8E4E
331
8E07
  5
8E07
331
8D21
  5
8D21
331
8D90
  5
8D90
331
8D98
  5
8D98
331
8D29
  5
8D29
331
24D4
  5
24D4
331
8CEA
  5
8CEA
331
8DA0
  5
8DA0
331
8E1F
  5
8E1F
331
24DC
  5
24DC
331
8D69
  5
8D69
331
75FB
  5
75FB
331
8CF2
  5
8CF2
331
8E27
  5
8E27
331
8E2F
  5
8E2F
331
8D71
  5
8D71
331
8E37
  5
8E37
331
B400
  5
B400
331
8D79
  5
8D79
331
766B
  5
766B
331
8D12
  5
8D12
331
8D81
  5
8D81
331
8DF8
  5
8DF8
331
8E3F
  5
8E3F
331
8E47
  5
8E47
331
8D1A
  5
8D1A
331
8D89
  5
8D89
331
8E00
  5
8E00
331
8E4F
  5
8E4F
331
8D91
  5
8D91
331
8D22
  5
8D22
331
8E08
  5
8E08
331
8D99
  5
8D99
331
8D2A
  5
8D2A
331
8E18
  5
8E18
331
24D5
  5
24D5
331
8CEB
  5
8CEB
331
8DA1
  5
8DA1
331
8E20
  5
8E20
331
8D6A
  5
8D6A
331
75FC
  5
75FC
331
8CF3
  5
8CF3
331
8E28
  5
8E28
331
8D72
  5
8D72
331
8E30
  5
8E30
331
B401
  5
B401
331
7664
  5
7664
331
8D7A
  5
8D7A
331
8E38
  5
8E38
331
8E40
  5
8E40
331
8D82
  5
8D82
331
766C
  5
766C
331
8D13
  5
8D13
331
8DF9
  5
8DF9
331
8E48
  5
8E48
331
8D8A
  5
8D8A
331
8D1B
  5
8D1B
331
8E01
  5
8E01
331
8E50
  5
8E50
331
8D23
  5
8D23
331
8D92
  5
8D92
331
8E09
  5
8E09
331
8D9A
  5
8D9A
331
8E19
  5
8E19
331
75F5
  5
75F5
331
8CEC
  5
8CEC
331
8DA2
  5
8DA2
331
8E21
  5
8E21
331
8D6B
  5
8D6B
331
75FD
  5
75FD
331
8CF4
  5
8CF4
331
8E29
  5
8E29
331
8D73
  5
8D73
331
8E31
  5
8E31
331
B3FA
  5
B3FA
331
B402
  5
B402
331
7665
  5
7665
331
8D7B
  5
8D7B
331
8E39
  5
8E39
331
8E41
  5
8E41
331
766D
  5
766D
331
8D14
  5
8D14
331
8D83
  5
8D83
331
8DFA
  5
8DFA
331
8E49
  5
8E49
331
8D8B
  5
8D8B
331
8D1C
  5
8D1C
331
8E02
  5
8E02
331
8D93
  5
8D93
331
8D24
  5
8D24
331
2856
  5
2856
331
8E0A
  5
8E0A
331
8E51
  5
8E51
331
8D9B
  5
8D9B
331
8E1A
  5
8E1A
331
8CED
  5
8CED
331
75F6
  5
75F6
331
8DA3
  5
8DA3
331
8E22
  5
8E22
331
8D6C
  5
8D6C
331
8CF5
  5
8CF5
331
75FE
  5
75FE
331
8E2A
  5
8E2A
331
8E32
  5
8E32
331
8D74
  5
8D74
331
B3FB
  5
B3FB
331
B403
  5
B403
331
8E3A
  5
8E3A
331
8D7C
  5
8D7C
331
7666
  5
7666
331
8E42
  5
8E42
331
8DFB
  5
8DFB
331
8D84
  5
8D84
331
8D15
  5
8D15
331
766E
  5
766E
331
8E4A
  5
8E4A
331
8E03
  5
8E03
331
8D8C
  5
8D8C
331
8D1D
  5
8D1D
331
8E52
  5
8E52
331
8E0B
  5
8E0B
331
2857
  5
2857
331
8D25
  5
8D25
331
8D94
  5
8D94
331
8E1B
  5
8E1B
331
8D9C
  5
8D9C
331
8E23
  5
8E23
331
8CEE
  5
8CEE
331
75F7
  5
75F7
331
8E2B
  5
8E2B
331
8D6D
  5
8D6D
331
8CF6
  5
8CF6
331
75FF
  5
75FF
331
8DEC
  5
8DEC
331
8E33
  5
8E33
331
8D75
  5
8D75
331
B3FC
  5
B3FC
331
24E8
  5
24E8
331
8E3B
  5
8E3B
331
8D7D
  5
8D7D
331
7667
  5
7667
331
8E43
  5
8E43
331
8DFC
  5
8DFC
331
8D16
  5
8D16
331
766F
  5
766F
331
8D85
  5
8D85
331
8E4B
  5
8E4B
331
8E04
  5
8E04
331
8D8D
  5
8D8D
331
8D1E
  5
8D1E
331
8E53
  5
8E53
331
8D95
  5
8D95
331
8D26
  5
8D26
331
8E1C
  5
8E1C
331
8D9D
  5
8D9D
331
8E24
  5
8E24
331
8CEF
  5
8CEF
331
75F8
  5
75F8
331
8D66
  5
8D66
331
8E2C
  5
8E2C
331
8D6E
  5
8D6E
331
8CF7
  5
8CF7
331
7600
  5
7600
331
8E34
  5
8E34
331
8D76
  5
8D76
331
B3FD
  5
B3FD
331
24E9
  5
24E9
331
8E3C
  5
8E3C
331
8D7E
  5
8D7E
331
8D0F
  5
8D0F
331
2841
  5
2841
331
7668
  5
7668
331
8E44
  5
8E44
331
8DFD
  5
8DFD
331
8D86
  5
8D86
331
8D17
  5
8D17
331
2849
  5
2849
331
7670
  5
7670
331
8E4C
  5
8E4C
331
8E05
  5
8E05
331
8D8E
  5
8D8E
331
8D1F
  5
8D1F
331
8E54
  5
8E54
331
8D27
  5
8D27
331
8D96
  5
8D96
331
8E1D
  5
8E1D
331
8D9E
  5
8D9E
331
8E25
  5
8E25
331
8D67
  5
8D67
331
8CF0
  5
8CF0
331
75F9
  5
75F9
331
8E2D
  5
8E2D
331
7601
  5
7601
331
8D6F
  5
8D6F
331
8E35
  5
8E35
331
8D77
  5
8D77
331
B3FE
  5
B3FE
331
8E3D
  5
8E3D
331
7669
  5
7669
331
2842
  5
2842
331
8D10
  5
8D10
331
8D7F
  5
8D7F
331
8E45
  5
8E45
331
8DFE
  5
8DFE
331
7671
  5
7671
331
284A
  5
284A
331
8D18
  5
8D18
331
8D87
  5
8D87
331
8E4D
  5
8E4D
331
8E06
  5
8E06
331
8D8F
  5
8D8F
331
8D20
  5
8D20
331
8E55
  5
8E55
331
8D97
  5
8D97
  0
SORTENTSTABLE
  5
CEF3
102
{ACAD_REACTORS
330
CEF2
102
}
330
CEF2
100
AcDbSortentsTable
330
A6C6
  0
XRECORD
  5
CFA3
102
{ACAD_REACTORS
330
CFA1
102
}
330
CFA1
100
AcDbXrecord
280
     1
 70
     1
  0
XRECORD
  5
CFA2
102
{ACAD_REACTORS
330
CFA1
102
}
330
CFA1
100
AcDbXrecord
280
     1
 40
3.174999999999999
  0
XRECORD
  5
CFA5
102
{ACAD_REACTORS
330
CFA1
102
}
330
CFA1
100
AcDbXrecord
280
     1
340
14
  0
XRECORD
  5
CFA6
102
{ACAD_REACTORS
330
CFA1
102
}
330
CFA1
100
AcDbXrecord
280
     1
340
14
  0
XRECORD
  5
CFA4
102
{ACAD_REACTORS
330
CFA1
102
}
330
CFA1
100
AcDbXrecord
280
     1
340
14
  0
LAYOUT
  5
1E
102
{ACAD_XDICTIONARY
360
CFA7
102
}
102
{ACAD_REACTORS
330
1A
102
}
330
1A
100
AcDbPlotSettings
  1

  2
HP DesignJet 450C (D/A1) by HP
  4

  6

 40
0.0
 41
0.0
 42
0.0
 43
0.0
 44
0.0
 45
0.0
 46
0.0
 47
0.0
 48
0.0
 49
0.0
140
0.0
141
0.0
142
1.0
143
1.0
 70
   688
 72
     0
 73
     0
 74
     5
  7

 75
    16
147
1.0
148
0.0
149
0.0
100
AcDbLayout
  1
Layout1
 70
     1
 71
     1
 10
0.0
 20
0.0
 11
420.0
 21
297.0
 12
0.0
 22
0.0
 32
0.0
 14
1.000000000000000E+20
 24
1.000000000000000E+20
 34
1.000000000000000E+20
 15
-1.000000000000000E+20
 25
-1.000000000000000E+20
 35
-1.000000000000000E+20
146
0.0
 13
0.0
 23
0.0
 33
0.0
 16
1.0
 26
0.0
 36
0.0
 17
0.0
 27
1.0
 37
0.0
 76
     0
330
1B
  0
LAYOUT
  5
26
102
{ACAD_XDICTIONARY
360
CFAA
102
}
102
{ACAD_REACTORS
330
1A
102
}
330
1A
100
AcDbPlotSettings
  1

  2
HP DesignJet 450C (D/A1) by HP
  4

  6

 40
0.0
 41
0.0
 42
0.0
 43
0.0
 44
0.0
 45
0.0
 46
0.0
 47
0.0
 48
0.0
 49
0.0
140
0.0
141
0.0
142
1.0
143
1.0
 70
   688
 72
     0
 73
     0
 74
     5
  7

 75
    16
147
1.0
148
0.0
149
0.0
100
AcDbLayout
  1
Layout2
 70
     1
 71
     2
 10
0.0
 20
0.0
 11
12.0
 21
9.0
 12
0.0
 22
0.0
 32
0.0
 14
0.0
 24
0.0
 34
0.0
 15
0.0
 25
0.0
 35
0.0
146
0.0
 13
0.0
 23
0.0
 33
0.0
 16
1.0
 26
0.0
 36
0.0
 17
0.0
 27
1.0
 37
0.0
 76
     0
330
23
  0
LAYOUT
  5
22
102
{ACAD_XDICTIONARY
360
CF90
102
}
102
{ACAD_REACTORS
330
1A
102
}
330
1A
100
AcDbPlotSettings
  1

  2
\\intranet\HP LaserJet 8000 Series PCL
  4
A4
  6

 40
7.143749713897705
 41
6.170062541961669
 42
7.736404418945312
 43
7.14373779296875
 44
209.9733276367187
 45
296.9683227539062
 46
0.0
 47
4.23
 48
0.0
 49
0.0
140
0.0
141
0.0
142
1.0
143
1.091146685659227
 70
 11956
 72
     1
 73
     0
 74
     1
  7

 75
     0
147
0.9164670645503903
148
-772.0466868907442
149
169.5077544823878
100
AcDbLayout
  1
Model
 70
     1
 71
     0
 10
0.0
 20
0.0
 11
12.0
 21
9.0
 12
0.0
 22
0.0
 32
0.0
 14
0.0
 24
0.0
 34
0.0
 15
0.0
 25
0.0
 35
0.0
146
0.0
 13
0.0
 23
0.0
 33
0.0
 16
1.0
 26
0.0
 36
0.0
 17
0.0
 27
1.0
 37
0.0
 76
     0
330
1F
331
CCC0
  0
MATERIAL
  5
CCCA
102
{ACAD_XDICTIONARY
360
CCCB
102
}
102
{ACAD_REACTORS
330
8E86
102
}
330
8E86
100
AcDbMaterial
  1
ByBlock
 72
     0
 43
0.0008202099737533
 43
0.0
 43
0.0
 43
0.0
 43
0.0
 43
0.0008202099737533
 43
0.0
 43
0.0
 43
0.0
 43
0.0
 43
1.0
 43
0.0
 43
0.0
 43
0.0
 43
0.0
 43
1.0
 77
     0
 47
0.0008202099737533
 47
0.0
 47
0.0
 47
0.0
 47
0.0
 47
0.0008202099737533
 47
0.0
 47
0.0
 47
0.0
 47
0.0
 47
1.0
 47
0.0
 47
0.0
 47
0.0
 47
0.0
 47
1.0
171
     0
 49
0.0008202099737533
 49
0.0
 49
0.0
 49
0.0
 49
0.0
 49
0.0008202099737533
 49
0.0
 49
0.0
 49
0.0
 49
0.0
 49
1.0
 49
0.0
 49
0.0
 49
0.0
 49
0.0
 49
1.0
175
     0
142
0.0008202099737533
142
0.0
142
0.0
142
0.0
142
0.0
142
0.0008202099737533
142
0.0
142
0.0
142
0.0
142
0.0
142
1.0
142
0.0
142
0.0
142
0.0
142
0.0
142
1.0
179
     0
144
0.0008202099737533
144
0.0
144
0.0
144
0.0
144
0.0
144
0.0008202099737533
144
0.0
144
0.0
144
0.0
144
0.0
144
1.0
144
0.0
144
0.0
144
0.0
144
0.0
144
1.0
147
0.0008202099737533
147
0.0
147
0.0
147
0.0
147
0.0
147
0.0008202099737533
147
0.0
147
0.0
147
0.0
147
0.0
147
1.0
147
0.0
147
0.0
147
0.0
147
0.0
147
1.0
  0
MATERIAL
  5
CCC2
102
{ACAD_XDICTIONARY
360
CCC3
102
}
102
{ACAD_REACTORS
330
8E86
102
}
330
8E86
100
AcDbMaterial
  1
ByLayer
 72
     0
 43
0.0008202099737533
 43
0.0
 43
0.0
 43
0.0
 43
0.0
 43
0.0008202099737533
 43
0.0
 43
0.0
 43
0.0
 43
0.0
 43
1.0
 43
0.0
 43
0.0
 43
0.0
 43
0.0
 43
1.0
 77
     0
 47
0.0008202099737533
 47
0.0
 47
0.0
 47
0.0
 47
0.0
 47
0.0008202099737533
 47
0.0
 47
0.0
 47
0.0
 47
0.0
 47
1.0
 47
0.0
 47
0.0
 47
0.0
 47
0.0
 47
1.0
171
     0
 49
0.0008202099737533
 49
0.0
 49
0.0
 49
0.0
 49
0.0
 49
0.0008202099737533
 49
0.0
 49
0.0
 49
0.0
 49
0.0
 49
1.0
 49
0.0
 49
0.0
 49
0.0
 49
0.0
 49
1.0
175
     0
142
0.0008202099737533
142
0.0
142
0.0
142
0.0
142
0.0
142
0.0008202099737533
142
0.0
142
0.0
142
0.0
142
0.0
142
1.0
142
0.0
142
0.0
142
0.0
142
0.0
142
1.0
179
     0
144
0.0008202099737533
144
0.0
144
0.0
144
0.0
144
0.0
144
0.0008202099737533
144
0.0
144
0.0
144
0.0
144
0.0
144
1.0
144
0.0
144
0.0
144
0.0
144
0.0
144
1.0
147
0.0008202099737533
147
0.0
147
0.0
147
0.0
147
0.0
147
0.0008202099737533
147
0.0
147
0.0
147
0.0
147
0.0
147
1.0
147
0.0
147
0.0
147
0.0
147
0.0
147
1.0
  0
MATERIAL
  5
CCD2
102
{ACAD_XDICTIONARY
360
CCD3
102
}
102
{ACAD_REACTORS
330
8E86
102
}
330
8E86
100
AcDbMaterial
  1
Global
 72
     0
 43
0.0008202099737533
 43
0.0
 43
0.0
 43
0.0
 43
0.0
 43
0.0008202099737533
 43
0.0
 43
0.0
 43
0.0
 43
0.0
 43
1.0
 43
0.0
 43
0.0
 43
0.0
 43
0.0
 43
1.0
 77
     0
 47
0.0008202099737533
 47
0.0
 47
0.0
 47
0.0
 47
0.0
 47
0.0008202099737533
 47
0.0
 47
0.0
 47
0.0
 47
0.0
 47
1.0
 47
0.0
 47
0.0
 47
0.0
 47
0.0
 47
1.0
171
     0
 49
0.0008202099737533
 49
0.0
 49
0.0
 49
0.0
 49
0.0
 49
0.0008202099737533
 49
0.0
 49
0.0
 49
0.0
 49
0.0
 49
1.0
 49
0.0
 49
0.0
 49
0.0
 49
0.0
 49
1.0
175
     0
142
0.0008202099737533
142
0.0
142
0.0
142
0.0
142
0.0
142
0.0008202099737533
142
0.0
142
0.0
142
0.0
142
0.0
142
1.0
142
0.0
142
0.0
142
0.0
142
0.0
142
1.0
179
     0
144
0.0008202099737533
144
0.0
144
0.0
144
0.0
144
0.0
144
0.0008202099737533
144
0.0
144
0.0
144
0.0
144
0.0
144
1.0
144
0.0
144
0.0
144
0.0
144
0.0
144
1.0
147
0.0008202099737533
147
0.0
147
0.0
147
0.0
147
0.0
147
0.0008202099737533
147
0.0
147
0.0
147
0.0
147
0.0
147
1.0
147
0.0
147
0.0
147
0.0
147
0.0
147
1.0
  0
MLEADERSTYLE
  5
CD01
102
{ACAD_REACTORS
330
CD00
102
}
330
CD00
100
AcDbMLeaderStyle
170
     2
171
     1
172
     0
 90
        2
 40
0.0
 41
0.0
173
     1
 91
-1056964608
340
14
 92
       -2
290
     1
 42
2.0
291
     1
 43
0.36
  3
Standard
 44
4.0
300

342
11
174
     1
178
     6
175
     1
176
     0
 93
-1056964608
 45
4.0
292
     0
297
     0
 46
4.0
 94
-1056964608
 47
1.0
 49
1.0
140
1.0
293
     1
141
0.0
294
     1
177
     0
142
1.0
295
     0
296
     0
143
0.125
1001
ACAD_MLEADERVER
1070
     2
  0
MLINESTYLE
  5
18
102
{ACAD_REACTORS
330
17
102
}
330
17
100
AcDbMlineStyle
  2
STANDARD
 70
     0
  3

 62
   256
 51
90.0
 52
90.0
 71
     2
 49
0.5
 62
   256
  6
BYLAYER
 49
-0.5
 62
   256
  6
BYLAYER
  0
ACDBPLACEHOLDER
  5
F
102
{ACAD_REACTORS
330
E
102
}
330
E
  0
SCALE
  5
CCEF
102
{ACAD_REACTORS
330
CCEE
102
}
330
CCEE
100
AcDbScale
 70
     0
300
1:1
140
1.0
141
1.0
290
     1
  0
SCALE
  5
CCF0
102
{ACAD_REACTORS
330
CCEE
102
}
330
CCEE
100
AcDbScale
 70
     0
300
1:2
140
1.0
141
2.0
290
     0
  0
SCALE
  5
CCF1
102
{ACAD_REACTORS
330
CCEE
102
}
330
CCEE
100
AcDbScale
 70
     0
300
1:4
140
1.0
141
4.0
290
     0
  0
SCALE
  5
CCF2
102
{ACAD_REACTORS
330
CCEE
102
}
330
CCEE
100
AcDbScale
 70
     0
300
1:5
140
1.0
141
5.0
290
     0
  0
SCALE
  5
CCF3
102
{ACAD_REACTORS
330
CCEE
102
}
330
CCEE
100
AcDbScale
 70
     0
300
1:8
140
1.0
141
8.0
290
     0
  0
SCALE
  5
CCF4
102
{ACAD_REACTORS
330
CCEE
102
}
330
CCEE
100
AcDbScale
 70
     0
300
1:10
140
1.0
141
10.0
290
     0
  0
SCALE
  5
CCF5
102
{ACAD_REACTORS
330
CCEE
102
}
330
CCEE
100
AcDbScale
 70
     0
300
1:16
140
1.0
141
16.0
290
     0
  0
SCALE
  5
CCF6
102
{ACAD_REACTORS
330
CCEE
102
}
330
CCEE
100
AcDbScale
 70
     0
300
1:20
140
1.0
141
20.0
290
     0
  0
SCALE
  5
CCF7
102
{ACAD_REACTORS
330
CCEE
102
}
330
CCEE
100
AcDbScale
 70
     0
300
1:30
140
1.0
141
30.0
290
     0
  0
SCALE
  5
CCF8
102
{ACAD_REACTORS
330
CCEE
102
}
330
CCEE
100
AcDbScale
 70
     0
300
1:40
140
1.0
141
40.0
290
     0
  0
SCALE
  5
CCF9
102
{ACAD_REACTORS
330
CCEE
102
}
330
CCEE
100
AcDbScale
 70
     0
300
1:50
140
1.0
141
50.0
290
     0
  0
SCALE
  5
CCFA
102
{ACAD_REACTORS
330
CCEE
102
}
330
CCEE
100
AcDbScale
 70
     0
300
1:100
140
1.0
141
100.0
290
     0
  0
SCALE
  5
CCFB
102
{ACAD_REACTORS
330
CCEE
102
}
330
CCEE
100
AcDbScale
 70
     0
300
2:1
140
2.0
141
1.0
290
     0
  0
SCALE
  5
CCFC
102
{ACAD_REACTORS
330
CCEE
102
}
330
CCEE
100
AcDbScale
 70
     0
300
4:1
140
4.0
141
1.0
290
     0
  0
SCALE
  5
CCFD
102
{ACAD_REACTORS
330
CCEE
102
}
330
CCEE
100
AcDbScale
 70
     0
300
8:1
140
8.0
141
1.0
290
     0
  0
SCALE
  5
CCFE
102
{ACAD_REACTORS
330
CCEE
102
}
330
CCEE
100
AcDbScale
 70
     0
300
10:1
140
10.0
141
1.0
290
     0
  0
SCALE
  5
CCFF
102
{ACAD_REACTORS
330
CCEE
102
}
330
CCEE
100
AcDbScale
 70
     0
300
100:1
140
100.0
141
1.0
290
     0
  0
TABLESTYLE
  5
8E89
102
{ACAD_XDICTIONARY
360
CD23
102
}
102
{ACAD_REACTORS
330
8E88
102
}
330
8E88
100
AcDbTableStyle
  3
Standard
 70
     0
 71
     0
 40
1.5
 41
1.5
280
     0
281
     0
  7
Standard
140
4.5
170
     2
 62
     0
 63
     7
283
     0
274
    -2
284
     1
 64
     0
275
    -2
285
     1
 65
     0
276
    -2
286
     1
 66
     0
277
    -2
287
     1
 67
     0
278
    -2
288
     1
 68
     0
279
    -2
289
     1
 69
     0
  7
Standard
140
6.0
170
     5
 62
     0
 63
     7
283
     0
274
    -2
284
     1
 64
     0
275
    -2
285
     1
 65
     0
276
    -2
286
     1
 66
     0
277
    -2
287
     1
 67
     0
278
    -2
288
     1
 68
     0
279
    -2
289
     1
 69
     0
  7
Standard
140
4.5
170
     5
 62
     0
 63
     7
283
     0
274
    -2
284
     1
 64
     0
275
    -2
285
     1
 65
     0
276
    -2
286
     1
 66
     0
277
    -2
287
     1
 67
     0
278
    -2
288
     1
 68
     0
279
    -2
289
     1
 69
     0
  0
VISUALSTYLE
  5
CCE0
102
{ACAD_XDICTIONARY
360
CFBA
102
}
102
{ACAD_REACTORS
330
CCDA
102
}
330
CCDA
100
AcDbVisualStyle
  2
2dWireframe
 70
     4
 71
     0
 72
     2
 73
     0
 90
        0
 40
-0.6
 41
-30.0
 62
     5
 63
     7
 74
     1
 91
        4
 64
     7
 65
   257
 75
     1
175
     1
 42
1.0
 92
        0
 66
   257
 43
1.0
 76
     1
 77
     6
 78
     2
 67
     7
 79
     5
170
     0
171
     0
290
     0
174
     0
 93
        1
 44
0.0
173
     0
291
     0
 45
0.0
1001
ACAD
1000
AcDbSavedByObjectVersion
1070
     0
  0
VISUALSTYLE
  5
CCE2
102
{ACAD_XDICTIONARY
360
CFBE
102
}
102
{ACAD_REACTORS
330
CCDA
102
}
330
CCDA
100
AcDbVisualStyle
  2
3D Hidden
 70
     6
 71
     1
 72
     2
 73
     2
 90
        0
 40
-0.6
 41
-30.0
 62
     5
 63
     7
 74
     2
 91
        2
 64
     7
 65
   257
 75
     2
175
     1
 42
179.0
 92
        0
 66
   257
 43
1.0
 76
     1
 77
     6
 78
     2
 67
     7
 79
     3
170
     0
171
     0
290
     0
174
     0
 93
        1
 44
0.0
173
     0
291
     0
 45
0.0
1001
ACAD
1000
AcDbSavedByObjectVersion
1070
     0
  0
VISUALSTYLE
  5
CCE1
102
{ACAD_XDICTIONARY
360
CFBC
102
}
102
{ACAD_REACTORS
330
CCDA
102
}
330
CCDA
100
AcDbVisualStyle
  2
3dWireframe
 70
     5
 71
     0
 72
     2
 73
     0
 90
        0
 40
-0.6
 41
-30.0
 62
     5
 63
     7
 74
     1
 91
        4
 64
     7
 65
   257
 75
     1
175
     1
 42
1.0
 92
        0
 66
   257
 43
1.0
 76
     1
 77
     6
 78
     2
 67
     7
 79
     5
170
     0
171
     0
290
     0
174
     0
 93
        1
 44
0.0
173
     0
291
     0
 45
0.0
1001
ACAD
1000
AcDbSavedByObjectVersion
1070
     0
  0
VISUALSTYLE
  5
CCDF
102
{ACAD_XDICTIONARY
360
CFB8
102
}
102
{ACAD_REACTORS
330
CCDA
102
}
330
CCDA
100
AcDbVisualStyle
  2
Basic
 70
     7
 71
     1
 72
     0
 73
     1
 90
        0
 40
-0.6
 41
-30.0
 62
     5
 63
     7
 74
     0
 91
        4
 64
     7
 65
   257
 75
     1
175
     1
 42
1.0
 92
        8
 66
     7
 43
1.0
 76
     1
 77
     6
 78
     2
 67
     7
 79
     5
170
     0
171
     0
290
     0
174
     0
 93
        1
 44
0.0
173
     0
291
     1
 45
0.0
1001
ACAD
1000
AcDbSavedByObjectVersion
1070
     0
  0
VISUALSTYLE
  5
CCE6
102
{ACAD_XDICTIONARY
360
CFC6
102
}
102
{ACAD_REACTORS
330
CCDA
102
}
330
CCDA
100
AcDbVisualStyle
  2
Brighten
 70
    12
 71
     2
 72
     2
 73
     0
 90
        0
 40
-0.6
 41
-30.0
 62
     5
 63
     7
 74
     1
 91
        4
 64
     7
 65
   257
 75
     1
175
     1
 42
1.0
 92
        8
 66
     7
 43
1.0
 76
     1
 77
     6
 78
     2
 67
     7
 79
     5
170
     0
171
     0
290
     0
174
     0
 93
        1
 44
50.0
173
     0
291
     1
 45
0.0
1001
ACAD
1000
AcDbSavedByObjectVersion
1070
     0
  0
VISUALSTYLE
  5
CCEA
102
{ACAD_XDICTIONARY
360
CFCE
102
}
102
{ACAD_REACTORS
330
CCDA
102
}
330
CCDA
100
AcDbVisualStyle
  2
ColorChange
 70
    16
 71
     2
 72
     2
 73
     3
 90
        0
 40
-0.6
 41
-30.0
 62
     5
 63
     8
 74
     1
 91
        4
 64
     7
 65
   257
 75
     1
175
     1
 42
1.0
 92
        8
 66
     8
 43
1.0
 76
     1
 77
     6
 78
     2
 67
     7
 79
     5
170
     0
171
     0
290
     0
174
     0
 93
        1
 44
0.0
173
     0
291
     1
 45
0.0
1001
ACAD
1000
AcDbSavedByObjectVersion
1070
     0
  0
VISUALSTYLE
  5
CCE3
102
{ACAD_XDICTIONARY
360
CFC0
102
}
102
{ACAD_REACTORS
330
CCDA
102
}
330
CCDA
100
AcDbVisualStyle
  2
Conceptual
 70
     9
 71
     3
 72
     2
 73
     0
 90
        0
 40
-0.6
 41
-30.0
 62
     5
 63
     7
 74
     2
 91
        2
 64
     7
 65
   257
 75
     1
175
     1
 42
179.0
 92
        8
 66
     7
 43
1.0
 76
     1
 77
     6
 78
     2
 67
     7
 79
     3
170
     0
171
     0
290
     0
174
     0
 93
        1
 44
0.0
173
     0
291
     0
 45
0.0
1001
ACAD
1000
AcDbSavedByObjectVersion
1070
     0
  0
VISUALSTYLE
  5
CCE5
102
{ACAD_XDICTIONARY
360
CFC4
102
}
102
{ACAD_REACTORS
330
CCDA
102
}
330
CCDA
100
AcDbVisualStyle
  2
Dim
 70
    11
 71
     2
 72
     2
 73
     0
 90
        0
 40
-0.6
 41
-30.0
 62
     5
 63
     7
 74
     1
 91
        4
 64
     7
 65
   257
 75
     1
175
     1
 42
1.0
 92
        8
 66
     7
 43
1.0
 76
     1
 77
     6
 78
     2
 67
     7
 79
     5
170
     0
171
     0
290
     0
174
     0
 93
        1
 44
-50.0
173
     0
291
     1
 45
0.0
1001
ACAD
1000
AcDbSavedByObjectVersion
1070
     0
  0
VISUALSTYLE
  5
CCED
102
{ACAD_XDICTIONARY
360
CFD4
102
}
102
{ACAD_REACTORS
330
CCDA
102
}
330
CCDA
100
AcDbVisualStyle
  2
EdgeColorOff
 70
    22
 71
     2
 72
     2
 73
     0
 90
        0
 40
-0.6
 41
-30.0
 62
     5
 63
     7
 74
     1
 91
        4
 64
     7
 65
   257
 75
     1
175
     1
 42
1.0
 92
        8
 66
     7
 43
1.0
 76
     1
 77
     6
 78
     2
 67
     7
 79
     5
170
     0
171
     0
290
     0
174
     0
 93
        1
 44
0.0
173
     0
291
     1
 45
0.0
1001
ACAD
1000
AcDbSavedByObjectVersion
1070
     0
  0
VISUALSTYLE
  5
CCE9
102
{ACAD_XDICTIONARY
360
CFCC
102
}
102
{ACAD_REACTORS
330
CCDA
102
}
330
CCDA
100
AcDbVisualStyle
  2
Facepattern
 70
    15
 71
     2
 72
     2
 73
     0
 90
        0
 40
-0.6
 41
-30.0
 62
     5
 63
     7
 74
     1
 91
        4
 64
     7
 65
   257
 75
     1
175
     1
 42
1.0
 92
        8
 66
     7
 43
1.0
 76
     1
 77
     6
 78
     2
 67
     7
 79
     5
170
     0
171
     0
290
     0
174
     0
 93
        1
 44
0.0
173
     0
291
     1
 45
0.0
1001
ACAD
1000
AcDbSavedByObjectVersion
1070
     0
  0
VISUALSTYLE
  5
CCDB
102
{ACAD_XDICTIONARY
360
CFB0
102
}
102
{ACAD_REACTORS
330
CCDA
102
}
330
CCDA
100
AcDbVisualStyle
  2
Flat
 70
     0
 71
     2
 72
     1
 73
     1
 90
        2
 40
-0.6
 41
30.0
 62
     5
 63
     7
 74
     0
 91
        4
 64
     7
 65
   257
 75
     1
175
     1
 42
1.0
 92
        8
 66
     7
 43
1.0
 76
     1
 77
     6
 78
     2
 67
     7
 79
     5
170
     0
171
     0
290
     0
174
     0
 93
       13
 44
0.0
173
     0
291
     1
 45
0.0
1001
ACAD
1000
AcDbSavedByObjectVersion
1070
     0
  0
VISUALSTYLE
  5
CCDC
102
{ACAD_XDICTIONARY
360
CFB2
102
}
102
{ACAD_REACTORS
330
CCDA
102
}
330
CCDA
100
AcDbVisualStyle
  2
FlatWithEdges
 70
     1
 71
     2
 72
     1
 73
     1
 90
        2
 40
-0.6
 41
30.0
 62
     5
 63
     7
 74
     1
 91
        4
 64
     7
 65
   257
 75
     1
175
     1
 42
1.0
 92
        0
 66
   257
 43
1.0
 76
     1
 77
     6
 78
     2
 67
     7
 79
     5
170
     0
171
     0
290
     0
174
     0
 93
       13
 44
0.0
173
     0
291
     1
 45
0.0
1001
ACAD
1000
AcDbSavedByObjectVersion
1070
     0
  0
VISUALSTYLE
  5
CCDD
102
{ACAD_XDICTIONARY
360
CFB4
102
}
102
{ACAD_REACTORS
330
CCDA
102
}
330
CCDA
100
AcDbVisualStyle
  2
Gouraud
 70
     2
 71
     2
 72
     2
 73
     1
 90
        2
 40
-0.6
 41
30.0
 62
     5
 63
     7
 74
     0
 91
        4
 64
     7
 65
   257
 75
     1
175
     1
 42
1.0
 92
        0
 66
     7
 43
1.0
 76
     1
 77
     6
 78
     2
 67
     7
 79
     5
170
     0
171
     0
290
     0
174
     0
 93
       13
 44
0.0
173
     0
291
     1
 45
0.0
1001
ACAD
1000
AcDbSavedByObjectVersion
1070
     0
  0
VISUALSTYLE
  5
CCDE
102
{ACAD_XDICTIONARY
360
CFB6
102
}
102
{ACAD_REACTORS
330
CCDA
102
}
330
CCDA
100
AcDbVisualStyle
  2
GouraudWithEdges
 70
     3
 71
     2
 72
     2
 73
     1
 90
        2
 40
-0.6
 41
30.0
 62
     5
 63
     7
 74
     1
 91
        4
 64
     7
 65
   257
 75
     1
175
     1
 42
1.0
 92
        0
 66
   257
 43
1.0
 76
     1
 77
     6
 78
     2
 67
     7
 79
     5
170
     0
171
     0
290
     0
174
     0
 93
       13
 44
0.0
173
     0
291
     1
 45
0.0
1001
ACAD
1000
AcDbSavedByObjectVersion
1070
     0
  0
VISUALSTYLE
  5
CD61
102
{ACAD_XDICTIONARY
360
CFD8
102
}
102
{ACAD_REACTORS
330
CCDA
102
}
330
CCDA
100
AcDbVisualStyle
  2
Hidden
 70
     6
 71
     1
 72
     2
 73
     2
 90
        0
 40
-0.6
 41
-30.0
 62
     5
 63
     7
 74
     2
 91
        2
 64
     7
 65
   257
 75
     2
175
     1
 42
40.0
 92
        0
 66
   257
 43
1.0
 76
     1
 77
     6
 78
     2
 67
     7
 79
     3
170
     0
171
     0
290
     0
174
     0
 93
        1
 44
0.0
173
     0
291
     0
 45
0.0
1001
ACAD
1000
AcDbSavedByObjectVersion
1070
     0
  0
VISUALSTYLE
  5
CCEB
102
{ACAD_XDICTIONARY
360
CFD0
102
}
102
{ACAD_REACTORS
330
CCDA
102
}
330
CCDA
100
AcDbVisualStyle
  2
JitterOff
 70
    20
 71
     2
 72
     2
 73
     0
 90
        0
 40
-0.6
 41
-30.0
 62
     5
 63
     7
 74
     1
 91
        4
 64
     7
 65
   257
 75
     1
175
     1
 42
1.0
 92
       10
 66
     7
 43
1.0
 76
     1
 77
     6
 78
     2
 67
     7
 79
     5
170
     0
171
     0
290
     0
174
     0
 93
        1
 44
0.0
173
     0
291
     1
 45
0.0
1001
ACAD
1000
AcDbSavedByObjectVersion
1070
     0
  0
VISUALSTYLE
  5
CCE8
102
{ACAD_XDICTIONARY
360
CFCA
102
}
102
{ACAD_REACTORS
330
CCDA
102
}
330
CCDA
100
AcDbVisualStyle
  2
Linepattern
 70
    14
 71
     2
 72
     2
 73
     0
 90
        0
 40
-0.6
 41
-30.0
 62
     5
 63
     7
 74
     1
 91
        4
 64
     7
 65
   257
 75
     7
175
     7
 42
1.0
 92
        8
 66
     7
 43
1.0
 76
     1
 77
     6
 78
     2
 67
     7
 79
     5
170
     0
171
     0
290
     0
174
     0
 93
        1
 44
0.0
173
     0
291
     1
 45
0.0
1001
ACAD
1000
AcDbSavedByObjectVersion
1070
     0
  0
VISUALSTYLE
  5
CCEC
102
{ACAD_XDICTIONARY
360
CFD2
102
}
102
{ACAD_REACTORS
330
CCDA
102
}
330
CCDA
100
AcDbVisualStyle
  2
OverhangOff
 70
    21
 71
     2
 72
     2
 73
     0
 90
        0
 40
-0.6
 41
-30.0
 62
     5
 63
     7
 74
     1
 91
        4
 64
     7
 65
   257
 75
     1
175
     1
 42
1.0
 92
        9
 66
     7
 43
1.0
 76
     1
 77
     6
 78
     2
 67
     7
 79
     5
170
     0
171
     0
290
     0
174
     0
 93
        1
 44
0.0
173
     0
291
     1
 45
0.0
1001
ACAD
1000
AcDbSavedByObjectVersion
1070
     0
  0
VISUALSTYLE
  5
CCE4
102
{ACAD_XDICTIONARY
360
CFC2
102
}
102
{ACAD_REACTORS
330
CCDA
102
}
330
CCDA
100
AcDbVisualStyle
  2
Realistic
 70
     8
 71
     2
 72
     2
 73
     0
 90
        0
 40
-0.6
 41
-30.0
 62
     5
 63
     7
 74
     1
 91
        0
 64
     7
 65
   257
 75
     1
175
     1
 42
1.0
 92
        8
 66
     8
 43
1.0
 76
     1
 77
     6
 78
     2
 67
     7
 79
     5
170
     0
171
     0
290
     0
174
     0
 93
       13
 44
0.0
173
     0
291
     0
 45
0.0
1001
ACAD
1000
AcDbSavedByObjectVersion
1070
     0
  0
VISUALSTYLE
  5
CD66
102
{ACAD_XDICTIONARY
360
CFE2
102
}
102
{ACAD_REACTORS
330
CCDA
102
}
330
CCDA
100
AcDbVisualStyle
  2
Shaded
 70
    27
 71
     2
 72
     2
 73
     1
 90
        2
 40
-0.6
 41
30.0
 62
     5
 63
     7
 74
     0
 91
        4
 64
     7
 65
   257
 75
     1
175
     1
 42
1.0
 92
        8
 66
   257
 43
1.0
 76
     1
 77
     6
 78
     2
 67
     8
 79
     3
170
     0
171
     0
290
     0
174
     0
 93
        5
 44
0.0
173
     0
291
     0
 45
0.0
1001
ACAD
1000
AcDbSavedByObjectVersion
1070
     0
  0
VISUALSTYLE
  5
CD65
102
{ACAD_XDICTIONARY
360
CFE0
102
}
102
{ACAD_REACTORS
330
CCDA
102
}
330
CCDA
100
AcDbVisualStyle
  2
Shaded with edges
 70
    26
 71
     2
 72
     2
 73
     1
 90
        2
 40
-0.6
 41
30.0
 62
     5
 63
     7
 74
     1
 91
       10
 64
     7
 65
   257
 75
     2
175
     1
 42
1.0
 92
        8
 66
   257
 43
1.0
 76
     1
 77
     6
 78
     2
 67
     7
 79
     3
170
     0
171
     0
290
     0
174
     0
 93
        5
 44
0.0
173
     0
291
     0
 45
0.0
1001
ACAD
1000
AcDbSavedByObjectVersion
1070
     0
  0
VISUALSTYLE
  5
CD62
102
{ACAD_XDICTIONARY
360
CFDA
102
}
102
{ACAD_REACTORS
330
CCDA
102
}
330
CCDA
100
AcDbVisualStyle
  2
Shades of Gray
 70
    23
 71
     2
 72
     2
 73
     3
 90
        0
 40
-0.6
 41
-30.0
 62
     5
 63
     7
 74
     2
 91
        2
 64
     7
 65
     7
 75
     1
175
     1
 42
40.0
 92
        8
 66
     7
 43
1.0
 76
     1
 77
     6
 78
     2
 67
     7
 79
     3
170
     0
171
     0
290
     0
174
     0
 93
        1
 44
0.0
173
     0
291
     0
 45
0.0
1001
ACAD
1000
AcDbSavedByObjectVersion
1070
     0
  0
VISUALSTYLE
  5
CD63
102
{ACAD_XDICTIONARY
360
CFDC
102
}
102
{ACAD_REACTORS
330
CCDA
102
}
330
CCDA
100
AcDbVisualStyle
  2
Sketchy
 70
    24
 71
     1
 72
     2
 73
     2
 90
        0
 40
-0.6
 41
-30.0
 62
     5
 63
     7
 74
     2
 91
        2
 64
     7
 65
     7
 75
     1
175
     1
 42
40.0
 92
       11
 66
     7
 43
1.0
 76
     1
 77
     6
 78
     2
 67
     7
 79
     6
170
     0
171
     0
290
     0
174
     0
 93
        1
 44
0.0
173
     0
291
     0
 45
0.0
1001
ACAD
1000
AcDbSavedByObjectVersion
1070
     0
  0
VISUALSTYLE
  5
CCE7
102
{ACAD_XDICTIONARY
360
CFC8
102
}
102
{ACAD_REACTORS
330
CCDA
102
}
330
CCDA
100
AcDbVisualStyle
  2
Thicken
 70
    13
 71
     2
 72
     2
 73
     0
 90
        0
 40
-0.6
 41
-30.0
 62
     5
 63
     7
 74
     1
 91
        4
 64
     7
 65
   257
 75
     1
175
     1
 42
1.0
 92
       12
 66
     7
 43
1.0
 76
     1
 77
     6
 78
     2
 67
     7
 79
     5
170
     0
171
     0
290
     0
174
     0
 93
        1
 44
0.0
173
     0
291
     1
 45
0.0
1001
ACAD
1000
AcDbSavedByObjectVersion
1070
     0
  0
VISUALSTYLE
  5
CD60
102
{ACAD_XDICTIONARY
360
CFD6
102
}
102
{ACAD_REACTORS
330
CCDA
102
}
330
CCDA
100
AcDbVisualStyle
  2
Wireframe
 70
     5
 71
     0
 72
     2
 73
     0
 90
        0
 40
-0.6
 41
-30.0
 62
     5
 63
     7
 74
     1
 91
        4
 64
     7
 65
   257
 75
     1
175
     1
 42
1.0
 92
        0
 66
   257
 43
1.0
 76
     1
 77
     6
 78
     2
 67
     7
 79
     3
170
     0
171
     0
290
     0
174
     0
 93
        1
 44
0.0
173
     0
291
     0
 45
0.0
1001
ACAD
1000
AcDbSavedByObjectVersion
1070
     0
  0
VISUALSTYLE
  5
CD64
102
{ACAD_XDICTIONARY
360
CFDE
102
}
102
{ACAD_REACTORS
330
CCDA
102
}
330
CCDA
100
AcDbVisualStyle
  2
X-Ray
 70
    25
 71
     2
 72
     2
 73
     1
 90
        1
 40
0.5
 41
-30.0
 62
     5
 63
     7
 74
     1
 91
        0
 64
     7
 65
   257
 75
     1
175
     1
 42
1.0
 92
        8
 66
     7
 43
1.0
 76
     1
 77
     6
 78
     2
 67
     7
 79
     3
170
     0
171
     0
290
     0
174
     0
 93
       13
 44
0.0
173
     0
291
     0
 45
0.0
1001
ACAD
1000
AcDbSavedByObjectVersion
1070
     0
  0
DICTIONARYVAR
  5
CD5D
102
{ACAD_REACTORS
330
BC
102
}
330
BC
100
DictionaryVariables
280
     0
  1
1:1
  0
DICTIONARYVAR
  5
CD5C
102
{ACAD_REACTORS
330
BC
102
}
330
BC
100
DictionaryVariables
280
     0
  1
STANDARD
  0
DICTIONARYVAR
  5
8EA5
102
{ACAD_REACTORS
330
BC
102
}
330
BC
100
DictionaryVariables
280
     0
  1
STANDARD
  0
DICTIONARYVAR
  5
38B5
102
{ACAD_REACTORS
330
BC
102
}
330
BC
100
DictionaryVariables
280
     0
  1
1
  0
DICTIONARYVAR
  5
144
102
{ACAD_REACTORS
330
BC
102
}
330
BC
100
DictionaryVariables
280
     0
  1
3
  0
DICTIONARYVAR
  5
94DB
102
{ACAD_REACTORS
330
BC
102
}
330
BC
100
DictionaryVariables
280
     0
  1

  0
DICTIONARYVAR
  5
BD
102
{ACAD_REACTORS
330
BC
102
}
330
BC
100
DictionaryVariables
280
     0
  1
96
  0
DICTIONARYVAR
  5
CF9D
102
{ACAD_REACTORS
330
BC
102
}
330
BC
100
DictionaryVariables
280
     0
  1
2
  0
DICTIONARY
  5
CDA5
102
{ACAD_REACTORS
330
CD9A
102
}
330
CD9A
100
AcDbDictionary
281
     1
  0
LAYER_INDEX
  5
A64B
102
{ACAD_REACTORS
330
A64A
102
}
330
A64A
100
AcDbIndex
 40
2455943.454846586
100
AcDbLayerIndex
  8
0
360
CF92
 90
      214
  8
Centre
360
CF93
 90
        2
  8
Defpoints
360
CF94
 90
        0
  8
Hidden
360
CF95
 90
       34
  8
DIMENSION
360
CF96
 90
        8
  8
TITLE
360
CF97
 90
        6
  8
TEXT
360
CF98
 90
       16
  8
CENTER
360
CF99
 90
        3
  8
COMPONENT
360
CF9A
 90
        4
  8
Visible Edges(ISO)
360
CF9B
 90
      158
  8
Hidden Edges(ISO)
360
CF9C
 90
        1
  0
SPATIAL_INDEX
  5
A64C
102
{ACAD_REACTORS
330
A64A
102
}
330
A64A
100
AcDbIndex
 40
2455943.454846586
100
AcDbSpatialIndex
 40
87019.71253758967
 40
-41419.50070266856
 40
669325.0365460987
 40
-893.5028881619754
 40
10000000000.0
 40
-0.0000000000129816
 90
        0
 90
     1140
310
01FF0000FFFF0000FFFF0000000000000108000001080000020109000002010A000002010B000002020109000001080000020109000001090000010A700000E6C1500001000100060001000C000100A59B01000100010001000100010001006900010001000100010001000100832D00010001002000010001000100010001
310
000100080001000100010001000100010051000100010001000100010001000800010001000100010001000100080001000100010001000100010001000100010001000100010049000C0001000100010001000100020001000100010001000100010001000100010001000100010014000100010001000100010001000800
310
010001000100010001000100080001000100010001000100010008000100010001000100010052000000010301000006CF9C02000000000002010A06000010D09C02000100010001000100010000000400000CFCE7020001000100050020000000020202010A000001091300002CD34900010001000600010099A201000100
310
0100010001000100010069000100010001000100822D002500200000000202010B00000108700000E8E84900010080A301000100812D00010001000100010001000100010001000400190001000100010001000100080001000100010001000100010051000100010001000100010001000800010001000100010001000100
310
080001000100010001000100010068001A00010001000100010001000100080001000100010001000100010008000100010001000100010001000800010001000100010001000100B24B0001000400010001000100F62700010001000100010001000100010001000100010001000100010001000100010001000100010001
310
00010001000100010001000100010001005400000001003F000083959003000100010001000100010001000100010001000100010001000100010001000100010001001B00010001001B00010001000100010001001B001B0001000100010001000100010001000100010001000100010001000100050005001B001B000100
310
0100010001000100010001000100010001000100010001009A030016000008000002010A720000E9D29303000100010001000100010001000100010001000100010001000100010001000100010001000100010001000100010001000100010001000100010001000100010001000100010001000100010001000100010001
310
00010001000100010001000100020001000100010001000100010001000100010001000100010001000100010001000100010001000100010001000100010001000100010001000100010001000100010002000100010001000100010001000100010001000100010001000100010001000100010001000100010001000100
310
0100010001000100010001000100DA04000056000002020202010A000002010B00000202010A000001080000020109000002010A0E000020E69A020001000100010001000100010001000100010001000100010001000001000002010B00000202010B000001080000020109000002010A000002010B000002020200
  1
END ACDBSPATIALINDEX BINARY DATA
  0
DICTIONARY
  5
CFA7
330
1E
100
AcDbDictionary
280
     1
281
     1
  3
ACAD_XREC_ROUNDTRIP
360
CFA8
  0
DICTIONARY
  5
CFAA
330
26
100
AcDbDictionary
280
     1
281
     1
  3
ACAD_XREC_ROUNDTRIP
360
CFAB
  0
DICTIONARY
  5
CF90
330
22
100
AcDbDictionary
280
     1
281
     1
  3
ACAD_XREC_ROUNDTRIP
360
CFA9
  3
AcPublish_PlotSettingsOverride
360
CF91
  0
DICTIONARY
  5
CCCB
330
CCCA
100
AcDbDictionary
280
     1
281
     1
  3
ACAD_XREC_ROUNDTRIP
360
CFAE
  3
BUMPTILE
360
CCCD
  3
DIFFUSETILE
360
CCCC
  3
OPACITYTILE
360
CCD0
  3
REFLECTIONTILE
360
CCCF
  3
REFRACTIONTILE
360
CCD1
  3
SPECULARTILE
360
CCCE
  0
DICTIONARY
  5
CCC3
330
CCC2
100
AcDbDictionary
280
     1
281
     1
  3
ACAD_XREC_ROUNDTRIP
360
CFAD
  3
BUMPTILE
360
CCC5
  3
DIFFUSETILE
360
CCC4
  3
OPACITYTILE
360
CCC8
  3
REFLECTIONTILE
360
CCC7
  3
REFRACTIONTILE
360
CCC9
  3
SPECULARTILE
360
CCC6
  0
DICTIONARY
  5
CCD3
330
CCD2
100
AcDbDictionary
280
     1
281
     1
  3
ACAD_XREC_ROUNDTRIP
360
CFAF
  3
BUMPTILE
360
CCD5
  3
DIFFUSETILE
360
CCD4
  3
OPACITYTILE
360
CCD8
  3
REFLECTIONTILE
360
CCD7
  3
REFRACTIONTILE
360
CCD9
  3
SPECULARTILE
360
CCD6
  0
DICTIONARY
  5
CD23
330
8E89
100
AcDbDictionary
280
     1
281
     1
  3
ACAD_ROUNDTRIP_2008_TABLESTYLE_CELLSTYLEMAP
360
CF9E
  3
ACAD_XREC_ROUNDTRIP
360
CFAC
  0
DICTIONARY
  5
CFBA
330
CCE0
100
AcDbDictionary
280
     1
281
     1
  3
ACAD_XREC_ROUNDTRIP
360
CFBB
  0
DICTIONARY
  5
CFBE
330
CCE2
100
AcDbDictionary
280
     1
281
     1
  3
ACAD_XREC_ROUNDTRIP
360
CFBF
  0
DICTIONARY
  5
CFBC
330
CCE1
100
AcDbDictionary
280
     1
281
     1
  3
ACAD_XREC_ROUNDTRIP
360
CFBD
  0
DICTIONARY
  5
CFB8
330
CCDF
100
AcDbDictionary
280
     1
281
     1
  3
ACAD_XREC_ROUNDTRIP
360
CFB9
  0
DICTIONARY
  5
CFC6
330
CCE6
100
AcDbDictionary
280
     1
281
     1
  3
ACAD_XREC_ROUNDTRIP
360
CFC7
  0
DICTIONARY
  5
CFCE
330
CCEA
100
AcDbDictionary
280
     1
281
     1
  3
ACAD_XREC_ROUNDTRIP
360
CFCF
  0
DICTIONARY
  5
CFC0
330
CCE3
100
AcDbDictionary
280
     1
281
     1
  3
ACAD_XREC_ROUNDTRIP
360
CFC1
  0
DICTIONARY
  5
CFC4
330
CCE5
100
AcDbDictionary
280
     1
281
     1
  3
ACAD_XREC_ROUNDTRIP
360
CFC5
  0
DICTIONARY
  5
CFD4
330
CCED
100
AcDbDictionary
280
     1
281
     1
  3
ACAD_XREC_ROUNDTRIP
360
CFD5
  0
DICTIONARY
  5
CFCC
330
CCE9
100
AcDbDictionary
280
     1
281
     1
  3
ACAD_XREC_ROUNDTRIP
360
CFCD
  0
DICTIONARY
  5
CFB0
330
CCDB
100
AcDbDictionary
280
     1
281
     1
  3
ACAD_XREC_ROUNDTRIP
360
CFB1
  0
DICTIONARY
  5
CFB2
330
CCDC
100
AcDbDictionary
280
     1
281
     1
  3
ACAD_XREC_ROUNDTRIP
360
CFB3
  0
DICTIONARY
  5
CFB4
330
CCDD
100
AcDbDictionary
280
     1
281
     1
  3
ACAD_XREC_ROUNDTRIP
360
CFB5
  0
DICTIONARY
  5
CFB6
330
CCDE
100
AcDbDictionary
280
     1
281
     1
  3
ACAD_XREC_ROUNDTRIP
360
CFB7
  0
DICTIONARY
  5
CFD8
330
CD61
100
AcDbDictionary
280
     1
281
     1
  3
ACAD_XREC_ROUNDTRIP
360
CFD9
  0
DICTIONARY
  5
CFD0
330
CCEB
100
AcDbDictionary
280
     1
281
     1
  3
ACAD_XREC_ROUNDTRIP
360
CFD1
  0
DICTIONARY
  5
CFCA
330
CCE8
100
AcDbDictionary
280
     1
281
     1
  3
ACAD_XREC_ROUNDTRIP
360
CFCB
  0
DICTIONARY
  5
CFD2
330
CCEC
100
AcDbDictionary
280
     1
281
     1
  3
ACAD_XREC_ROUNDTRIP
360
CFD3
  0
DICTIONARY
  5
CFC2
330
CCE4
100
AcDbDictionary
280
     1
281
     1
  3
ACAD_XREC_ROUNDTRIP
360
CFC3
  0
DICTIONARY
  5
CFE2
330
CD66
100
AcDbDictionary
280
     1
281
     1
  3
ACAD_XREC_ROUNDTRIP
360
CFE3
  0
DICTIONARY
  5
CFE0
330
CD65
100
AcDbDictionary
280
     1
281
     1
  3
ACAD_XREC_ROUNDTRIP
360
CFE1
  0
DICTIONARY
  5
CFDA
330
CD62
100
AcDbDictionary
280
     1
281
     1
  3
ACAD_XREC_ROUNDTRIP
360
CFDB
  0
DICTIONARY
  5
CFDC
330
CD63
100
AcDbDictionary
280
     1
281
     1
  3
ACAD_XREC_ROUNDTRIP
360
CFDD
  0
DICTIONARY
  5
CFC8
330
CCE7
100
AcDbDictionary
280
     1
281
     1
  3
ACAD_XREC_ROUNDTRIP
360
CFC9
  0
DICTIONARY
  5
CFD6
330
CD60
100
AcDbDictionary
280
     1
281
     1
  3
ACAD_XREC_ROUNDTRIP
360
CFD7
  0
DICTIONARY
  5
CFDE
330
CD64
100
AcDbDictionary
280
     1
281
     1
  3
ACAD_XREC_ROUNDTRIP
360
CFDF
  0
IDBUFFER
  5
CF92
330
0
100
AcDbIdBuffer
330
8D82
330
8D83
330
8D84
330
8D85
330
8D86
330
8D87
330
8D88
330
8D89
330
8D8A
330
8D8B
330
8D8C
330
8D8D
330
8D8E
330
8D8F
330
8D90
330
8D91
330
8D92
330
8D93
330
8D94
330
8D95
330
8D96
330
8D97
330
8D98
330
8D99
330
8D9A
330
8D9B
330
8D9C
330
8D9D
330
8D9E
330
8D9F
330
8DA0
330
8DA1
330
8DA2
330
8DA3
330
8E18
330
8E19
330
8E1A
330
8E1B
330
8E1C
330
8E1D
330
8E1E
330
8E1F
330
8E20
330
8E21
330
8E22
330
8E23
330
8E24
330
8E25
330
8E26
330
8E27
330
8E28
330
8E29
330
8E2A
330
8E2B
330
8E2C
330
8E2D
330
8E2E
330
8E2F
330
8E30
330
8E31
330
8E32
330
8E33
330
8E34
330
8E35
330
8E36
330
8E37
330
8E38
330
8E39
330
8E3A
330
8E3B
330
8E3C
330
8E3D
330
8E3E
330
8E3F
330
8E40
330
8E41
330
8E42
330
8E43
330
8E44
330
8E45
330
8E46
330
8E47
330
8E48
330
8E49
330
8E4A
330
8E4B
330
8E4C
330
8E4D
330
8E4E
330
8E4F
330
8E50
330
8E51
330
8E52
330
8E53
330
8E54
330
8E55
330
B3FA
330
B3FB
330
B3FC
330
B3FD
330
B3FE
330
B3FF
330
24D3
330
24D4
330
24D5
330
24DB
330
24DC
330
24E8
330
24E9
330
2841
330
2842
330
2843
330
2849
330
284A
330
2856
330
2857
330
75F5
330
75F6
330
75F7
330
75F8
330
75F9
330
75FA
330
75FB
330
75FC
330
75FD
330
75FE
330
75FF
330
7600
330
7601
330
7602
330
7664
330
7665
330
7666
330
7667
330
7668
330
7669
330
766A
330
766B
330
766C
330
766D
330
766E
330
766F
330
7670
330
7671
330
8CEA
330
8CEB
330
8CEC
330
8CED
330
8CEE
330
8CEF
330
8CF0
330
8CF1
330
8CF2
330
8CF3
330
8CF4
330
8CF5
330
8CF6
330
8CF7
330
8D0F
330
8D10
330
8D11
330
8D12
330
8D13
330
8D14
330
8D15
330
8D16
330
8D17
330
8D18
330
8D19
330
8D1A
330
8D1B
330
8D1C
330
8D1D
330
8D1E
330
8D1F
330
8D20
330
8D21
330
8D22
330
8D23
330
8D24
330
8D25
330
8D26
330
8D27
330
8D28
330
8D29
330
8D2A
330
8D66
330
8D67
330
8D68
330
8D69
330
8D6A
330
8D6B
330
8D6C
330
8D6D
330
8D6E
330
8D6F
330
8D70
330
8D71
330
8D72
330
8D73
330
8D74
330
8D75
330
8D76
330
8D77
330
8D78
330
8D79
330
8D7A
330
8D7B
330
8D7C
330
8D7D
330
8D7E
330
8D7F
330
8D80
330
8D81
  0
IDBUFFER
  5
CF93
330
0
100
AcDbIdBuffer
330
C8EB
330
C8EC
  0
IDBUFFER
  5
CF94
330
0
100
AcDbIdBuffer
  0
IDBUFFER
  5
CF95
330
0
100
AcDbIdBuffer
330
CA33
330
CA34
330
CA35
330
CA36
330
CA37
330
CA38
330
CA39
330
CA3A
330
CA3B
330
CA3C
330
CA3D
330
CA3E
330
CA3F
330
CA40
330
CA42
330
CA43
330
CA44
330
CC9E
330
C7FB
330
C7FC
330
C7FD
330
C7FE
330
C8E9
330
C8EA
330
CA29
330
CA2A
330
CA2B
330
CA2C
330
CA2D
330
CA2E
330
CA2F
330
CA30
330
CA31
330
CA32
  0
IDBUFFER
  5
CF96
330
0
100
AcDbIdBuffer
330
C8ED
330
C8F0
330
C8F1
330
C8F2
330
C8F4
330
C8F5
330
CA8F
330
CAA5
  0
IDBUFFER
  5
CF97
330
0
100
AcDbIdBuffer
330
8DEC
330
8DF7
330
8DFA
330
8DFB
330
8DFC
330
8DFD
  0
IDBUFFER
  5
CF98
330
0
100
AcDbIdBuffer
330
8DF8
330
8DF9
330
8DFE
330
8DFF
330
8E00
330
8E01
330
8E02
330
8E03
330
8E04
330
8E05
330
8E06
330
8E07
330
8E08
330
8E09
330
8E0A
330
8E0B
  0
IDBUFFER
  5
CF99
330
0
100
AcDbIdBuffer
330
C8EE
330
C8EF
330
C8F3
  0
IDBUFFER
  5
CF9A
330
0
100
AcDbIdBuffer
330
B400
330
B401
330
B402
330
B403
  0
IDBUFFER
  5
CF9B
330
0
100
AcDbIdBuffer
330
C9F9
330
C9FA
330
C9FB
330
C9FC
330
C9FD
330
C9FE
330
C9FF
330
CA00
330
CA01
330
CA02
330
CA04
330
CA05
330
CA06
330
CA07
330
CA08
330
CA09
330
CA0A
330
CA0B
330
CA0C
330
CA0D
330
CA0E
330
CA0F
330
CA10
330
CA11
330
CA12
330
CA13
330
CA14
330
CA15
330
CA16
330
CA17
330
CA18
330
CA19
330
CA1A
330
CA1B
330
CA1C
330
CA1D
330
CA1E
330
CA1F
330
CA20
330
CA21
330
CA22
330
CA23
330
CA24
330
CA25
330
CA27
330
CA28
330
C7F8
330
C7F9
330
C7FA
330
C7FF
330
C800
330
C801
330
C802
330
C803
330
C804
330
C805
330
C806
330
C807
330
C808
330
C809
330
C80A
330
C80B
330
C80C
330
C80D
330
C80E
330
C80F
330
C810
330
C811
330
C812
330
C813
330
C814
330
C815
330
C816
330
C817
330
C818
330
C819
330
C81A
330
C81B
330
C81C
330
C81D
330
C81E
330
C81F
330
C820
330
C821
330
C822
330
C823
330
C824
330
C825
330
C826
330
C827
330
C842
330
C843
330
C844
330
C85F
330
C860
330
C861
330
C862
330
C863
330
C864
330
C87F
330
C89A
330
C89B
330
C89C
330
C89D
330
C89E
330
C89F
330
C8A0
330
C8A1
330
C8A2
330
C8A3
330
C8A4
330
C8A5
330
C8A6
330
C8A7
330
C8A8
330
C8AD
330
C8B2
330
C8CD
330
C8E8
330
C9D2
330
C9D3
330
C9D4
330
C9D5
330
C9D6
330
C9D7
330
C9D8
330
C9D9
330
C9DA
330
C9DB
330
C9DC
330
C9DD
330
C9DE
330
C9DF
330
C9E0
330
C9E1
330
C9E2
330
C9E3
330
C9E4
330
C9E5
330
C9E6
330
C9E7
330
C9E8
330
C9E9
330
C9EA
330
C9EB
330
C9EC
330
C9ED
330
C9EE
330
C9EF
330
C9F0
330
C9F1
330
C9F2
330
C9F3
330
C9F4
330
C9F5
330
C9F6
330
C9F7
330
C9F8
  0
IDBUFFER
  5
CF9C
330
0
100
AcDbIdBuffer
330
CA41
  0
XRECORD
  5
CFA8
102
{ACAD_REACTORS
330
CFA7
102
}
330
CFA7
100
AcDbXrecord
280
     1
102
SHADEPLOT
 70
     0
102
SHADEPLOTRESLEVEL
 70
     2
102
SHADEPLOTCUSTOMDPI
 70
   300
  0
XRECORD
  5
CFAB
102
{ACAD_REACTORS
330
CFAA
102
}
330
CFAA
100
AcDbXrecord
280
     1
102
SHADEPLOT
 70
     0
102
SHADEPLOTRESLEVEL
 70
     2
102
SHADEPLOTCUSTOMDPI
 70
   300
  0
XRECORD
  5
CFA9
102
{ACAD_REACTORS
330
CF90
102
}
330
CF90
100
AcDbXrecord
280
     1
102
SHADEPLOT
 70
     0
102
SHADEPLOTRESLEVEL
 70
     2
102
SHADEPLOTCUSTOMDPI
 70
   300
  0
PLOTSETTINGS
  5
CF91
102
{ACAD_XDICTIONARY
360
CFE4
102
}
102
{ACAD_REACTORS
330
CF90
102
}
330
CF90
100
AcDbPlotSettings
  1

  2
\\intranet\HP LaserJet 8000 Series PCL
  4
A4
  6

 40
7.143749713897705
 41
6.170062541961669
 42
7.736404418945312
 43
7.14373779296875
 44
209.9733276367187
 45
296.9683227539062
 46
0.0
 47
100.6306511120397
 48
0.0
 49
0.0
140
0.0
141
0.0
142
1.0
143
5.013822825133132
 70
 11956
 72
     1
 73
     0
 74
     0
  7

 75
     0
147
0.1994486113444679
148
195.7099660109015
149
-76.19653819156003
  0
XRECORD
  5
CFAE
102
{ACAD_REACTORS
330
CCCB
102
}
330
CCCB
100
AcDbXrecord
280
     1
102
MATERIAL
148
0.0
149
0.0
149
0.0
 93
        0
 94
      127
282
     0
 72
     0
 77
     0
171
     0
175
     0
179
     0
273
     0
  0
XRECORD
  5
CCCD
102
{ACAD_REACTORS
330
CCCB
102
}
330
CCCB
100
AcDbXrecord
280
     1
270
     1
271
     1
  0
XRECORD
  5
CCCC
102
{ACAD_REACTORS
330
CCCB
102
}
330
CCCB
100
AcDbXrecord
280
     1
270
     1
271
     1
  0
XRECORD
  5
CCD0
102
{ACAD_REACTORS
330
CCCB
102
}
330
CCCB
100
AcDbXrecord
280
     1
270
     1
271
     1
  0
XRECORD
  5
CCCF
102
{ACAD_REACTORS
330
CCCB
102
}
330
CCCB
100
AcDbXrecord
280
     1
270
     1
271
     1
  0
XRECORD
  5
CCD1
102
{ACAD_REACTORS
330
CCCB
102
}
330
CCCB
100
AcDbXrecord
280
     1
270
     1
271
     1
  0
XRECORD
  5
CCCE
102
{ACAD_REACTORS
330
CCCB
102
}
330
CCCB
100
AcDbXrecord
280
     1
270
     1
271
     1
  0
XRECORD
  5
CFAD
102
{ACAD_REACTORS
330
CCC3
102
}
330
CCC3
100
AcDbXrecord
280
     1
102
MATERIAL
148
0.0
149
0.0
149
0.0
 93
        0
 94
      127
282
     0
 72
     0
 77
     0
171
     0
175
     0
179
     0
273
     0
  0
XRECORD
  5
CCC5
102
{ACAD_REACTORS
330
CCC3
102
}
330
CCC3
100
AcDbXrecord
280
     1
270
     1
271
     1
  0
XRECORD
  5
CCC4
102
{ACAD_REACTORS
330
CCC3
102
}
330
CCC3
100
AcDbXrecord
280
     1
270
     1
271
     1
  0
XRECORD
  5
CCC8
102
{ACAD_REACTORS
330
CCC3
102
}
330
CCC3
100
AcDbXrecord
280
     1
270
     1
271
     1
  0
XRECORD
  5
CCC7
102
{ACAD_REACTORS
330
CCC3
102
}
330
CCC3
100
AcDbXrecord
280
     1
270
     1
271
     1
  0
XRECORD
  5
CCC9
102
{ACAD_REACTORS
330
CCC3
102
}
330
CCC3
100
AcDbXrecord
280
     1
270
     1
271
     1
  0
XRECORD
  5
CCC6
102
{ACAD_REACTORS
330
CCC3
102
}
330
CCC3
100
AcDbXrecord
280
     1
270
     1
271
     1
  0
XRECORD
  5
CFAF
102
{ACAD_REACTORS
330
CCD3
102
}
330
CCD3
100
AcDbXrecord
280
     1
102
MATERIAL
148
0.0
149
0.0
149
0.0
 93
        0
 94
      127
282
     0
 72
     0
 77
     0
171
     0
175
     0
179
     0
273
     0
  0
XRECORD
  5
CCD5
102
{ACAD_REACTORS
330
CCD3
102
}
330
CCD3
100
AcDbXrecord
280
     1
270
     1
271
     1
  0
XRECORD
  5
CCD4
102
{ACAD_REACTORS
330
CCD3
102
}
330
CCD3
100
AcDbXrecord
280
     1
270
     1
271
     1
  0
XRECORD
  5
CCD8
102
{ACAD_REACTORS
330
CCD3
102
}
330
CCD3
100
AcDbXrecord
280
     1
270
     1
271
     1
  0
XRECORD
  5
CCD7
102
{ACAD_REACTORS
330
CCD3
102
}
330
CCD3
100
AcDbXrecord
280
     1
270
     1
271
     1
  0
XRECORD
  5
CCD9
102
{ACAD_REACTORS
330
CCD3
102
}
330
CCD3
100
AcDbXrecord
280
     1
270
     1
271
     1
  0
XRECORD
  5
CCD6
102
{ACAD_REACTORS
330
CCD3
102
}
330
CCD3
100
AcDbXrecord
280
     1
270
     1
271
     1
  0
CELLSTYLEMAP
  5
CF9E
102
{ACAD_REACTORS
330
CD23
102
}
330
CD23
100
AcDbCellStyleMap
 90
        3
300
CELLSTYLE
  1
TABLEFORMAT_BEGIN
 90
        5
170
     1
 91
        0
 92
    32768
 62
   257
 93
        1
300
CONTENTFORMAT
  1
CONTENTFORMAT_BEGIN
 90
        0
 91
        0
 92
        4
 93
        0
300

 40
0.0
140
1.0
 94
        5
 62
     0
340
11
144
6.0
309
CONTENTFORMAT_END
171
     1
301
MARGIN
  1
CELLMARGIN_BEGIN
 40
1.5
 40
1.5
 40
1.5
 40
1.5
 40
0.18
 40
0.18
309
CELLMARGIN_END
 94
        6
 95
        1
302
GRIDFORMAT
  1
GRIDFORMAT_BEGIN
 90
        0
 91
        1
 62
     0
 92
       -2
340
0
 93
        0
 40
0.045
309
GRIDFORMAT_END
 95
        2
302
GRIDFORMAT
  1
GRIDFORMAT_BEGIN
 90
        0
 91
        1
 62
     0
 92
       -2
340
0
 93
        0
 40
0.045
309
GRIDFORMAT_END
 95
        4
302
GRIDFORMAT
  1
GRIDFORMAT_BEGIN
 90
        0
 91
        1
 62
     0
 92
       -2
340
0
 93
        0
 40
0.045
309
GRIDFORMAT_END
 95
        8
302
GRIDFORMAT
  1
GRIDFORMAT_BEGIN
 90
        0
 91
        1
 62
     0
 92
       -2
340
0
 93
        0
 40
0.045
309
GRIDFORMAT_END
 95
       16
302
GRIDFORMAT
  1
GRIDFORMAT_BEGIN
 90
        0
 91
        1
 62
     0
 92
       -2
340
0
 93
        0
 40
0.045
309
GRIDFORMAT_END
 95
       32
302
GRIDFORMAT
  1
GRIDFORMAT_BEGIN
 90
        0
 91
        1
 62
     0
 92
       -2
340
0
 93
        0
 40
0.045
309
GRIDFORMAT_END
309
TABLEFORMAT_END
  1
CELLSTYLE_BEGIN
 90
        1
 91
        1
300
_TITLE
309
CELLSTYLE_END
300
CELLSTYLE
  1
TABLEFORMAT_BEGIN
 90
        5
170
     1
 91
        0
 92
        0
 62
   257
 93
        1
300
CONTENTFORMAT
  1
CONTENTFORMAT_BEGIN
 90
        0
 91
        0
 92
        4
 93
        0
300

 40
0.0
140
1.0
 94
        5
 62
     0
340
11
144
4.5
309
CONTENTFORMAT_END
171
     1
301
MARGIN
  1
CELLMARGIN_BEGIN
 40
1.5
 40
1.5
 40
1.5
 40
1.5
 40
0.18
 40
0.18
309
CELLMARGIN_END
 94
        6
 95
        1
302
GRIDFORMAT
  1
GRIDFORMAT_BEGIN
 90
        0
 91
        1
 62
     0
 92
       -2
340
0
 93
        0
 40
0.045
309
GRIDFORMAT_END
 95
        2
302
GRIDFORMAT
  1
GRIDFORMAT_BEGIN
 90
        0
 91
        1
 62
     0
 92
       -2
340
0
 93
        0
 40
0.045
309
GRIDFORMAT_END
 95
        4
302
GRIDFORMAT
  1
GRIDFORMAT_BEGIN
 90
        0
 91
        1
 62
     0
 92
       -2
340
0
 93
        0
 40
0.045
309
GRIDFORMAT_END
 95
        8
302
GRIDFORMAT
  1
GRIDFORMAT_BEGIN
 90
        0
 91
        1
 62
     0
 92
       -2
340
0
 93
        0
 40
0.045
309
GRIDFORMAT_END
 95
       16
302
GRIDFORMAT
  1
GRIDFORMAT_BEGIN
 90
        0
 91
        1
 62
     0
 92
       -2
340
0
 93
        0
 40
0.045
309
GRIDFORMAT_END
 95
       32
302
GRIDFORMAT
  1
GRIDFORMAT_BEGIN
 90
        0
 91
        1
 62
     0
 92
       -2
340
0
 93
        0
 40
0.045
309
GRIDFORMAT_END
309
TABLEFORMAT_END
  1
CELLSTYLE_BEGIN
 90
        2
 91
        1
300
_HEADER
309
CELLSTYLE_END
300
CELLSTYLE
  1
TABLEFORMAT_BEGIN
 90
        5
170
     1
 91
        0
 92
        0
 62
   257
 93
        1
300
CONTENTFORMAT
  1
CONTENTFORMAT_BEGIN
 90
        0
 91
        0
 92
        4
 93
        0
300

 40
0.0
140
1.0
 94
        2
 62
     0
340
11
144
4.5
309
CONTENTFORMAT_END
171
     1
301
MARGIN
  1
CELLMARGIN_BEGIN
 40
1.5
 40
1.5
 40
1.5
 40
1.5
 40
0.18
 40
0.18
309
CELLMARGIN_END
 94
        6
 95
        1
302
GRIDFORMAT
  1
GRIDFORMAT_BEGIN
 90
        0
 91
        1
 62
     0
 92
       -2
340
0
 93
        0
 40
0.045
309
GRIDFORMAT_END
 95
        2
302
GRIDFORMAT
  1
GRIDFORMAT_BEGIN
 90
        0
 91
        1
 62
     0
 92
       -2
340
0
 93
        0
 40
0.045
309
GRIDFORMAT_END
 95
        4
302
GRIDFORMAT
  1
GRIDFORMAT_BEGIN
 90
        0
 91
        1
 62
     0
 92
       -2
340
0
 93
        0
 40
0.045
309
GRIDFORMAT_END
 95
        8
302
GRIDFORMAT
  1
GRIDFORMAT_BEGIN
 90
        0
 91
        1
 62
     0
 92
       -2
340
0
 93
        0
 40
0.045
309
GRIDFORMAT_END
 95
       16
302
GRIDFORMAT
  1
GRIDFORMAT_BEGIN
 90
        0
 91
        1
 62
     0
 92
       -2
340
0
 93
        0
 40
0.045
309
GRIDFORMAT_END
 95
       32
302
GRIDFORMAT
  1
GRIDFORMAT_BEGIN
 90
        0
 91
        1
 62
     0
 92
       -2
340
0
 93
        0
 40
0.045
309
GRIDFORMAT_END
309
TABLEFORMAT_END
  1
CELLSTYLE_BEGIN
 90
        3
 91
        2
300
_DATA
309
CELLSTYLE_END
  0
XRECORD
  5
CFAC
102
{ACAD_REACTORS
330
CD23
102
}
330
CD23
100
AcDbXrecord
280
     1
102
ACAD_ROUNDTRIP_PRE2007_TABLESTYLE
 90
        4
 91
        0
  1

 92
        4
 93
        0
  2

 94
        4
 95
        0
  3

  0
XRECORD
  5
CFBB
102
{ACAD_REACTORS
330
CFBA
102
}
330
CFBA
100
AcDbXrecord
280
     1
102
RTVSPropertyOp0
 70
     1
102
RTVSPropertyOp1
 70
     1
102
RTVSPropertyOp2
 70
     1
102
RTVSPropertyOp3
 70
     1
102
RTVSPropertyOp4
 70
     1
102
RTVSPropertyOp5
 70
     1
102
RTVSPropertyOp6
 70
     1
102
RTVSPropertyOp7
 70
     1
102
RTVSPropertyOp8
 70
     1
102
RTVSPropertyOp9
 70
     1
102
RTVSPropertyOp10
 70
     1
102
RTVSPropertyOp11
 70
     1
102
RTVSPropertyOp12
 70
     1
102
RTVSPropertyOp13
 70
     1
102
RTVSPropertyOp14
 70
     1
102
RTVSPropertyOp15
 70
     1
102
RTVSPropertyOp16
 70
     1
102
RTVSPropertyOp17
 70
     1
102
RTVSPropertyOp18
 70
     1
102
RTVSPropertyOp19
 70
     1
102
RTVSPropertyOp20
 70
     1
102
RTVSPropertyOp21
 70
     1
102
RTVSPropertyOp22
 70
     1
102
RTVSPropertyOp23
 70
     1
102
RTVSPropertyOp24
 70
     1
102
RTVSPropertyOp25
 70
     1
102
RTVSPropertyOp26
 70
     1
102
RTVSPropertyOp27
 70
     1
102
RTVSPropertyOp28
 70
     1
102
RTVSPropertyOp29
 70
     1
102
RTVSPropertyOp30
 70
     1
102
RTVSPropertyOp31
 70
     1
102
RTVSPropertyOp32
 70
     1
  0
XRECORD
  5
CFBF
102
{ACAD_REACTORS
330
CFBE
102
}
330
CFBE
100
AcDbXrecord
280
     1
102
RTVSPropertyOp0
 70
     1
102
RTVSPropertyOp1
 70
     1
102
RTVSPropertyOp2
 70
     1
102
RTVSPropertyOp3
 70
     1
102
RTVSPropertyOp4
 70
     1
102
RTVSPropertyOp5
 70
     1
102
RTVSPropertyOp6
 70
     1
102
RTVSPropertyOp7
 70
     1
102
RTVSPropertyOp8
 70
     1
102
RTVSPropertyOp9
 70
     1
102
RTVSPropertyOp10
 70
     1
102
RTVSPropertyOp11
 70
     1
102
RTVSPropertyOp12
 70
     1
102
RTVSPropertyOp13
 70
     1
102
RTVSPropertyOp14
 70
     1
102
RTVSPropertyOp15
 70
     1
102
RTVSPropertyOp16
 70
     1
102
RTVSPropertyOp17
 70
     1
102
RTVSPropertyOp18
 70
     1
102
RTVSPropertyOp19
 70
     1
102
RTVSPropertyOp20
 70
     1
102
RTVSPropertyOp21
 70
     1
102
RTVSPropertyOp22
 70
     1
102
RTVSPropertyOp23
 70
     1
102
RTVSPropertyOp24
 70
     1
102
RTVSPropertyOp25
 70
     1
102
RTVSPropertyOp26
 70
     1
102
RTVSPropertyOp27
 70
     1
102
RTVSPropertyOp28
 70
     1
102
RTVSPropertyOp29
 70
     1
102
RTVSPropertyOp30
 70
     1
102
RTVSPropertyOp31
 70
     1
102
RTVSPropertyOp32
 70
     1
  0
XRECORD
  5
CFBD
102
{ACAD_REACTORS
330
CFBC
102
}
330
CFBC
100
AcDbXrecord
280
     1
102
RTVSPropertyOp0
 70
     1
102
RTVSPropertyOp1
 70
     1
102
RTVSPropertyOp2
 70
     1
102
RTVSPropertyOp3
 70
     1
102
RTVSPropertyOp4
 70
     1
102
RTVSPropertyOp5
 70
     1
102
RTVSPropertyOp6
 70
     1
102
RTVSPropertyOp7
 70
     1
102
RTVSPropertyOp8
 70
     1
102
RTVSPropertyOp9
 70
     1
102
RTVSPropertyOp10
 70
     1
102
RTVSPropertyOp11
 70
     1
102
RTVSPropertyOp12
 70
     1
102
RTVSPropertyOp13
 70
     1
102
RTVSPropertyOp14
 70
     1
102
RTVSPropertyOp15
 70
     1
102
RTVSPropertyOp16
 70
     1
102
RTVSPropertyOp17
 70
     1
102
RTVSPropertyOp18
 70
     1
102
RTVSPropertyOp19
 70
     1
102
RTVSPropertyOp20
 70
     1
102
RTVSPropertyOp21
 70
     1
102
RTVSPropertyOp22
 70
     1
102
RTVSPropertyOp23
 70
     1
102
RTVSPropertyOp24
 70
     1
102
RTVSPropertyOp25
 70
     1
102
RTVSPropertyOp26
 70
     1
102
RTVSPropertyOp27
 70
     1
102
RTVSPropertyOp28
 70
     1
102
RTVSPropertyOp29
 70
     1
102
RTVSPropertyOp30
 70
     1
102
RTVSPropertyOp31
 70
     1
102
RTVSPropertyOp32
 70
     1
  0
XRECORD
  5
CFB9
102
{ACAD_REACTORS
330
CFB8
102
}
330
CFB8
100
AcDbXrecord
280
     1
102
RTVSPropertyOp0
 70
     1
102
RTVSPropertyOp1
 70
     1
102
RTVSPropertyOp2
 70
     1
102
RTVSPropertyOp3
 70
     1
102
RTVSPropertyOp4
 70
     1
102
RTVSPropertyOp5
 70
     1
102
RTVSPropertyOp6
 70
     1
102
RTVSPropertyOp7
 70
     1
102
RTVSPropertyOp8
 70
     1
102
RTVSPropertyOp9
 70
     1
102
RTVSPropertyOp10
 70
     1
102
RTVSPropertyOp11
 70
     1
102
RTVSPropertyOp12
 70
     1
102
RTVSPropertyOp13
 70
     1
102
RTVSPropertyOp14
 70
     1
102
RTVSPropertyOp15
 70
     1
102
RTVSPropertyOp16
 70
     1
102
RTVSPropertyOp17
 70
     1
102
RTVSPropertyOp18
 70
     1
102
RTVSPropertyOp19
 70
     1
102
RTVSPropertyOp20
 70
     1
102
RTVSPropertyOp21
 70
     1
102
RTVSPropertyOp22
 70
     1
102
RTVSPropertyOp23
 70
     1
102
RTVSPropertyOp24
 70
     1
102
RTVSPropertyOp25
 70
     1
102
RTVSPropertyOp26
 70
     1
102
RTVSPropertyOp27
 70
     1
102
RTVSPropertyOp28
 70
     1
102
RTVSPropertyOp29
 70
     1
102
RTVSPropertyOp30
 70
     1
102
RTVSPropertyOp31
 70
     1
102
RTVSPropertyOp32
 70
     1
  0
XRECORD
  5
CFC7
102
{ACAD_REACTORS
330
CFC6
102
}
330
CFC6
100
AcDbXrecord
280
     1
102
RTVSPropertyOp0
 70
     1
102
RTVSPropertyOp1
 70
     1
102
RTVSPropertyOp2
 70
     1
102
RTVSPropertyOp3
 70
     1
102
RTVSPropertyOp4
 70
     1
102
RTVSPropertyOp5
 70
     1
102
RTVSPropertyOp6
 70
     1
102
RTVSPropertyOp7
 70
     1
102
RTVSPropertyOp8
 70
     1
102
RTVSPropertyOp9
 70
     1
102
RTVSPropertyOp10
 70
     1
102
RTVSPropertyOp11
 70
     1
102
RTVSPropertyOp12
 70
     1
102
RTVSPropertyOp13
 70
     1
102
RTVSPropertyOp14
 70
     1
102
RTVSPropertyOp15
 70
     1
102
RTVSPropertyOp16
 70
     1
102
RTVSPropertyOp17
 70
     1
102
RTVSPropertyOp18
 70
     1
102
RTVSPropertyOp19
 70
     1
102
RTVSPropertyOp20
 70
     1
102
RTVSPropertyOp21
 70
     1
102
RTVSPropertyOp22
 70
     1
102
RTVSPropertyOp23
 70
     1
102
RTVSPropertyOp24
 70
     1
102
RTVSPropertyOp25
 70
     1
102
RTVSPropertyOp26
 70
     1
102
RTVSPropertyOp27
 70
     1
102
RTVSPropertyOp28
 70
     1
102
RTVSPropertyOp29
 70
     1
102
RTVSPropertyOp30
 70
     1
102
RTVSPropertyOp31
 70
     1
102
RTVSPropertyOp32
 70
     1
  0
XRECORD
  5
CFCF
102
{ACAD_REACTORS
330
CFCE
102
}
330
CFCE
100
AcDbXrecord
280
     1
102
RTVSPropertyOp0
 70
     1
102
RTVSPropertyOp1
 70
     1
102
RTVSPropertyOp2
 70
     1
102
RTVSPropertyOp3
 70
     1
102
RTVSPropertyOp4
 70
     1
102
RTVSPropertyOp5
 70
     1
102
RTVSPropertyOp6
 70
     1
102
RTVSPropertyOp7
 70
     1
102
RTVSPropertyOp8
 70
     1
102
RTVSPropertyOp9
 70
     1
102
RTVSPropertyOp10
 70
     1
102
RTVSPropertyOp11
 70
     1
102
RTVSPropertyOp12
 70
     1
102
RTVSPropertyOp13
 70
     1
102
RTVSPropertyOp14
 70
     1
102
RTVSPropertyOp15
 70
     1
102
RTVSPropertyOp16
 70
     1
102
RTVSPropertyOp17
 70
     1
102
RTVSPropertyOp18
 70
     1
102
RTVSPropertyOp19
 70
     1
102
RTVSPropertyOp20
 70
     1
102
RTVSPropertyOp21
 70
     1
102
RTVSPropertyOp22
 70
     1
102
RTVSPropertyOp23
 70
     1
102
RTVSPropertyOp24
 70
     1
102
RTVSPropertyOp25
 70
     1
102
RTVSPropertyOp26
 70
     1
102
RTVSPropertyOp27
 70
     1
102
RTVSPropertyOp28
 70
     1
102
RTVSPropertyOp29
 70
     1
102
RTVSPropertyOp30
 70
     1
102
RTVSPropertyOp31
 70
     1
102
RTVSPropertyOp32
 70
     1
  0
XRECORD
  5
CFC1
102
{ACAD_REACTORS
330
CFC0
102
}
330
CFC0
100
AcDbXrecord
280
     1
102
RTVSPropertyOp0
 70
     1
102
RTVSPropertyOp1
 70
     1
102
RTVSPropertyOp2
 70
     1
102
RTVSPropertyOp3
 70
     1
102
RTVSPropertyOp4
 70
     1
102
RTVSPropertyOp5
 70
     1
102
RTVSPropertyOp6
 70
     1
102
RTVSPropertyOp7
 70
     1
102
RTVSPropertyOp8
 70
     1
102
RTVSPropertyOp9
 70
     1
102
RTVSPropertyOp10
 70
     1
102
RTVSPropertyOp11
 70
     1
102
RTVSPropertyOp12
 70
     1
102
RTVSPropertyOp13
 70
     1
102
RTVSPropertyOp14
 70
     1
102
RTVSPropertyOp15
 70
     1
102
RTVSPropertyOp16
 70
     1
102
RTVSPropertyOp17
 70
     1
102
RTVSPropertyOp18
 70
     1
102
RTVSPropertyOp19
 70
     1
102
RTVSPropertyOp20
 70
     1
102
RTVSPropertyOp21
 70
     1
102
RTVSPropertyOp22
 70
     1
102
RTVSPropertyOp23
 70
     1
102
RTVSPropertyOp24
 70
     1
102
RTVSPropertyOp25
 70
     1
102
RTVSPropertyOp26
 70
     1
102
RTVSPropertyOp27
 70
     1
102
RTVSPropertyOp28
 70
     1
102
RTVSPropertyOp29
 70
     1
102
RTVSPropertyOp30
 70
     1
102
RTVSPropertyOp31
 70
     1
102
RTVSPropertyOp32
 70
     1
  0
XRECORD
  5
CFC5
102
{ACAD_REACTORS
330
CFC4
102
}
330
CFC4
100
AcDbXrecord
280
     1
102
RTVSPropertyOp0
 70
     1
102
RTVSPropertyOp1
 70
     1
102
RTVSPropertyOp2
 70
     1
102
RTVSPropertyOp3
 70
     1
102
RTVSPropertyOp4
 70
     1
102
RTVSPropertyOp5
 70
     1
102
RTVSPropertyOp6
 70
     1
102
RTVSPropertyOp7
 70
     1
102
RTVSPropertyOp8
 70
     1
102
RTVSPropertyOp9
 70
     1
102
RTVSPropertyOp10
 70
     1
102
RTVSPropertyOp11
 70
     1
102
RTVSPropertyOp12
 70
     1
102
RTVSPropertyOp13
 70
     1
102
RTVSPropertyOp14
 70
     1
102
RTVSPropertyOp15
 70
     1
102
RTVSPropertyOp16
 70
     1
102
RTVSPropertyOp17
 70
     1
102
RTVSPropertyOp18
 70
     1
102
RTVSPropertyOp19
 70
     1
102
RTVSPropertyOp20
 70
     1
102
RTVSPropertyOp21
 70
     1
102
RTVSPropertyOp22
 70
     1
102
RTVSPropertyOp23
 70
     1
102
RTVSPropertyOp24
 70
     1
102
RTVSPropertyOp25
 70
     1
102
RTVSPropertyOp26
 70
     1
102
RTVSPropertyOp27
 70
     1
102
RTVSPropertyOp28
 70
     1
102
RTVSPropertyOp29
 70
     1
102
RTVSPropertyOp30
 70
     1
102
RTVSPropertyOp31
 70
     1
102
RTVSPropertyOp32
 70
     1
  0
XRECORD
  5
CFD5
102
{ACAD_REACTORS
330
CFD4
102
}
330
CFD4
100
AcDbXrecord
280
     1
102
RTVSPropertyOp0
 70
     0
102
RTVSPropertyOp1
 70
     0
102
RTVSPropertyOp2
 70
     0
102
RTVSPropertyOp3
 70
     0
102
RTVSPropertyOp4
 70
     0
102
RTVSPropertyOp5
 70
     0
102
RTVSPropertyOp6
 70
     0
102
RTVSPropertyOp7
 70
     0
102
RTVSPropertyOp8
 70
     0
102
RTVSPropertyOp9
 70
     0
102
RTVSPropertyOp10
 70
     0
102
RTVSPropertyOp11
 70
     0
102
RTVSPropertyOp12
 70
     0
102
RTVSPropertyOp13
 70
     0
102
RTVSPropertyOp14
 70
     2
102
RTVSPropertyOp15
 70
     0
102
RTVSPropertyOp16
 70
     0
102
RTVSPropertyOp17
 70
     0
102
RTVSPropertyOp18
 70
     0
102
RTVSPropertyOp19
 70
     0
102
RTVSPropertyOp20
 70
     0
102
RTVSPropertyOp21
 70
     0
102
RTVSPropertyOp22
 70
     0
102
RTVSPropertyOp23
 70
     0
102
RTVSPropertyOp24
 70
     0
102
RTVSPropertyOp25
 70
     0
102
RTVSPropertyOp26
 70
     0
102
RTVSPropertyOp27
 70
     0
102
RTVSPropertyOp28
 70
     1
102
RTVSPropertyOp29
 70
     1
102
RTVSPropertyOp30
 70
     1
102
RTVSPropertyOp31
 70
     1
102
RTVSPropertyOp32
 70
     1
  0
XRECORD
  5
CFCD
102
{ACAD_REACTORS
330
CFCC
102
}
330
CFCC
100
AcDbXrecord
280
     1
102
RTVSPropertyOp0
 70
     1
102
RTVSPropertyOp1
 70
     1
102
RTVSPropertyOp2
 70
     1
102
RTVSPropertyOp3
 70
     1
102
RTVSPropertyOp4
 70
     1
102
RTVSPropertyOp5
 70
     1
102
RTVSPropertyOp6
 70
     1
102
RTVSPropertyOp7
 70
     1
102
RTVSPropertyOp8
 70
     1
102
RTVSPropertyOp9
 70
     1
102
RTVSPropertyOp10
 70
     1
102
RTVSPropertyOp11
 70
     1
102
RTVSPropertyOp12
 70
     1
102
RTVSPropertyOp13
 70
     1
102
RTVSPropertyOp14
 70
     1
102
RTVSPropertyOp15
 70
     1
102
RTVSPropertyOp16
 70
     1
102
RTVSPropertyOp17
 70
     1
102
RTVSPropertyOp18
 70
     1
102
RTVSPropertyOp19
 70
     1
102
RTVSPropertyOp20
 70
     1
102
RTVSPropertyOp21
 70
     1
102
RTVSPropertyOp22
 70
     1
102
RTVSPropertyOp23
 70
     1
102
RTVSPropertyOp24
 70
     1
102
RTVSPropertyOp25
 70
     1
102
RTVSPropertyOp26
 70
     1
102
RTVSPropertyOp27
 70
     1
102
RTVSPropertyOp28
 70
     1
102
RTVSPropertyOp29
 70
     1
102
RTVSPropertyOp30
 70
     1
102
RTVSPropertyOp31
 70
     1
102
RTVSPropertyOp32
 70
     1
  0
XRECORD
  5
CFB1
102
{ACAD_REACTORS
330
CFB0
102
}
330
CFB0
100
AcDbXrecord
280
     1
102
RTVSPropertyOp0
 70
     1
102
RTVSPropertyOp1
 70
     1
102
RTVSPropertyOp2
 70
     1
102
RTVSPropertyOp3
 70
     1
102
RTVSPropertyOp4
 70
     1
102
RTVSPropertyOp5
 70
     1
102
RTVSPropertyOp6
 70
     1
102
RTVSPropertyOp7
 70
     1
102
RTVSPropertyOp8
 70
     1
102
RTVSPropertyOp9
 70
     1
102
RTVSPropertyOp10
 70
     1
102
RTVSPropertyOp11
 70
     1
102
RTVSPropertyOp12
 70
     1
102
RTVSPropertyOp13
 70
     1
102
RTVSPropertyOp14
 70
     1
102
RTVSPropertyOp15
 70
     1
102
RTVSPropertyOp16
 70
     1
102
RTVSPropertyOp17
 70
     1
102
RTVSPropertyOp18
 70
     1
102
RTVSPropertyOp19
 70
     1
102
RTVSPropertyOp20
 70
     1
102
RTVSPropertyOp21
 70
     1
102
RTVSPropertyOp22
 70
     1
102
RTVSPropertyOp23
 70
     1
102
RTVSPropertyOp24
 70
     1
102
RTVSPropertyOp25
 70
     1
102
RTVSPropertyOp26
 70
     1
102
RTVSPropertyOp27
 70
     1
102
RTVSPropertyOp28
 70
     1
102
RTVSPropertyOp29
 70
     1
102
RTVSPropertyOp30
 70
     1
102
RTVSPropertyOp31
 70
     1
102
RTVSPropertyOp32
 70
     1
  0
XRECORD
  5
CFB3
102
{ACAD_REACTORS
330
CFB2
102
}
330
CFB2
100
AcDbXrecord
280
     1
102
RTVSPropertyOp0
 70
     1
102
RTVSPropertyOp1
 70
     1
102
RTVSPropertyOp2
 70
     1
102
RTVSPropertyOp3
 70
     1
102
RTVSPropertyOp4
 70
     1
102
RTVSPropertyOp5
 70
     1
102
RTVSPropertyOp6
 70
     1
102
RTVSPropertyOp7
 70
     1
102
RTVSPropertyOp8
 70
     1
102
RTVSPropertyOp9
 70
     1
102
RTVSPropertyOp10
 70
     1
102
RTVSPropertyOp11
 70
     1
102
RTVSPropertyOp12
 70
     1
102
RTVSPropertyOp13
 70
     1
102
RTVSPropertyOp14
 70
     1
102
RTVSPropertyOp15
 70
     1
102
RTVSPropertyOp16
 70
     1
102
RTVSPropertyOp17
 70
     1
102
RTVSPropertyOp18
 70
     1
102
RTVSPropertyOp19
 70
     1
102
RTVSPropertyOp20
 70
     1
102
RTVSPropertyOp21
 70
     1
102
RTVSPropertyOp22
 70
     1
102
RTVSPropertyOp23
 70
     1
102
RTVSPropertyOp24
 70
     1
102
RTVSPropertyOp25
 70
     1
102
RTVSPropertyOp26
 70
     1
102
RTVSPropertyOp27
 70
     1
102
RTVSPropertyOp28
 70
     1
102
RTVSPropertyOp29
 70
     1
102
RTVSPropertyOp30
 70
     1
102
RTVSPropertyOp31
 70
     1
102
RTVSPropertyOp32
 70
     1
  0
XRECORD
  5
CFB5
102
{ACAD_REACTORS
330
CFB4
102
}
330
CFB4
100
AcDbXrecord
280
     1
102
RTVSPropertyOp0
 70
     1
102
RTVSPropertyOp1
 70
     1
102
RTVSPropertyOp2
 70
     1
102
RTVSPropertyOp3
 70
     1
102
RTVSPropertyOp4
 70
     1
102
RTVSPropertyOp5
 70
     1
102
RTVSPropertyOp6
 70
     1
102
RTVSPropertyOp7
 70
     1
102
RTVSPropertyOp8
 70
     1
102
RTVSPropertyOp9
 70
     1
102
RTVSPropertyOp10
 70
     1
102
RTVSPropertyOp11
 70
     1
102
RTVSPropertyOp12
 70
     1
102
RTVSPropertyOp13
 70
     1
102
RTVSPropertyOp14
 70
     1
102
RTVSPropertyOp15
 70
     1
102
RTVSPropertyOp16
 70
     1
102
RTVSPropertyOp17
 70
     1
102
RTVSPropertyOp18
 70
     1
102
RTVSPropertyOp19
 70
     1
102
RTVSPropertyOp20
 70
     1
102
RTVSPropertyOp21
 70
     1
102
RTVSPropertyOp22
 70
     1
102
RTVSPropertyOp23
 70
     1
102
RTVSPropertyOp24
 70
     1
102
RTVSPropertyOp25
 70
     1
102
RTVSPropertyOp26
 70
     1
102
RTVSPropertyOp27
 70
     1
102
RTVSPropertyOp28
 70
     1
102
RTVSPropertyOp29
 70
     1
102
RTVSPropertyOp30
 70
     1
102
RTVSPropertyOp31
 70
     1
102
RTVSPropertyOp32
 70
     1
  0
XRECORD
  5
CFB7
102
{ACAD_REACTORS
330
CFB6
102
}
330
CFB6
100
AcDbXrecord
280
     1
102
RTVSPropertyOp0
 70
     1
102
RTVSPropertyOp1
 70
     1
102
RTVSPropertyOp2
 70
     1
102
RTVSPropertyOp3
 70
     1
102
RTVSPropertyOp4
 70
     1
102
RTVSPropertyOp5
 70
     1
102
RTVSPropertyOp6
 70
     1
102
RTVSPropertyOp7
 70
     1
102
RTVSPropertyOp8
 70
     1
102
RTVSPropertyOp9
 70
     1
102
RTVSPropertyOp10
 70
     1
102
RTVSPropertyOp11
 70
     1
102
RTVSPropertyOp12
 70
     1
102
RTVSPropertyOp13
 70
     1
102
RTVSPropertyOp14
 70
     1
102
RTVSPropertyOp15
 70
     1
102
RTVSPropertyOp16
 70
     1
102
RTVSPropertyOp17
 70
     1
102
RTVSPropertyOp18
 70
     1
102
RTVSPropertyOp19
 70
     1
102
RTVSPropertyOp20
 70
     1
102
RTVSPropertyOp21
 70
     1
102
RTVSPropertyOp22
 70
     1
102
RTVSPropertyOp23
 70
     1
102
RTVSPropertyOp24
 70
     1
102
RTVSPropertyOp25
 70
     1
102
RTVSPropertyOp26
 70
     1
102
RTVSPropertyOp27
 70
     1
102
RTVSPropertyOp28
 70
     1
102
RTVSPropertyOp29
 70
     1
102
RTVSPropertyOp30
 70
     1
102
RTVSPropertyOp31
 70
     1
102
RTVSPropertyOp32
 70
     1
  0
XRECORD
  5
CFD9
102
{ACAD_REACTORS
330
CFD8
102
}
330
CFD8
100
AcDbXrecord
280
     1
102
RTVSPropertyOp0
 70
     1
102
RTVSPropertyOp1
 70
     1
102
RTVSPropertyOp2
 70
     1
102
RTVSPropertyOp3
 70
     1
102
RTVSPropertyOp4
 70
     1
102
RTVSPropertyOp5
 70
     1
102
RTVSPropertyOp6
 70
     1
102
RTVSPropertyOp7
 70
     1
102
RTVSPropertyOp8
 70
     1
102
RTVSPropertyOp9
 70
     1
102
RTVSPropertyOp10
 70
     1
102
RTVSPropertyOp11
 70
     1
102
RTVSPropertyOp12
 70
     1
102
RTVSPropertyOp13
 70
     1
102
RTVSPropertyOp14
 70
     1
102
RTVSPropertyOp15
 70
     1
102
RTVSPropertyOp16
 70
     1
102
RTVSPropertyOp17
 70
     1
102
RTVSPropertyOp18
 70
     1
102
RTVSPropertyOp19
 70
     1
102
RTVSPropertyOp20
 70
     1
102
RTVSPropertyOp21
 70
     1
102
RTVSPropertyOp22
 70
     1
102
RTVSPropertyOp23
 70
     1
102
RTVSPropertyOp24
 70
     1
102
RTVSPropertyOp25
 70
     1
102
RTVSPropertyOp26
 70
     1
102
RTVSPropertyOp27
 70
     1
102
RTVSPropertyOp28
 70
     1
102
RTVSPropertyOp29
 70
     1
102
RTVSPropertyOp30
 70
     1
102
RTVSPropertyOp31
 70
     1
102
RTVSPropertyOp32
 70
     1
  0
XRECORD
  5
CFD1
102
{ACAD_REACTORS
330
CFD0
102
}
330
CFD0
100
AcDbXrecord
280
     1
102
RTVSPropertyOp0
 70
     0
102
RTVSPropertyOp1
 70
     0
102
RTVSPropertyOp2
 70
     0
102
RTVSPropertyOp3
 70
     0
102
RTVSPropertyOp4
 70
     0
102
RTVSPropertyOp5
 70
     0
102
RTVSPropertyOp6
 70
     0
102
RTVSPropertyOp7
 70
     0
102
RTVSPropertyOp8
 70
     0
102
RTVSPropertyOp9
 70
     0
102
RTVSPropertyOp10
 70
     0
102
RTVSPropertyOp11
 70
     0
102
RTVSPropertyOp12
 70
     0
102
RTVSPropertyOp13
 70
     0
102
RTVSPropertyOp14
 70
     2
102
RTVSPropertyOp15
 70
     0
102
RTVSPropertyOp16
 70
     0
102
RTVSPropertyOp17
 70
     0
102
RTVSPropertyOp18
 70
     0
102
RTVSPropertyOp19
 70
     0
102
RTVSPropertyOp20
 70
     0
102
RTVSPropertyOp21
 70
     0
102
RTVSPropertyOp22
 70
     0
102
RTVSPropertyOp23
 70
     0
102
RTVSPropertyOp24
 70
     0
102
RTVSPropertyOp25
 70
     0
102
RTVSPropertyOp26
 70
     0
102
RTVSPropertyOp27
 70
     0
102
RTVSPropertyOp28
 70
     1
102
RTVSPropertyOp29
 70
     1
102
RTVSPropertyOp30
 70
     1
102
RTVSPropertyOp31
 70
     1
102
RTVSPropertyOp32
 70
     1
  0
XRECORD
  5
CFCB
102
{ACAD_REACTORS
330
CFCA
102
}
330
CFCA
100
AcDbXrecord
280
     1
102
RTVSPropertyOp0
 70
     1
102
RTVSPropertyOp1
 70
     1
102
RTVSPropertyOp2
 70
     1
102
RTVSPropertyOp3
 70
     1
102
RTVSPropertyOp4
 70
     1
102
RTVSPropertyOp5
 70
     1
102
RTVSPropertyOp6
 70
     1
102
RTVSPropertyOp7
 70
     1
102
RTVSPropertyOp8
 70
     1
102
RTVSPropertyOp9
 70
     1
102
RTVSPropertyOp10
 70
     1
102
RTVSPropertyOp11
 70
     1
102
RTVSPropertyOp12
 70
     1
102
RTVSPropertyOp13
 70
     1
102
RTVSPropertyOp14
 70
     1
102
RTVSPropertyOp15
 70
     1
102
RTVSPropertyOp16
 70
     1
102
RTVSPropertyOp17
 70
     1
102
RTVSPropertyOp18
 70
     1
102
RTVSPropertyOp19
 70
     1
102
RTVSPropertyOp20
 70
     1
102
RTVSPropertyOp21
 70
     1
102
RTVSPropertyOp22
 70
     1
102
RTVSPropertyOp23
 70
     1
102
RTVSPropertyOp24
 70
     1
102
RTVSPropertyOp25
 70
     1
102
RTVSPropertyOp26
 70
     1
102
RTVSPropertyOp27
 70
     1
102
RTVSPropertyOp28
 70
     1
102
RTVSPropertyOp29
 70
     1
102
RTVSPropertyOp30
 70
     1
102
RTVSPropertyOp31
 70
     1
102
RTVSPropertyOp32
 70
     1
  0
XRECORD
  5
CFD3
102
{ACAD_REACTORS
330
CFD2
102
}
330
CFD2
100
AcDbXrecord
280
     1
102
RTVSPropertyOp0
 70
     0
102
RTVSPropertyOp1
 70
     0
102
RTVSPropertyOp2
 70
     0
102
RTVSPropertyOp3
 70
     0
102
RTVSPropertyOp4
 70
     0
102
RTVSPropertyOp5
 70
     0
102
RTVSPropertyOp6
 70
     0
102
RTVSPropertyOp7
 70
     0
102
RTVSPropertyOp8
 70
     0
102
RTVSPropertyOp9
 70
     0
102
RTVSPropertyOp10
 70
     0
102
RTVSPropertyOp11
 70
     0
102
RTVSPropertyOp12
 70
     0
102
RTVSPropertyOp13
 70
     0
102
RTVSPropertyOp14
 70
     2
102
RTVSPropertyOp15
 70
     0
102
RTVSPropertyOp16
 70
     0
102
RTVSPropertyOp17
 70
     0
102
RTVSPropertyOp18
 70
     0
102
RTVSPropertyOp19
 70
     0
102
RTVSPropertyOp20
 70
     0
102
RTVSPropertyOp21
 70
     0
102
RTVSPropertyOp22
 70
     0
102
RTVSPropertyOp23
 70
     0
102
RTVSPropertyOp24
 70
     0
102
RTVSPropertyOp25
 70
     0
102
RTVSPropertyOp26
 70
     0
102
RTVSPropertyOp27
 70
     0
102
RTVSPropertyOp28
 70
     1
102
RTVSPropertyOp29
 70
     1
102
RTVSPropertyOp30
 70
     1
102
RTVSPropertyOp31
 70
     1
102
RTVSPropertyOp32
 70
     1
  0
XRECORD
  5
CFC3
102
{ACAD_REACTORS
330
CFC2
102
}
330
CFC2
100
AcDbXrecord
280
     1
102
RTVSPropertyOp0
 70
     1
102
RTVSPropertyOp1
 70
     1
102
RTVSPropertyOp2
 70
     1
102
RTVSPropertyOp3
 70
     1
102
RTVSPropertyOp4
 70
     1
102
RTVSPropertyOp5
 70
     1
102
RTVSPropertyOp6
 70
     1
102
RTVSPropertyOp7
 70
     1
102
RTVSPropertyOp8
 70
     1
102
RTVSPropertyOp9
 70
     1
102
RTVSPropertyOp10
 70
     1
102
RTVSPropertyOp11
 70
     1
102
RTVSPropertyOp12
 70
     1
102
RTVSPropertyOp13
 70
     1
102
RTVSPropertyOp14
 70
     1
102
RTVSPropertyOp15
 70
     1
102
RTVSPropertyOp16
 70
     1
102
RTVSPropertyOp17
 70
     1
102
RTVSPropertyOp18
 70
     1
102
RTVSPropertyOp19
 70
     1
102
RTVSPropertyOp20
 70
     1
102
RTVSPropertyOp21
 70
     1
102
RTVSPropertyOp22
 70
     1
102
RTVSPropertyOp23
 70
     1
102
RTVSPropertyOp24
 70
     1
102
RTVSPropertyOp25
 70
     1
102
RTVSPropertyOp26
 70
     1
102
RTVSPropertyOp27
 70
     1
102
RTVSPropertyOp28
 70
     1
102
RTVSPropertyOp29
 70
     1
102
RTVSPropertyOp30
 70
     1
102
RTVSPropertyOp31
 70
     1
102
RTVSPropertyOp32
 70
     1
  0
XRECORD
  5
CFE3
102
{ACAD_REACTORS
330
CFE2
102
}
330
CFE2
100
AcDbXrecord
280
     1
102
RTVSPropertyOp0
 70
     1
102
RTVSPropertyOp1
 70
     1
102
RTVSPropertyOp2
 70
     1
102
RTVSPropertyOp3
 70
     1
102
RTVSPropertyOp4
 70
     1
102
RTVSPropertyOp5
 70
     1
102
RTVSPropertyOp6
 70
     1
102
RTVSPropertyOp7
 70
     1
102
RTVSPropertyOp8
 70
     1
102
RTVSPropertyOp9
 70
     1
102
RTVSPropertyOp10
 70
     1
102
RTVSPropertyOp11
 70
     1
102
RTVSPropertyOp12
 70
     1
102
RTVSPropertyOp13
 70
     1
102
RTVSPropertyOp14
 70
     1
102
RTVSPropertyOp15
 70
     1
102
RTVSPropertyOp16
 70
     1
102
RTVSPropertyOp17
 70
     1
102
RTVSPropertyOp18
 70
     1
102
RTVSPropertyOp19
 70
     1
102
RTVSPropertyOp20
 70
     1
102
RTVSPropertyOp21
 70
     1
102
RTVSPropertyOp22
 70
     1
102
RTVSPropertyOp23
 70
     1
102
RTVSPropertyOp24
 70
     1
102
RTVSPropertyOp25
 70
     1
102
RTVSPropertyOp26
 70
     1
102
RTVSPropertyOp27
 70
     1
102
RTVSPropertyOp28
 70
     1
102
RTVSPropertyOp29
 70
     1
102
RTVSPropertyOp30
 70
     1
102
RTVSPropertyOp31
 70
     1
102
RTVSPropertyOp32
 70
     1
  0
XRECORD
  5
CFE1
102
{ACAD_REACTORS
330
CFE0
102
}
330
CFE0
100
AcDbXrecord
280
     1
102
RTVSPropertyOp0
 70
     1
102
RTVSPropertyOp1
 70
     1
102
RTVSPropertyOp2
 70
     1
102
RTVSPropertyOp3
 70
     1
102
RTVSPropertyOp4
 70
     1
102
RTVSPropertyOp5
 70
     1
102
RTVSPropertyOp6
 70
     1
102
RTVSPropertyOp7
 70
     1
102
RTVSPropertyOp8
 70
     1
102
RTVSPropertyOp9
 70
     1
102
RTVSPropertyOp10
 70
     1
102
RTVSPropertyOp11
 70
     1
102
RTVSPropertyOp12
 70
     1
102
RTVSPropertyOp13
 70
     1
102
RTVSPropertyOp14
 70
     1
102
RTVSPropertyOp15
 70
     1
102
RTVSPropertyOp16
 70
     1
102
RTVSPropertyOp17
 70
     1
102
RTVSPropertyOp18
 70
     1
102
RTVSPropertyOp19
 70
     1
102
RTVSPropertyOp20
 70
     1
102
RTVSPropertyOp21
 70
     1
102
RTVSPropertyOp22
 70
     1
102
RTVSPropertyOp23
 70
     1
102
RTVSPropertyOp24
 70
     1
102
RTVSPropertyOp25
 70
     1
102
RTVSPropertyOp26
 70
     1
102
RTVSPropertyOp27
 70
     1
102
RTVSPropertyOp28
 70
     1
102
RTVSPropertyOp29
 70
     1
102
RTVSPropertyOp30
 70
     1
102
RTVSPropertyOp31
 70
     1
102
RTVSPropertyOp32
 70
     1
  0
XRECORD
  5
CFDB
102
{ACAD_REACTORS
330
CFDA
102
}
330
CFDA
100
AcDbXrecord
280
     1
102
RTVSPropertyOp0
 70
     1
102
RTVSPropertyOp1
 70
     1
102
RTVSPropertyOp2
 70
     1
102
RTVSPropertyOp3
 70
     1
102
RTVSPropertyOp4
 70
     1
102
RTVSPropertyOp5
 70
     1
102
RTVSPropertyOp6
 70
     1
102
RTVSPropertyOp7
 70
     1
102
RTVSPropertyOp8
 70
     1
102
RTVSPropertyOp9
 70
     1
102
RTVSPropertyOp10
 70
     1
102
RTVSPropertyOp11
 70
     1
102
RTVSPropertyOp12
 70
     1
102
RTVSPropertyOp13
 70
     1
102
RTVSPropertyOp14
 70
     1
102
RTVSPropertyOp15
 70
     1
102
RTVSPropertyOp16
 70
     1
102
RTVSPropertyOp17
 70
     1
102
RTVSPropertyOp18
 70
     1
102
RTVSPropertyOp19
 70
     1
102
RTVSPropertyOp20
 70
     1
102
RTVSPropertyOp21
 70
     1
102
RTVSPropertyOp22
 70
     1
102
RTVSPropertyOp23
 70
     1
102
RTVSPropertyOp24
 70
     1
102
RTVSPropertyOp25
 70
     1
102
RTVSPropertyOp26
 70
     1
102
RTVSPropertyOp27
 70
     1
102
RTVSPropertyOp28
 70
     1
102
RTVSPropertyOp29
 70
     1
102
RTVSPropertyOp30
 70
     1
102
RTVSPropertyOp31
 70
     1
102
RTVSPropertyOp32
 70
     1
  0
XRECORD
  5
CFDD
102
{ACAD_REACTORS
330
CFDC
102
}
330
CFDC
100
AcDbXrecord
280
     1
102
RTVSPropertyOp0
 70
     1
102
RTVSPropertyOp1
 70
     1
102
RTVSPropertyOp2
 70
     1
102
RTVSPropertyOp3
 70
     1
102
RTVSPropertyOp4
 70
     1
102
RTVSPropertyOp5
 70
     1
102
RTVSPropertyOp6
 70
     1
102
RTVSPropertyOp7
 70
     1
102
RTVSPropertyOp8
 70
     1
102
RTVSPropertyOp9
 70
     1
102
RTVSPropertyOp10
 70
     1
102
RTVSPropertyOp11
 70
     1
102
RTVSPropertyOp12
 70
     1
102
RTVSPropertyOp13
 70
     1
102
RTVSPropertyOp14
 70
     1
102
RTVSPropertyOp15
 70
     1
102
RTVSPropertyOp16
 70
     1
102
RTVSPropertyOp17
 70
     1
102
RTVSPropertyOp18
 70
     1
102
RTVSPropertyOp19
 70
     1
102
RTVSPropertyOp20
 70
     1
102
RTVSPropertyOp21
 70
     1
102
RTVSPropertyOp22
 70
     1
102
RTVSPropertyOp23
 70
     1
102
RTVSPropertyOp24
 70
     1
102
RTVSPropertyOp25
 70
     1
102
RTVSPropertyOp26
 70
     1
102
RTVSPropertyOp27
 70
     1
102
RTVSPropertyOp28
 70
     1
102
RTVSPropertyOp29
 70
     1
102
RTVSPropertyOp30
 70
     1
102
RTVSPropertyOp31
 70
     1
102
RTVSPropertyOp32
 70
     1
  0
XRECORD
  5
CFC9
102
{ACAD_REACTORS
330
CFC8
102
}
330
CFC8
100
AcDbXrecord
280
     1
102
RTVSPropertyOp0
 70
     1
102
RTVSPropertyOp1
 70
     1
102
RTVSPropertyOp2
 70
     1
102
RTVSPropertyOp3
 70
     1
102
RTVSPropertyOp4
 70
     1
102
RTVSPropertyOp5
 70
     1
102
RTVSPropertyOp6
 70
     1
102
RTVSPropertyOp7
 70
     1
102
RTVSPropertyOp8
 70
     1
102
RTVSPropertyOp9
 70
     1
102
RTVSPropertyOp10
 70
     1
102
RTVSPropertyOp11
 70
     1
102
RTVSPropertyOp12
 70
     1
102
RTVSPropertyOp13
 70
     1
102
RTVSPropertyOp14
 70
     1
102
RTVSPropertyOp15
 70
     1
102
RTVSPropertyOp16
 70
     1
102
RTVSPropertyOp17
 70
     1
102
RTVSPropertyOp18
 70
     1
102
RTVSPropertyOp19
 70
     1
102
RTVSPropertyOp20
 70
     1
102
RTVSPropertyOp21
 70
     1
102
RTVSPropertyOp22
 70
     1
102
RTVSPropertyOp23
 70
     1
102
RTVSPropertyOp24
 70
     1
102
RTVSPropertyOp25
 70
     1
102
RTVSPropertyOp26
 70
     1
102
RTVSPropertyOp27
 70
     1
102
RTVSPropertyOp28
 70
     1
102
RTVSPropertyOp29
 70
     1
102
RTVSPropertyOp30
 70
     1
102
RTVSPropertyOp31
 70
     1
102
RTVSPropertyOp32
 70
     1
  0
XRECORD
  5
CFD7
102
{ACAD_REACTORS
330
CFD6
102
}
330
CFD6
100
AcDbXrecord
280
     1
102
RTVSPropertyOp0
 70
     1
102
RTVSPropertyOp1
 70
     1
102
RTVSPropertyOp2
 70
     1
102
RTVSPropertyOp3
 70
     1
102
RTVSPropertyOp4
 70
     1
102
RTVSPropertyOp5
 70
     1
102
RTVSPropertyOp6
 70
     1
102
RTVSPropertyOp7
 70
     1
102
RTVSPropertyOp8
 70
     1
102
RTVSPropertyOp9
 70
     1
102
RTVSPropertyOp10
 70
     1
102
RTVSPropertyOp11
 70
     1
102
RTVSPropertyOp12
 70
     1
102
RTVSPropertyOp13
 70
     1
102
RTVSPropertyOp14
 70
     1
102
RTVSPropertyOp15
 70
     1
102
RTVSPropertyOp16
 70
     1
102
RTVSPropertyOp17
 70
     1
102
RTVSPropertyOp18
 70
     1
102
RTVSPropertyOp19
 70
     1
102
RTVSPropertyOp20
 70
     1
102
RTVSPropertyOp21
 70
     1
102
RTVSPropertyOp22
 70
     1
102
RTVSPropertyOp23
 70
     1
102
RTVSPropertyOp24
 70
     1
102
RTVSPropertyOp25
 70
     1
102
RTVSPropertyOp26
 70
     1
102
RTVSPropertyOp27
 70
     1
102
RTVSPropertyOp28
 70
     1
102
RTVSPropertyOp29
 70
     1
102
RTVSPropertyOp30
 70
     1
102
RTVSPropertyOp31
 70
     1
102
RTVSPropertyOp32
 70
     1
  0
XRECORD
  5
CFDF
102
{ACAD_REACTORS
330
CFDE
102
}
330
CFDE
100
AcDbXrecord
280
     1
102
RTVSPropertyOp0
 70
     1
102
RTVSPropertyOp1
 70
     1
102
RTVSPropertyOp2
 70
     1
102
RTVSPropertyOp3
 70
     1
102
RTVSPropertyOp4
 70
     1
102
RTVSPropertyOp5
 70
     1
102
RTVSPropertyOp6
 70
     1
102
RTVSPropertyOp7
 70
     1
102
RTVSPropertyOp8
 70
     1
102
RTVSPropertyOp9
 70
     1
102
RTVSPropertyOp10
 70
     1
102
RTVSPropertyOp11
 70
     1
102
RTVSPropertyOp12
 70
     1
102
RTVSPropertyOp13
 70
     1
102
RTVSPropertyOp14
 70
     1
102
RTVSPropertyOp15
 70
     1
102
RTVSPropertyOp16
 70
     1
102
RTVSPropertyOp17
 70
     1
102
RTVSPropertyOp18
 70
     1
102
RTVSPropertyOp19
 70
     1
102
RTVSPropertyOp20
 70
     1
102
RTVSPropertyOp21
 70
     1
102
RTVSPropertyOp22
 70
     1
102
RTVSPropertyOp23
 70
     1
102
RTVSPropertyOp24
 70
     1
102
RTVSPropertyOp25
 70
     1
102
RTVSPropertyOp26
 70
     1
102
RTVSPropertyOp27
 70
     1
102
RTVSPropertyOp28
 70
     1
102
RTVSPropertyOp29
 70
     1
102
RTVSPropertyOp30
 70
     1
102
RTVSPropertyOp31
 70
     1
102
RTVSPropertyOp32
 70
     1
  0
DICTIONARY
  5
CFE4
330
CF91
100
AcDbDictionary
280
     1
281
     1
  3
ACAD_XREC_ROUNDTRIP
360
CFE5
  0
XRECORD
  5
CFE5
102
{ACAD_REACTORS
330
CFE4
102
}
330
CFE4
100
AcDbXrecord
280
     1
102
SHADEPLOT
 70
     0
102
SHADEPLOTRESLEVEL
 70
     2
102
SHADEPLOTCUSTOMDPI
 70
   300
  0
ENDSEC
  0
EOF
