  0
SECTION
  2
HEADER
  9
$ACADVER
  1
AC1015
  9
$ACADMAINTVER
 70
    18
  9
$DWGCODEPAGE
  3
ANSI_1252
  9
$INSBASE
 10
0.0
 20
0.0
 30
0.0
  9
$EXTMIN
 10
0.0
 20
0.0
 30
0.0
  9
$EXTMAX
 10
210.0
 20
297.0
 30
0.0
  9
$LIMMIN
 10
0.0
 20
0.0
  9
$LIMMAX
 10
210.0
 20
297.0
  9
$ORTHOMODE
 70
     0
  9
$REGENMODE
 70
     1
  9
$FILLMODE
 70
     1
  9
$QTEXTMODE
 70
     0
  9
$MIRRTEXT
 70
     0
  9
$LTSCALE
 40
1.0
  9
$ATTMODE
 70
     1
  9
$TEXTSIZE
 40
0.2
  9
$TRACEWID
 40
0.05
  9
$TEXTSTYLE
  7
Standard
  9
$CLAYER
  8
0
  9
$CELTYPE
  6
ByLayer
  9
$CECOLOR
 62
   256
  9
$CELTSCALE
 40
1.0
  9
$DISPSILH
 70
     0
  9
$DIMSCALE
 40
1.0
  9
$DIMASZ
 40
1.799999999999999
  9
$DIMEXO
 40
0.0625
  9
$DIMDLI
 40
0.38
  9
$DIMRND
 40
0.0
  9
$DIMDLE
 40
0.0
  9
$DIMEXE
 40
0.18
  9
$DIMTP
 40
0.0
  9
$DIMTM
 40
0.0
  9
$DIMTXT
 40
0.5
  9
$DIMCEN
 40
0.09
  9
$DIMTSZ
 40
0.0
  9
$DIMTOL
 70
     0
  9
$DIMLIM
 70
     0
  9
$DIMTIH
 70
     1
  9
$DIMTOH
 70
     1
  9
$DIMSE1
 70
     0
  9
$DIMSE2
 70
     0
  9
$DIMTAD
 70
     0
  9
$DIMZIN
 70
     0
  9
$DIMBLK
  1

  9
$DIMASO
 70
     1
  9
$DIMSHO
 70
     1
  9
$DIMPOST
  1

  9
$DIMAPOST
  1

  9
$DIMALT
 70
     0
  9
$DIMALTD
 70
     2
  9
$DIMALTF
 40
25.4
  9
$DIMLFAC
 40
1.0
  9
$DIMTOFL
 70
     0
  9
$DIMTVP
 40
0.0
  9
$DIMTIX
 70
     0
  9
$DIMSOXD
 70
     0
  9
$DIMSAH
 70
     0
  9
$DIMBLK1
  1

  9
$DIMBLK2
  1

  9
$DIMSTYLE
  2
Standard
  9
$DIMCLRD
 70
     0
  9
$DIMCLRE
 70
     0
  9
$DIMCLRT
 70
     0
  9
$DIMTFAC
 40
1.0
  9
$DIMGAP
 40
0.09
  9
$DIMJUST
 70
     0
  9
$DIMSD1
 70
     0
  9
$DIMSD2
 70
     0
  9
$DIMTOLJ
 70
     1
  9
$DIMTZIN
 70
     0
  9
$DIMALTZ
 70
     0
  9
$DIMALTTZ
 70
     0
  9
$DIMUPT
 70
     0
  9
$DIMDEC
 70
     4
  9
$DIMTDEC
 70
     4
  9
$DIMALTU
 70
     2
  9
$DIMALTTD
 70
     2
  9
$DIMTXSTY
  7
Standard
  9
$DIMAUNIT
 70
     0
  9
$DIMADEC
 70
     0
  9
$DIMALTRND
 40
0.0
  9
$DIMAZIN
 70
     0
  9
$DIMDSEP
 70
    46
  9
$DIMATFIT
 70
     3
  9
$DIMFRAC
 70
     0
  9
$DIMLDRBLK
  1

  9
$DIMLUNIT
 70
     2
  9
$DIMLWD
 70
    -2
  9
$DIMLWE
 70
    -2
  9
$DIMTMOVE
 70
     0
  9
$LUNITS
 70
     2
  9
$LUPREC
 70
     4
  9
$SKETCHINC
 40
0.1
  9
$FILLETRAD
 40
0.0
  9
$AUNITS
 70
     0
  9
$AUPREC
 70
     0
  9
$MENU
  1
.
  9
$ELEVATION
 40
0.0
  9
$PELEVATION
 40
0.0
  9
$THICKNESS
 40
0.0
  9
$LIMCHECK
 70
     0
  9
$CHAMFERA
 40
0.0
  9
$CHAMFERB
 40
0.0
  9
$CHAMFERC
 40
0.0
  9
$CHAMFERD
 40
0.0
  9
$SKPOLY
 70
     0
  9
$TDCREATE
 40
2456329.403354387
  9
$TDUCREATE
 40
2456329.361687720
  9
$TDUPDATE
 40
2456329.403354387
  9
$TDUUPDATE
 40
2456329.361687720
  9
$TDINDWG
 40
0.0000423148
  9
$TDUSRTIMER
 40
0.0000423148
  9
$USRTIMER
 70
     1
  9
$ANGBASE
 50
0.0
  9
$ANGDIR
 70
     0
  9
$PDMODE
 70
     0
  9
$PDSIZE
 40
0.0
  9
$PLINEWID
 40
0.0
  9
$SPLFRAME
 70
     0
  9
$SPLINETYPE
 70
     6
  9
$SPLINESEGS
 70
     8
  9
$HANDSEED
  5
79F
  9
$SURFTAB1
 70
     6
  9
$SURFTAB2
 70
     6
  9
$SURFTYPE
 70
     6
  9
$SURFU
 70
     6
  9
$SURFV
 70
     6
  9
$UCSBASE
  2

  9
$UCSNAME
  2

  9
$UCSORG
 10
0.0
 20
0.0
 30
0.0
  9
$UCSXDIR
 10
1.0
 20
0.0
 30
0.0
  9
$UCSYDIR
 10
0.0
 20
1.0
 30
0.0
  9
$UCSORTHOREF
  2

  9
$UCSORTHOVIEW
 70
     0
  9
$UCSORGTOP
 10
0.0
 20
0.0
 30
0.0
  9
$UCSORGBOTTOM
 10
0.0
 20
0.0
 30
0.0
  9
$UCSORGLEFT
 10
0.0
 20
0.0
 30
0.0
  9
$UCSORGRIGHT
 10
0.0
 20
0.0
 30
0.0
  9
$UCSORGFRONT
 10
0.0
 20
0.0
 30
0.0
  9
$UCSORGBACK
 10
0.0
 20
0.0
 30
0.0
  9
$PUCSBASE
  2

  9
$PUCSNAME
  2

  9
$PUCSORG
 10
0.0
 20
0.0
 30
0.0
  9
$PUCSXDIR
 10
1.0
 20
0.0
 30
0.0
  9
$PUCSYDIR
 10
0.0
 20
1.0
 30
0.0
  9
$PUCSORTHOREF
  2

  9
$PUCSORTHOVIEW
 70
     0
  9
$PUCSORGTOP
 10
0.0
 20
0.0
 30
0.0
  9
$PUCSORGBOTTOM
 10
0.0
 20
0.0
 30
0.0
  9
$PUCSORGLEFT
 10
0.0
 20
0.0
 30
0.0
  9
$PUCSORGRIGHT
 10
0.0
 20
0.0
 30
0.0
  9
$PUCSORGFRONT
 10
0.0
 20
0.0
 30
0.0
  9
$PUCSORGBACK
 10
0.0
 20
0.0
 30
0.0
  9
$USERI1
 70
     0
  9
$USERI2
 70
     0
  9
$USERI3
 70
     0
  9
$USERI4
 70
     0
  9
$USERI5
 70
     0
  9
$USERR1
 40
0.0
  9
$USERR2
 40
0.0
  9
$USERR3
 40
0.0
  9
$USERR4
 40
0.0
  9
$USERR5
 40
0.0
  9
$WORLDVIEW
 70
     1
  9
$SHADEDGE
 70
     3
  9
$SHADEDIF
 70
    70
  9
$TILEMODE
 70
     1
  9
$MAXACTVP
 70
    64
  9
$PINSBASE
 10
0.0
 20
0.0
 30
0.0
  9
$PLIMCHECK
 70
     0
  9
$PEXTMIN
 10
0.0
 20
0.0
 30
0.0
  9
$PEXTMAX
 10
210.0
 20
297.0
 30
0.0
  9
$PLIMMIN
 10
0.0
 20
0.0
  9
$PLIMMAX
 10
210.0
 20
297.0
  9
$UNITMODE
 70
     0
  9
$VISRETAIN
 70
     1
  9
$PLINEGEN
 70
     0
  9
$PSLTSCALE
 70
     1
  9
$TREEDEPTH
 70
  3020
  9
$CMLSTYLE
  2
Standard
  9
$CMLJUST
 70
     0
  9
$CMLSCALE
 40
1.0
  9
$PROXYGRAPHICS
 70
     1
  9
$MEASUREMENT
 70
     1
  9
$CELWEIGHT
370
    -1
  9
$ENDCAPS
280
     0
  9
$JOINSTYLE
280
     0
  9
$LWDISPLAY
290
     0
  9
$INSUNITS
 70
     4
  9
$HYPERLINKBASE
  1

  9
$STYLESHEET
  1

  9
$XEDIT
290
     1
  9
$CEPSNTYPE
380
     0
  9
$PSTYLEMODE
290
     1
  9
$FINGERPRINTGUID
  2
{B39D1A20-DE21-447B-9F99-F1446874ACE0}
  9
$VERSIONGUID
  2
{CAC30AC1-C8D9-4E80-80B0-856D4F7D5AF3}
  9
$EXTNAMES
290
     1
  9
$PSVPSCALE
 40
0.0
  9
$OLESTARTUP
290
     0
  0
ENDSEC
  0
SECTION
  2
CLASSES
  0
CLASS
  1
ACDBDICTIONARYWDFLT
  2
AcDbDictionaryWithDefault
  3
ObjectDBX Classes
 90
        0
280
     0
281
     0
  0
CLASS
  1
MATERIAL
  2
AcDbMaterial
  3
ObjectDBX Classes
 90
     1153
280
     0
281
     0
  0
CLASS
  1
VISUALSTYLE
  2
AcDbVisualStyle
  3
ObjectDBX Classes
 90
     4095
280
     0
281
     0
  0
CLASS
  1
SCALE
  2
AcDbScale
  3
ObjectDBX Classes
 90
     1153
280
     0
281
     0
  0
CLASS
  1
TABLESTYLE
  2
AcDbTableStyle
  3
ObjectDBX Classes
 90
     4095
280
     0
281
     0
  0
CLASS
  1
MLEADERSTYLE
  2
AcDbMLeaderStyle
  3
ACDB_MLEADERSTYLE_CLASS
 90
     4095
280
     0
281
     0
  0
CLASS
  1
DICTIONARYVAR
  2
AcDbDictionaryVar
  3
ObjectDBX Classes
 90
        0
280
     0
281
     0
  0
CLASS
  1
CELLSTYLEMAP
  2
AcDbCellStyleMap
  3
ObjectDBX Classes
 90
     1152
280
     0
281
     0
  0
CLASS
  1
ACDBPLACEHOLDER
  2
AcDbPlaceHolder
  3
ObjectDBX Classes
 90
        0
280
     0
281
     0
  0
CLASS
  1
LAYOUT
  2
AcDbLayout
  3
ObjectDBX Classes
 90
        0
280
     0
281
     0
  0
ENDSEC
  0
SECTION
  2
TABLES
  0
TABLE
  2
VPORT
  5
8
330
0
100
AcDbSymbolTable
 70
     1
  0
VPORT
  5
57
330
8
100
AcDbSymbolTableRecord
100
AcDbViewportTableRecord
  2
*Active
 70
     0
 10
0.0
 20
0.0
 11
1.0
 21
1.0
 12
105.0
 22
148.5
 13
0.0
 23
0.0
 14
1.0
 24
1.0
 15
0.0
 25
0.0
 16
0.0
 26
0.0
 36
1.0
 17
0.0
 27
0.0
 37
0.0
 40
297.0
 41
0.7070707070707071
 42
50.0
 43
0.0
 44
0.0
 50
0.0
 51
0.0
 71
     0
 72
   100
 73
     1
 74
     1
 75
     0
 76
     0
 77
     0
 78
     0
281
     0
 65
     1
110
0.0
120
0.0
130
0.0
111
1.0
121
0.0
131
0.0
112
0.0
122
1.0
132
0.0
 79
     0
146
0.0
  0
ENDTAB
  0
TABLE
  2
LTYPE
  5
5
330
0
100
AcDbSymbolTable
 70
    60
  0
LTYPE
  5
5B
330
5
100
AcDbSymbolTableRecord
100
AcDbLinetypeTableRecord
  2
ByBlock
 70
     0
  3

 72
    65
 73
     0
 40
0.0
  0
LTYPE
  5
5C
330
5
100
AcDbSymbolTableRecord
100
AcDbLinetypeTableRecord
  2
ByLayer
 70
     0
  3

 72
    65
 73
     0
 40
0.0
  0
LTYPE
  5
5D
330
5
100
AcDbSymbolTableRecord
100
AcDbLinetypeTableRecord
  2
Continuous
 70
     0
  3
Solid line
 72
    65
 73
     0
 40
0.0
  0
LTYPE
  5
74
330
5
100
AcDbSymbolTableRecord
100
AcDbLinetypeTableRecord
  2
Section_View_Lines
 70
     0
  3
Section View Lines
 72
    65
 73
     4
 40
0.8406
 49
0.6614
 74
     0
 49
-0.0827
 74
     0
 49
0.0138
 74
     0
 49
-0.0827
 74
     0
  0
LTYPE
  5
75
330
5
100
AcDbSymbolTableRecord
100
AcDbLinetypeTableRecord
  2
CHAIN
 70
     0
  3
Chain ____ _ ____ _ ____ _ ____ _ ____ _ ____
 72
    65
 73
     4
 40
0.3543
 49
0.2362
 74
     0
 49
-0.0295
 74
     0
 49
0.0591
 74
     0
 49
-0.0295
 74
     0
  0
LTYPE
  5
76
330
5
100
AcDbSymbolTableRecord
100
AcDbLinetypeTableRecord
  2
DASH_DOT
 70
     0
  3
Dash dot _._._._._._._._._._._._._._._.
 72
    65
 73
     4
 40
0.182
 49
0.1181
 74
     0
 49
-0.0295
 74
     0
 49
0.0049
 74
     0
 49
-0.0295
 74
     0
  0
LTYPE
  5
77
330
5
100
AcDbSymbolTableRecord
100
AcDbLinetypeTableRecord
  2
DASH_DOUBLE_DOT
 70
     0
  3
Dash Double Dot __ __ . __ __ . __ __ . __ _
 72
    65
 73
     6
 40
0.2164
 49
0.1181
 74
     0
 49
-0.0295
 74
     0
 49
0.0049
 74
     0
 49
-0.0295
 74
     0
 49
0.0049
 74
     0
 49
-0.0295
 74
     0
  0
LTYPE
  5
78
330
5
100
AcDbSymbolTableRecord
100
AcDbLinetypeTableRecord
  2
DASH_TRIPLE_DOT
 70
     0
  3
Dash Triple-Dot _ . . . _ . . . _ . . . _
 72
    65
 73
     8
 40
0.2508
 49
0.1181
 74
     0
 49
-0.0295
 74
     0
 49
0.0049
 74
     0
 49
-0.0295
 74
     0
 49
0.0049
 74
     0
 49
-0.0295
 74
     0
 49
0.0049
 74
     0
 49
-0.0295
 74
     0
  0
LTYPE
  5
79
330
5
100
AcDbSymbolTableRecord
100
AcDbLinetypeTableRecord
  2
DASHED
 70
     0
  3
Dashed __ __ __ __ __ __ __ __ __ __ __ __ __ _
 72
    65
 73
     2
 40
0.2068
 49
0.1655
 74
     0
 49
-0.0413
 74
     0
  0
LTYPE
  5
7A
330
5
100
AcDbSymbolTableRecord
100
AcDbLinetypeTableRecord
  2
DASHED_SPACE
 70
     0
  3
Dashed Space __ __ __ __ __ __ __ __ __ __ __ _
 72
    65
 73
     2
 40
0.2067
 49
0.1654
 74
     0
 49
-0.0413
 74
     0
  0
LTYPE
  5
7B
330
5
100
AcDbSymbolTableRecord
100
AcDbLinetypeTableRecord
  2
DOTTED
 70
     0
  3
Dotted . . . . . . . . . . . . . . . . . . . . 
 72
    65
 73
     2
 40
0.0481
 49
0.0068
 74
     0
 49
-0.0413
 74
     0
  0
LTYPE
  5
7C
330
5
100
AcDbSymbolTableRecord
100
AcDbLinetypeTableRecord
  2
DOUBLE_DASH_CHAIN
 70
     0
  3
Double Dash Chain ___ _ _ ___ _ _ ___ _ _ ___ _
 72
    65
 73
     6
 40
1.240299999999999
 49
0.6614
 74
     0
 49
-0.0827
 74
     0
 49
0.1654
 74
     0
 49
-0.0827
 74
     0
 49
0.1654
 74
     0
 49
-0.0827
 74
     0
  0
LTYPE
  5
7D
330
5
100
AcDbSymbolTableRecord
100
AcDbLinetypeTableRecord
  2
DOUBLE_DASH_DOT
 70
     0
  3
Double Dash Dot __ __ . __ __ . __ __ . __ _
 72
    65
 73
     6
 40
0.3296
 49
0.1181
 74
     0
 49
-0.0295
 74
     0
 49
0.1181
 74
     0
 49
-0.0295
 74
     0
 49
0.0049
 74
     0
 49
-0.0295
 74
     0
  0
LTYPE
  5
7E
330
5
100
AcDbSymbolTableRecord
100
AcDbLinetypeTableRecord
  2
DOUBLE_DASH_DOUBLE_DOT
 70
     0
  3
Double Dash Double Dot _ _ . . _ _ . . _ _
 72
    65
 73
     8
 40
0.364
 49
0.1181
 74
     0
 49
-0.0295
 74
     0
 49
0.1181
 74
     0
 49
-0.0295
 74
     0
 49
0.0049
 74
     0
 49
-0.0295
 74
     0
 49
0.0049
 74
     0
 49
-0.0295
 74
     0
  0
LTYPE
  5
7F
330
5
100
AcDbSymbolTableRecord
100
AcDbLinetypeTableRecord
  2
DOUBLE_DASH_TRIPLE_DOT
 70
     0
  3
Double Dash Triple Dot __ __ . . . __ __ . . .
 72
    65
 73
    10
 40
0.3984
 49
0.1181
 74
     0
 49
-0.0295
 74
     0
 49
0.1181
 74
     0
 49
-0.0295
 74
     0
 49
0.0049
 74
     0
 49
-0.0295
 74
     0
 49
0.0049
 74
     0
 49
-0.0295
 74
     0
 49
0.0049
 74
     0
 49
-0.0295
 74
     0
  0
LTYPE
  5
80
330
5
100
AcDbSymbolTableRecord
100
AcDbLinetypeTableRecord
  2
LONG_DASH_DOTTED
 70
     0
  3
Long Dash Dotted ____ . ____ . ____ . ____ . _
 72
    65
 73
     4
 40
0.3001
 49
0.2362
 74
     0
 49
-0.0295
 74
     0
 49
0.0049
 74
     0
 49
-0.0295
 74
     0
  0
LTYPE
  5
81
330
5
100
AcDbSymbolTableRecord
100
AcDbLinetypeTableRecord
  2
LONG_DASH_DOUBLE_DOT
 70
     0
  3
Long Dash Double Dot ____ . . ____ . . ____ . .
 72
    65
 73
     6
 40
0.3345
 49
0.2362
 74
     0
 49
-0.0295
 74
     0
 49
0.0049
 74
     0
 49
-0.0295
 74
     0
 49
0.0049
 74
     0
 49
-0.0295
 74
     0
  0
LTYPE
  5
82
330
5
100
AcDbSymbolTableRecord
100
AcDbLinetypeTableRecord
  2
LONG_DASH_TRIPLE_DOT
 70
     0
  3
Long Dash Triple Dot ____ ... ____ ... ____
 72
    65
 73
     8
 40
0.3689
 49
0.2362
 74
     0
 49
-0.0295
 74
     0
 49
0.0049
 74
     0
 49
-0.0295
 74
     0
 49
0.0049
 74
     0
 49
-0.0295
 74
     0
 49
0.0049
 74
     0
 49
-0.0295
 74
     0
  0
LTYPE
  5
83
330
5
100
AcDbSymbolTableRecord
100
AcDbLinetypeTableRecord
  2
BORDER
 70
     0
  3
Border __ __ . __ __ . __ __ . __ __ . __ __ .
 72
    65
 73
     6
 40
44.45
 49
12.7
 74
     0
 49
-6.349999999999999
 74
     0
 49
12.7
 74
     0
 49
-6.349999999999999
 74
     0
 49
0.0
 74
     0
 49
-6.349999999999999
 74
     0
  0
LTYPE
  5
84
330
5
100
AcDbSymbolTableRecord
100
AcDbLinetypeTableRecord
  2
BORDER2
 70
     0
  3
Border (.5x) __.__.__.__.__.__.__.__.__.__.__.
 72
    65
 73
     6
 40
22.225
 49
6.349999999999999
 74
     0
 49
-3.174999999999999
 74
     0
 49
6.349999999999999
 74
     0
 49
-3.174999999999999
 74
     0
 49
0.0
 74
     0
 49
-3.174999999999999
 74
     0
  0
LTYPE
  5
85
330
5
100
AcDbSymbolTableRecord
100
AcDbLinetypeTableRecord
  2
BORDERX2
 70
     0
  3
Border (2x) ____  ____  .  ____  ____  .  ___
 72
    65
 73
     6
 40
88.9
 49
25.4
 74
     0
 49
-12.7
 74
     0
 49
25.4
 74
     0
 49
-12.7
 74
     0
 49
0.0
 74
     0
 49
-12.7
 74
     0
  0
LTYPE
  5
86
330
5
100
AcDbSymbolTableRecord
100
AcDbLinetypeTableRecord
  2
CENTER
 70
     0
  3
Center ____ _ ____ _ ____ _ ____ _ ____ _ ____
 72
    65
 73
     4
 40
50.8
 49
31.75
 74
     0
 49
-6.349999999999999
 74
     0
 49
6.349999999999999
 74
     0
 49
-6.349999999999999
 74
     0
  0
LTYPE
  5
87
330
5
100
AcDbSymbolTableRecord
100
AcDbLinetypeTableRecord
  2
CENTER2
 70
     0
  3
Center (.5x) ___ _ ___ _ ___ _ ___ _ ___ _ ___
 72
    65
 73
     4
 40
28.575
 49
19.05
 74
     0
 49
-3.174999999999999
 74
     0
 49
3.174999999999999
 74
     0
 49
-3.174999999999999
 74
     0
  0
LTYPE
  5
88
330
5
100
AcDbSymbolTableRecord
100
AcDbLinetypeTableRecord
  2
CENTERX2
 70
     0
  3
Center (2x) ________  __  ________  __  _____
 72
    65
 73
     4
 40
101.6
 49
63.5
 74
     0
 49
-12.7
 74
     0
 49
12.7
 74
     0
 49
-12.7
 74
     0
  0
LTYPE
  5
89
330
5
100
AcDbSymbolTableRecord
100
AcDbLinetypeTableRecord
  2
DASHDOT2
 70
     0
  3
Dash dot (.5x) _._._._._._._._._._._._._._._.
 72
    65
 73
     4
 40
12.7
 49
6.349999999999999
 74
     0
 49
-3.174999999999999
 74
     0
 49
0.0
 74
     0
 49
-3.174999999999999
 74
     0
  0
LTYPE
  5
8A
330
5
100
AcDbSymbolTableRecord
100
AcDbLinetypeTableRecord
  2
DASHDOTX2
 70
     0
  3
Dash dot (2x) ____  .  ____  .  ____  .  ___
 72
    65
 73
     4
 40
50.8
 49
25.4
 74
     0
 49
-12.7
 74
     0
 49
0.0
 74
     0
 49
-12.7
 74
     0
  0
LTYPE
  5
8B
330
5
100
AcDbSymbolTableRecord
100
AcDbLinetypeTableRecord
  2
DASHED2
 70
     0
  3
Dashed (.5x) _ _ _ _ _ _ _ _ _ _ _ _ _ _ _ _ _
 72
    65
 73
     2
 40
9.524999999999998
 49
6.349999999999999
 74
     0
 49
-3.174999999999999
 74
     0
  0
LTYPE
  5
8C
330
5
100
AcDbSymbolTableRecord
100
AcDbLinetypeTableRecord
  2
DASHEDX2
 70
     0
  3
Dashed (2x) ____  ____  ____  ____  ____  ___
 72
    65
 73
     2
 40
38.1
 49
25.4
 74
     0
 49
-12.7
 74
     0
  0
LTYPE
  5
8D
330
5
100
AcDbSymbolTableRecord
100
AcDbLinetypeTableRecord
  2
DIVIDE
 70
     0
  3
Divide ____ . . ____ . . ____ . . ____ . . ____
 72
    65
 73
     6
 40
31.75
 49
12.7
 74
     0
 49
-6.349999999999999
 74
     0
 49
0.0
 74
     0
 49
-6.349999999999999
 74
     0
 49
0.0
 74
     0
 49
-6.349999999999999
 74
     0
  0
LTYPE
  5
8E
330
5
100
AcDbSymbolTableRecord
100
AcDbLinetypeTableRecord
  2
DIVIDE2
 70
     0
  3
Divide (.5x) __..__..__..__..__..__..__..__.._
 72
    65
 73
     6
 40
15.875
 49
6.349999999999999
 74
     0
 49
-3.174999999999999
 74
     0
 49
0.0
 74
     0
 49
-3.174999999999999
 74
     0
 49
0.0
 74
     0
 49
-3.174999999999999
 74
     0
  0
LTYPE
  5
8F
330
5
100
AcDbSymbolTableRecord
100
AcDbLinetypeTableRecord
  2
DIVIDEX2
 70
     0
  3
Divide (2x) ________  .  .  ________  .  .  _
 72
    65
 73
     6
 40
63.49999999999999
 49
25.4
 74
     0
 49
-12.7
 74
     0
 49
0.0
 74
     0
 49
-12.7
 74
     0
 49
0.0
 74
     0
 49
-12.7
 74
     0
  0
LTYPE
  5
90
330
5
100
AcDbSymbolTableRecord
100
AcDbLinetypeTableRecord
  2
DOT
 70
     0
  3
Dot . . . . . . . . . . . . . . . . . . . . . .
 72
    65
 73
     2
 40
6.349999999999999
 49
0.0
 74
     0
 49
-6.349999999999999
 74
     0
  0
LTYPE
  5
91
330
5
100
AcDbSymbolTableRecord
100
AcDbLinetypeTableRecord
  2
DOT2
 70
     0
  3
Dot (.5x) .....................................
 72
    65
 73
     2
 40
3.174999999999999
 49
0.0
 74
     0
 49
-3.174999999999999
 74
     0
  0
LTYPE
  5
92
330
5
100
AcDbSymbolTableRecord
100
AcDbLinetypeTableRecord
  2
DOTX2
 70
     0
  3
Dot (2x) .  .  .  .  .  .  .  .  .  .  .  .  . 
 72
    65
 73
     2
 40
12.7
 49
0.0
 74
     0
 49
-12.7
 74
     0
  0
LTYPE
  5
93
330
5
100
AcDbSymbolTableRecord
100
AcDbLinetypeTableRecord
  2
HIDDEN
 70
     0
  3
Hidden __ __ __ __ __ __ __ __ __ __ __ __ __ _
 72
    65
 73
     2
 40
9.524999999999998
 49
6.349999999999999
 74
     0
 49
-3.174999999999999
 74
     0
  0
LTYPE
  5
94
330
5
100
AcDbSymbolTableRecord
100
AcDbLinetypeTableRecord
  2
HIDDEN2
 70
     0
  3
Hidden (.5x) _ _ _ _ _ _ _ _ _ _ _ _ _ _ _ _ _
 72
    65
 73
     2
 40
4.762499999999999
 49
3.174999999999999
 74
     0
 49
-1.587499999999999
 74
     0
  0
LTYPE
  5
95
330
5
100
AcDbSymbolTableRecord
100
AcDbLinetypeTableRecord
  2
HIDDENX2
 70
     0
  3
Hidden (2x) ____ ____ ____ ____ ____ ____ ____
 72
    65
 73
     2
 40
19.05
 49
12.7
 74
     0
 49
-6.349999999999999
 74
     0
  0
LTYPE
  5
96
330
5
100
AcDbSymbolTableRecord
100
AcDbLinetypeTableRecord
  2
PHANTOM
 70
     0
  3
Phantom ______  __  __  ______  __  __  ______
 72
    65
 73
     6
 40
63.5
 49
31.75
 74
     0
 49
-6.349999999999999
 74
     0
 49
6.349999999999999
 74
     0
 49
-6.349999999999999
 74
     0
 49
6.349999999999999
 74
     0
 49
-6.349999999999999
 74
     0
  0
LTYPE
  5
97
330
5
100
AcDbSymbolTableRecord
100
AcDbLinetypeTableRecord
  2
PHANTOM2
 70
     0
  3
Phantom (.5x) ___ _ _ ___ _ _ ___ _ _ ___ _ _
 72
    65
 73
     6
 40
31.75
 49
15.875
 74
     0
 49
-3.174999999999999
 74
     0
 49
3.174999999999999
 74
     0
 49
-3.174999999999999
 74
     0
 49
3.174999999999999
 74
     0
 49
-3.174999999999999
 74
     0
  0
LTYPE
  5
98
330
5
100
AcDbSymbolTableRecord
100
AcDbLinetypeTableRecord
  2
PHANTOMX2
 70
     0
  3
Phantom (2x) ____________    ____    ____   _
 72
    65
 73
     6
 40
127.0
 49
63.5
 74
     0
 49
-12.7
 74
     0
 49
12.7
 74
     0
 49
-12.7
 74
     0
 49
12.7
 74
     0
 49
-12.7
 74
     0
  0
LTYPE
  5
99
330
5
100
AcDbSymbolTableRecord
100
AcDbLinetypeTableRecord
  2
ACAD_ISO02W100
 70
     0
  3
ISO dash __ __ __ __ __ __ __ __ __ __ __ __ __
 72
    65
 73
     2
 40
15.0
 49
12.0
 74
     0
 49
-3.0
 74
     0
  0
LTYPE
  5
9A
330
5
100
AcDbSymbolTableRecord
100
AcDbLinetypeTableRecord
  2
ACAD_ISO03W100
 70
     0
  3
ISO dash space __    __    __    __    __    __
 72
    65
 73
     2
 40
30.0
 49
12.0
 74
     0
 49
-18.0
 74
     0
  0
LTYPE
  5
9B
330
5
100
AcDbSymbolTableRecord
100
AcDbLinetypeTableRecord
  2
ACAD_ISO04W100
 70
     0
  3
ISO long-dash dot ____ . ____ . ____ . ____ . _
 72
    65
 73
     4
 40
30.0
 49
24.0
 74
     0
 49
-3.0
 74
     0
 49
0.0
 74
     0
 49
-3.0
 74
     0
  0
LTYPE
  5
9C
330
5
100
AcDbSymbolTableRecord
100
AcDbLinetypeTableRecord
  2
ACAD_ISO05W100
 70
     0
  3
ISO long-dash double-dot ____ .. ____ .. ____ .
 72
    65
 73
     6
 40
33.0
 49
24.0
 74
     0
 49
-3.0
 74
     0
 49
0.0
 74
     0
 49
-3.0
 74
     0
 49
0.0
 74
     0
 49
-3.0
 74
     0
  0
LTYPE
  5
9D
330
5
100
AcDbSymbolTableRecord
100
AcDbLinetypeTableRecord
  2
ACAD_ISO06W100
 70
     0
  3
ISO long-dash triple-dot ____ ... ____ ... ____
 72
    65
 73
     8
 40
36.0
 49
24.0
 74
     0
 49
-3.0
 74
     0
 49
0.0
 74
     0
 49
-3.0
 74
     0
 49
0.0
 74
     0
 49
-3.0
 74
     0
 49
0.0
 74
     0
 49
-3.0
 74
     0
  0
LTYPE
  5
9E
330
5
100
AcDbSymbolTableRecord
100
AcDbLinetypeTableRecord
  2
ACAD_ISO07W100
 70
     0
  3
ISO dot . . . . . . . . . . . . . . . . . . . .
 72
    65
 73
     2
 40
3.0
 49
0.0
 74
     0
 49
-3.0
 74
     0
  0
LTYPE
  5
9F
330
5
100
AcDbSymbolTableRecord
100
AcDbLinetypeTableRecord
  2
ACAD_ISO08W100
 70
     0
  3
ISO long-dash short-dash ____ __ ____ __ ____ _
 72
    65
 73
     4
 40
36.0
 49
24.0
 74
     0
 49
-3.0
 74
     0
 49
6.0
 74
     0
 49
-3.0
 74
     0
  0
LTYPE
  5
A0
330
5
100
AcDbSymbolTableRecord
100
AcDbLinetypeTableRecord
  2
ACAD_ISO09W100
 70
     0
  3
ISO long-dash double-short-dash ____ __ __ ____
 72
    65
 73
     6
 40
45.0
 49
24.0
 74
     0
 49
-3.0
 74
     0
 49
6.0
 74
     0
 49
-3.0
 74
     0
 49
6.0
 74
     0
 49
-3.0
 74
     0
  0
LTYPE
  5
A1
330
5
100
AcDbSymbolTableRecord
100
AcDbLinetypeTableRecord
  2
ACAD_ISO10W100
 70
     0
  3
ISO dash dot __ . __ . __ . __ . __ . __ . __ .
 72
    65
 73
     4
 40
18.0
 49
12.0
 74
     0
 49
-3.0
 74
     0
 49
0.0
 74
     0
 49
-3.0
 74
     0
  0
LTYPE
  5
A2
330
5
100
AcDbSymbolTableRecord
100
AcDbLinetypeTableRecord
  2
ACAD_ISO11W100
 70
     0
  3
ISO double-dash dot __ __ . __ __ . __ __ . __ 
 72
    65
 73
     6
 40
33.0
 49
12.0
 74
     0
 49
-3.0
 74
     0
 49
12.0
 74
     0
 49
-3.0
 74
     0
 49
0.0
 74
     0
 49
-3.0
 74
     0
  0
LTYPE
  5
A3
330
5
100
AcDbSymbolTableRecord
100
AcDbLinetypeTableRecord
  2
ACAD_ISO12W100
 70
     0
  3
ISO dash double-dot __ . . __ . . __ . . __ . .
 72
    65
 73
     6
 40
21.0
 49
12.0
 74
     0
 49
-3.0
 74
     0
 49
0.0
 74
     0
 49
-3.0
 74
     0
 49
0.0
 74
     0
 49
-3.0
 74
     0
  0
LTYPE
  5
A4
330
5
100
AcDbSymbolTableRecord
100
AcDbLinetypeTableRecord
  2
ACAD_ISO13W100
 70
     0
  3
ISO double-dash double-dot __ __ . . __ __ . . 
 72
    65
 73
     8
 40
36.0
 49
12.0
 74
     0
 49
-3.0
 74
     0
 49
12.0
 74
     0
 49
-3.0
 74
     0
 49
0.0
 74
     0
 49
-3.0
 74
     0
 49
0.0
 74
     0
 49
-3.0
 74
     0
  0
LTYPE
  5
A5
330
5
100
AcDbSymbolTableRecord
100
AcDbLinetypeTableRecord
  2
ACAD_ISO14W100
 70
     0
  3
ISO dash triple-dot __ . . . __ . . . __ . . . 
 72
    65
 73
     8
 40
24.0
 49
12.0
 74
     0
 49
-3.0
 74
     0
 49
0.0
 74
     0
 49
-3.0
 74
     0
 49
0.0
 74
     0
 49
-3.0
 74
     0
 49
0.0
 74
     0
 49
-3.0
 74
     0
  0
LTYPE
  5
A6
330
5
100
AcDbSymbolTableRecord
100
AcDbLinetypeTableRecord
  2
ACAD_ISO15W100
 70
     0
  3
ISO double-dash triple-dot __ __ . . . __ __ . 
 72
    65
 73
    10
 40
39.0
 49
12.0
 74
     0
 49
-3.0
 74
     0
 49
12.0
 74
     0
 49
-3.0
 74
     0
 49
0.0
 74
     0
 49
-3.0
 74
     0
 49
0.0
 74
     0
 49
-3.0
 74
     0
 49
0.0
 74
     0
 49
-3.0
 74
     0
  0
LTYPE
  5
A9
330
5
100
AcDbSymbolTableRecord
100
AcDbLinetypeTableRecord
  2
FENCELINE1
 70
     0
  3
Fenceline circle ----0-----0----0-----0----0---
 72
    65
 73
     4
 40
36.83
 49
6.349999999999999
 74
     0
 49
-2.54
 74
     4
 75
   133
340
A8
 46
2.54
 50
0.0
 44
-2.54
 45
0.0
 49
-2.54
 74
     0
 49
25.4
 74
     0
  0
LTYPE
  5
AA
330
5
100
AcDbSymbolTableRecord
100
AcDbLinetypeTableRecord
  2
FENCELINE2
 70
     0
  3
Fenceline square ----[]-----[]----[]-----[]----
 72
    65
 73
     4
 40
36.83
 49
6.349999999999999
 74
     0
 49
-2.54
 74
     4
 75
   132
340
A8
 46
2.54
 50
0.0
 44
-2.54
 45
0.0
 49
-2.54
 74
     0
 49
25.4
 74
     0
  0
LTYPE
  5
AB
330
5
100
AcDbSymbolTableRecord
100
AcDbLinetypeTableRecord
  2
TRACKS
 70
     0
  3
Tracks -|-|-|-|-|-|-|-|-|-|-|-|-|-|-|-|-|-|-|-|
 72
    65
 73
     2
 40
7.62
 49
3.81
 74
     4
 75
   130
340
A8
 46
6.349999999999999
 50
0.0
 44
0.0
 45
0.0
 49
3.81
 74
     0
  0
LTYPE
  5
AC
330
5
100
AcDbSymbolTableRecord
100
AcDbLinetypeTableRecord
  2
BATTING
 70
     0
  3
Batting SSSSSSSSSSSSSSSSSSSSSSSSSSSSSSSSSSSSSSS
 72
    65
 73
     4
 40
10.16254
 49
0.00254
 74
     0
 49
-2.54
 74
     4
 75
   134
340
A8
 46
2.54
 50
0.0
 44
-2.54
 45
0.0
 49
-5.08
 74
     4
 75
   134
340
A8
 46
2.54
 50
180.0
 44
2.54
 45
0.0
 49
-2.54
 74
     0
  0
LTYPE
  5
AD
330
5
100
AcDbSymbolTableRecord
100
AcDbLinetypeTableRecord
  2
HOT_WATER_SUPPLY
 70
     0
  3
Hot water supply ---- HW ---- HW ---- HW ----
 72
    65
 73
     3
 40
22.86
 49
12.7
 74
     0
 49
-5.08
 74
     2
 75
     0
340
55
 46
2.54
 50
0.0
 44
-2.54
 45
-1.27
  9
HW
 49
-5.08
 74
     0
  0
LTYPE
  5
AE
330
5
100
AcDbSymbolTableRecord
100
AcDbLinetypeTableRecord
  2
GAS_LINE
 70
     0
  3
Gas line ----GAS----GAS----GAS----GAS----GAS---
 72
    65
 73
     3
 40
24.13
 49
12.7
 74
     0
 49
-5.08
 74
     2
 75
     0
340
55
 46
2.54
 50
0.0
 44
-2.54
 45
-1.27
  9
GAS
 49
-6.349999999999999
 74
     0
  0
LTYPE
  5
AF
330
5
100
AcDbSymbolTableRecord
100
AcDbLinetypeTableRecord
  2
ZIGZAG
 70
     0
  3
Zig zag /\/\/\/\/\/\/\/\/\/\/\/\/\/\/\/\/\/\/\/
 72
    65
 73
     4
 40
20.32254
 49
0.00254
 74
     0
 49
-5.08
 74
     4
 75
   131
340
A8
 46
5.08
 50
0.0
 44
-5.08
 45
0.0
 49
-10.16
 74
     4
 75
   131
340
A8
 46
5.08
 50
180.0
 44
5.08
 45
0.0
 49
-5.08
 74
     0
  0
LTYPE
  5
185
330
5
100
AcDbSymbolTableRecord
100
AcDbLinetypeTableRecord
  2
CONTINUOUS_ACAD
 70
     0
  3

 72
    65
 73
     0
 40
0.0
  0
ENDTAB
  0
TABLE
  2
LAYER
  5
2
330
0
100
AcDbSymbolTable
 70
   215
  0
LAYER
  5
54
330
2
100
AcDbSymbolTableRecord
100
AcDbLayerTableRecord
  2
0
 70
     0
 62
     7
  6
Continuous
370
    -3
390
F
  0
LAYER
  5
FF
330
2
100
AcDbSymbolTableRecord
100
AcDbLayerTableRecord
  2
Dimensions(ISO)
 70
     0
 62
     7
  6
Continuous
370
    25
390
F
  0
LAYER
  5
101
330
2
100
AcDbSymbolTableRecord
100
AcDbLayerTableRecord
  2
Hatch
 70
     0
 62
   179
  6
Continuous
370
     9
390
F
  0
LAYER
  5
133
330
2
100
AcDbSymbolTableRecord
100
AcDbLayerTableRecord
  2
Sketch Geometry(ISO)
 70
     0
 62
     7
  6
Continuous
370
    50
390
F
  0
LAYER
  5
154
330
2
100
AcDbSymbolTableRecord
100
AcDbLayerTableRecord
  2
Symbols(ISO)
 70
     0
 62
     7
  6
Continuous
370
    25
390
F
  0
LAYER
  5
16B
330
2
100
AcDbSymbolTableRecord
100
AcDbLayerTableRecord
  2
Visible Edges(ISO)
 70
     0
 62
     7
  6
Continuous
370
    18
390
F
  0
LAYER
  5
171
330
2
100
AcDbSymbolTableRecord
100
AcDbLayerTableRecord
  2
Visible Tangent Edges(ISO)
 70
     0
 62
     7
  6
Continuous
370
    18
390
F
  0
LAYER
  5
4A9
330
2
100
AcDbSymbolTableRecord
100
AcDbLayerTableRecord
  2
Defpoints
 70
     0
 62
     7
  6
Continuous
290
     0
370
    -3
390
F
  0
ENDTAB
  0
TABLE
  2
STYLE
  5
3
330
0
100
AcDbSymbolTable
 70
    48
  0
STYLE
  5
55
330
3
100
AcDbSymbolTableRecord
100
AcDbTextStyleTableRecord
  2
Standard
 70
     0
 40
0.0
 41
1.0
 50
0.0
 71
     0
 42
0.2
  3
monotxt.shx
  4

  0
STYLE
  5
5A
330
3
100
AcDbSymbolTableRecord
100
AcDbTextStyleTableRecord
  2
Annotative
 70
     0
 40
0.0
 41
1.0
 50
0.0
 71
     0
 42
0.2
  3
txt
  4

1001
AcadAnnotative
1000
AnnotativeData
1002
{
1070
     1
1070
     1
1002
}
  0
STYLE
  5
A8
330
3
100
AcDbSymbolTableRecord
100
AcDbTextStyleTableRecord
  2

 70
     1
 40
0.0
 41
1.0
 50
0.0
 71
     0
 42
0.2
  3
ltypeshp.shx
  4

  0
STYLE
  5
186
330
3
100
AcDbSymbolTableRecord
100
AcDbTextStyleTableRecord
  2
Current-BSI
 70
     0
 40
0.0
 41
1.0
 50
0.0
 71
     0
 42
0.2
  3
ARIAL.TTF
  4

1001
ACAD
1000
Arial
1071
      256
  0
STYLE
  5
187
330
3
100
AcDbSymbolTableRecord
100
AcDbTextStyleTableRecord
  2
Current-ISO
 70
     0
 40
0.0
 41
1.0
 50
0.0
 71
     0
 42
0.2
  3
ARIAL.TTF
  4

1001
ACAD
1000
Arial
1071
      256
  0
STYLE
  5
188
330
3
100
AcDbSymbolTableRecord
100
AcDbTextStyleTableRecord
  2
Current-JIS
 70
     0
 40
0.0
 41
1.0
 50
0.0
 71
     0
 42
0.2
  3
ARIAL.TTF
  4

1001
ACAD
1000
Arial
1071
      256
  0
STYLE
  5
189
330
3
100
AcDbSymbolTableRecord
100
AcDbTextStyleTableRecord
  2
DEFAULT-ANSI
 70
     0
 40
0.0
 41
1.0
 50
0.0
 71
     0
 42
0.2
  3
ARIAL.TTF
  4

1001
ACAD
1000
Arial
1071
      256
  0
STYLE
  5
18A
330
3
100
AcDbSymbolTableRecord
100
AcDbTextStyleTableRecord
  2
DEFAULT-ANSIBigText
 70
     0
 40
0.0
 41
1.0
 50
0.0
 71
     0
 42
0.2
  3
ARIAL.TTF
  4

1001
ACAD
1000
Arial
1071
      256
  0
STYLE
  5
18B
330
3
100
AcDbSymbolTableRecord
100
AcDbTextStyleTableRecord
  2
DEFAULT-ANSIByLayer
 70
     0
 40
0.0
 41
1.0
 50
0.0
 71
     0
 42
0.2
  3
ARIAL.TTF
  4

1001
ACAD
1000
Arial
1071
      256
  0
STYLE
  5
18C
330
3
100
AcDbSymbolTableRecord
100
AcDbTextStyleTableRecord
  2
DEFAULT-BSI
 70
     0
 40
0.0
 41
1.0
 50
0.0
 71
     0
 42
0.2
  3
ARIAL.TTF
  4

1001
ACAD
1000
Arial
1071
      256
  0
STYLE
  5
18D
330
3
100
AcDbSymbolTableRecord
100
AcDbTextStyleTableRecord
  2
DEFAULT-BSIBigText
 70
     0
 40
0.0
 41
1.0
 50
0.0
 71
     0
 42
0.2
  3
ARIAL.TTF
  4

1001
ACAD
1000
Arial
1071
      256
  0
STYLE
  5
18E
330
3
100
AcDbSymbolTableRecord
100
AcDbTextStyleTableRecord
  2
DEFAULT-BSIByLayer
 70
     0
 40
0.0
 41
1.0
 50
0.0
 71
     0
 42
0.2
  3
ARIAL.TTF
  4

1001
ACAD
1000
Arial
1071
      256
  0
STYLE
  5
18F
330
3
100
AcDbSymbolTableRecord
100
AcDbTextStyleTableRecord
  2
DEFAULT-DIN
 70
     0
 40
0.0
 41
1.0
 50
0.0
 71
     0
 42
0.2
  3
ARIAL.TTF
  4

1001
ACAD
1000
Arial
1071
      256
  0
STYLE
  5
190
330
3
100
AcDbSymbolTableRecord
100
AcDbTextStyleTableRecord
  2
DEFAULT-DINBigText
 70
     0
 40
0.0
 41
1.0
 50
0.0
 71
     0
 42
0.2
  3
ARIAL.TTF
  4

1001
ACAD
1000
Arial
1071
      256
  0
STYLE
  5
191
330
3
100
AcDbSymbolTableRecord
100
AcDbTextStyleTableRecord
  2
DEFAULT-DINByLayer
 70
     0
 40
0.0
 41
1.0
 50
0.0
 71
     0
 42
0.2
  3
ARIAL.TTF
  4

1001
ACAD
1000
Arial
1071
      256
  0
STYLE
  5
192
330
3
100
AcDbSymbolTableRecord
100
AcDbTextStyleTableRecord
  2
DEFAULT-GB
 70
     0
 40
0.0
 41
1.0
 50
0.0
 71
     0
 42
0.2
  3
ARIAL.TTF
  4

1001
ACAD
1000
Arial
1071
      256
  0
STYLE
  5
193
330
3
100
AcDbSymbolTableRecord
100
AcDbTextStyleTableRecord
  2
DEFAULT-GBBigText
 70
     0
 40
0.0
 41
1.0
 50
0.0
 71
     0
 42
0.2
  3
ARIAL.TTF
  4

1001
ACAD
1000
Arial
1071
      256
  0
STYLE
  5
194
330
3
100
AcDbSymbolTableRecord
100
AcDbTextStyleTableRecord
  2
DEFAULT-GBByLayer
 70
     0
 40
0.0
 41
1.0
 50
0.0
 71
     0
 42
0.2
  3
ARIAL.TTF
  4

1001
ACAD
1000
Arial
1071
      256
  0
STYLE
  5
195
330
3
100
AcDbSymbolTableRecord
100
AcDbTextStyleTableRecord
  2
DEFAULT-ISO
 70
     0
 40
0.0
 41
1.0
 50
0.0
 71
     0
 42
0.2
  3
ARIAL.TTF
  4

1001
ACAD
1000
Arial
1071
      256
  0
STYLE
  5
196
330
3
100
AcDbSymbolTableRecord
100
AcDbTextStyleTableRecord
  2
DEFAULT-ISOByLayer
 70
     0
 40
0.0
 41
1.0
 50
0.0
 71
     0
 42
0.2
  3
ARIAL.TTF
  4

1001
ACAD
1000
Arial
1071
      256
  0
STYLE
  5
197
330
3
100
AcDbSymbolTableRecord
100
AcDbTextStyleTableRecord
  2
DEFAULT-JIS
 70
     0
 40
0.0
 41
1.0
 50
0.0
 71
     0
 42
0.2
  3
ARIAL.TTF
  4

1001
ACAD
1000
Arial
1071
      256
  0
STYLE
  5
198
330
3
100
AcDbSymbolTableRecord
100
AcDbTextStyleTableRecord
  2
DEFAULT-JISBigText
 70
     0
 40
0.0
 41
1.0
 50
0.0
 71
     0
 42
0.2
  3
ARIAL.TTF
  4

1001
ACAD
1000
Arial
1071
      256
  0
STYLE
  5
199
330
3
100
AcDbSymbolTableRecord
100
AcDbTextStyleTableRecord
  2
DEFAULT-JISByLayer
 70
     0
 40
0.0
 41
1.0
 50
0.0
 71
     0
 42
0.2
  3
ARIAL.TTF
  4

1001
ACAD
1000
Arial
1071
      256
  0
STYLE
  5
19A
330
3
100
AcDbSymbolTableRecord
100
AcDbTextStyleTableRecord
  2
Label Text (ANSI)
 70
     0
 40
0.0
 41
1.0
 50
0.0
 71
     0
 42
0.2
  3
TAHOMA.TTF
  4

1001
ACAD
1000
Tahoma
1071
      256
  0
STYLE
  5
19B
330
3
100
AcDbSymbolTableRecord
100
AcDbTextStyleTableRecord
  2
Label Text (DIN)
 70
     0
 40
0.0
 41
1.0
 50
0.0
 71
     0
 42
0.2
  3
isocpeur.ttf
  4

1001
ACAD
1000
ISOCPEUR
1071
      256
  0
STYLE
  5
19C
330
3
100
AcDbSymbolTableRecord
100
AcDbTextStyleTableRecord
  2
Label Text (ISO)
 70
     0
 40
0.0
 41
1.0
 50
0.0
 71
     0
 42
0.2
  3
TAHOMA.TTF
  4

1001
ACAD
1000
Tahoma
1071
      256
  0
STYLE
  5
19D
330
3
100
AcDbSymbolTableRecord
100
AcDbTextStyleTableRecord
  2
Label Text (JIS)
 70
     0
 40
0.0
 41
1.0
 50
0.0
 71
     0
 42
0.2
  3
TAHOMA.TTF
  4

1001
ACAD
1000
Tahoma
1071
      256
  0
STYLE
  5
19E
330
3
100
AcDbSymbolTableRecord
100
AcDbTextStyleTableRecord
  2
MM-ANSI
 70
     0
 40
0.0
 41
1.0
 50
0.0
 71
     0
 42
0.2
  3
ARIAL.TTF
  4

1001
ACAD
1000
Arial
1071
      256
  0
STYLE
  5
19F
330
3
100
AcDbSymbolTableRecord
100
AcDbTextStyleTableRecord
  2
PANROMAN_51
 70
     0
 40
0.0
 41
1.0
 50
0.0
 71
     0
 42
0.2
  3

  4

  0
STYLE
  5
1A0
330
3
100
AcDbSymbolTableRecord
100
AcDbTextStyleTableRecord
  2
PANROMAN_54
 70
     0
 40
0.0
 41
2.5
 50
0.0
 71
     0
 42
0.2
  3

  4

  0
STYLE
  5
1A1
330
3
100
AcDbSymbolTableRecord
100
AcDbTextStyleTableRecord
  2
ROMANS
 70
     0
 40
0.0
 41
1.0
 50
0.0
 71
     0
 42
0.2
  3
romans.shx
  4

  0
STYLE
  5
1A2
330
3
100
AcDbSymbolTableRecord
100
AcDbTextStyleTableRecord
  2
ROMANSDIMSTYLE
 70
     0
 40
0.0
 41
1.0
 50
0.0
 71
     0
 42
0.2
  3
romans.shx
  4

  0
STYLE
  5
1A3
330
3
100
AcDbSymbolTableRecord
100
AcDbTextStyleTableRecord
  2
STANDARD_33
 70
     0
 40
0.0
 41
0.8000000119209289
 50
0.0
 71
     0
 42
0.2
  3
monotxt.shx
  4

  0
STYLE
  5
1A4
330
3
100
AcDbSymbolTableRecord
100
AcDbTextStyleTableRecord
  2
STANDARD_36
 70
     0
 40
0.0
 41
1.0
 50
0.0
 71
     0
 42
0.2
  3
monotxt.shx
  4

  0
STYLE
  5
1A5
330
3
100
AcDbSymbolTableRecord
100
AcDbTextStyleTableRecord
  2
STANDARD_60
 70
     0
 40
0.0
 41
1.0
 50
0.0
 71
     0
 42
0.2
  3
monotxt.shx
  4

  0
STYLE
  5
1A6
330
3
100
AcDbSymbolTableRecord
100
AcDbTextStyleTableRecord
  2
STANDARD_61
 70
     0
 40
0.0
 41
1.0
 50
0.0
 71
     0
 42
0.2
  3
monotxt.shx
  4

  0
STYLE
  5
1A7
330
3
100
AcDbSymbolTableRecord
100
AcDbTextStyleTableRecord
  2
STANDARDBigText
 70
     0
 40
0.0
 41
1.0
 50
0.0
 71
     0
 42
0.2
  3
monotxt.shx
  4

  0
STYLE
  5
1A8
330
3
100
AcDbSymbolTableRecord
100
AcDbTextStyleTableRecord
  2
STANDARDByLayer
 70
     0
 40
0.0
 41
1.0
 50
0.0
 71
     0
 42
0.2
  3
monotxt.shx
  4

  0
STYLE
  5
1A9
330
3
100
AcDbSymbolTableRecord
100
AcDbTextStyleTableRecord
  2
STANDARDDIA1
 70
     0
 40
0.0
 41
1.0
 50
0.0
 71
     0
 42
0.2
  3
monotxt.shx
  4

  0
STYLE
  5
1AA
330
3
100
AcDbSymbolTableRecord
100
AcDbTextStyleTableRecord
  2
STANDARDDIM0
 70
     0
 40
0.0
 41
1.0
 50
0.0
 71
     0
 42
0.2
  3
monotxt.shx
  4

  0
STYLE
  5
1AB
330
3
100
AcDbSymbolTableRecord
100
AcDbTextStyleTableRecord
  2
STANDARDDIM1
 70
     0
 40
0.0
 41
1.0
 50
0.0
 71
     0
 42
0.2
  3
monotxt.shx
  4

  0
STYLE
  5
1AC
330
3
100
AcDbSymbolTableRecord
100
AcDbTextStyleTableRecord
  2
STANDARDDIM2
 70
     0
 40
0.0
 41
1.0
 50
0.0
 71
     0
 42
0.2
  3
monotxt.shx
  4

  0
STYLE
  5
1AD
330
3
100
AcDbSymbolTableRecord
100
AcDbTextStyleTableRecord
  2
STANDARDSTANDARD
 70
     0
 40
0.0
 41
1.0
 50
0.0
 71
     0
 42
0.2
  3
monotxt.shx
  4

  0
STYLE
  5
1AE
330
3
100
AcDbSymbolTableRecord
100
AcDbTextStyleTableRecord
  2
X.X big gap & text
 70
     0
 40
0.0
 41
1.0
 50
0.0
 71
     0
 42
0.2
  3
ARIAL.TTF
  4

1001
ACAD
1000
Arial
1071
      256
  0
STYLE
  5
456
330
3
100
AcDbSymbolTableRecord
100
AcDbTextStyleTableRecord
  2
Text Style171
 70
     0
 40
0.0
 41
1.0
 50
0.0
 71
     0
 42
0.2
  3
romans.shx
  4

  0
STYLE
  5
45A
330
3
100
AcDbSymbolTableRecord
100
AcDbTextStyleTableRecord
  2
Text Style168
 70
     0
 40
0.0
 41
1.0
 50
0.0
 71
     0
 42
0.2
  3
romans.shx
  4

  0
STYLE
  5
45C
330
3
100
AcDbSymbolTableRecord
100
AcDbTextStyleTableRecord
  2
Text Style169
 70
     0
 40
0.0
 41
1.0
 50
0.0
 71
     0
 42
0.2
  3
romans.shx
  4

  0
STYLE
  5
45E
330
3
100
AcDbSymbolTableRecord
100
AcDbTextStyleTableRecord
  2
Text Style175
 70
     0
 40
0.0
 41
1.0
 50
0.0
 71
     0
 42
0.2
  3
RomanS.shx
  4

  0
ENDTAB
  0
TABLE
  2
VIEW
  5
6
330
0
100
AcDbSymbolTable
 70
     0
  0
ENDTAB
  0
TABLE
  2
UCS
  5
7
330
0
100
AcDbSymbolTable
 70
     0
  0
ENDTAB
  0
TABLE
  2
APPID
  5
9
330
0
100
AcDbSymbolTable
 70
     3
  0
APPID
  5
56
330
9
100
AcDbSymbolTableRecord
100
AcDbRegAppTableRecord
  2
ACAD
 70
     0
  0
APPID
  5
5E
330
9
100
AcDbSymbolTableRecord
100
AcDbRegAppTableRecord
  2
AcadAnnotative
 70
     0
  0
APPID
  5
798
330
9
100
AcDbSymbolTableRecord
100
AcDbRegAppTableRecord
  2
ACAD_MLEADERVER
 70
     0
  0
ENDTAB
  0
TABLE
  2
DIMSTYLE
  5
A
330
0
100
AcDbSymbolTable
 70
    82
100
AcDbDimStyleTable
 71
     2
340
1C6
340
58
  0
DIMSTYLE
105
58
330
A
100
AcDbSymbolTableRecord
100
AcDbDimStyleTableRecord
  2
Standard
 70
     0
 41
2.5
340
55
342
1DD
  0
DIMSTYLE
105
59
330
A
100
AcDbSymbolTableRecord
100
AcDbDimStyleTableRecord
  2
Annotative
 70
     0
340
55
1001
AcadAnnotative
1000
AnnotativeData
1002
{
1070
     1
1070
     1
1002
}
  0
DIMSTYLE
105
1AF
330
A
100
AcDbSymbolTableRecord
100
AcDbDimStyleTableRecord
  2
BSI - Method 2
 70
     0
 41
2.5
 42
0.5
 43
5.999999999999999
 44
2.999999999999999
 45
0.00000001
 46
10.0
 73
     0
 77
     1
 78
     8
 79
     2
140
3.5
143
0.03937
147
0.75
171
     3
172
     1
176
     7
177
     7
178
     7
179
     2
271
     2
272
     2
274
     3
278
    44
284
     8
285
     8
286
     8
340
186
371
    25
372
    25
  0
DIMSTYLE
105
1B0
330
A
100
AcDbSymbolTableRecord
100
AcDbDimStyleTableRecord
  2
BSI - Method 2$7
 70
     0
 41
2.5
 42
0.5
 43
5.999999999999999
 44
2.999999999999999
 45
0.00000001
 46
10.0
 73
     0
 77
     1
 78
     8
 79
     2
140
3.5
143
0.03937
147
0.75
171
     3
172
     1
176
     7
177
     7
178
     7
179
     2
271
     2
272
     2
274
     3
278
    44
284
     8
285
     8
286
     8
340
186
371
    25
372
    25
  0
DIMSTYLE
105
1B1
330
A
100
AcDbSymbolTableRecord
100
AcDbDimStyleTableRecord
  2
BSI - Method 2BigText
 70
     0
 41
5.0
 42
0.5
 43
5.999999999999999
 44
2.999999999999999
 45
0.00000001
 46
10.0
 73
     0
 77
     1
 78
     8
 79
     2
140
5.25
143
0.03937
146
0.6666666666666666
147
0.75
171
     3
172
     1
176
     7
177
     7
178
     7
179
     2
271
     2
272
     2
274
     3
278
    44
284
     8
285
     8
286
     8
340
18D
371
    25
372
    25
  0
DIMSTYLE
105
1B2
330
A
100
AcDbSymbolTableRecord
100
AcDbDimStyleTableRecord
  2
BSI - Method 2BigText$7
 70
     0
 41
5.0
 42
0.5
 43
5.999999999999999
 44
2.999999999999999
 45
0.00000001
 46
10.0
 73
     0
 77
     1
 78
     8
 79
     2
140
5.25
143
0.03937
146
0.6666666666666666
147
0.75
171
     3
172
     1
176
     7
177
     7
178
     7
179
     2
271
     2
272
     2
274
     3
278
    44
284
     8
285
     8
286
     8
340
18D
371
    25
372
    25
  0
DIMSTYLE
105
1C2
330
A
100
AcDbSymbolTableRecord
100
AcDbDimStyleTableRecord
  2
DEFAULT-GB
 70
     0
 41
4.0
 42
0.0
 43
5.999999999999999
 44
5.0
 45
0.00000001
 46
10.0
 73
     0
 74
     0
 77
     1
 78
     8
 79
     2
140
3.5
143
0.03937
147
0.75
171
     3
172
     1
176
     7
177
     7
178
     7
179
     3
271
     2
272
     2
274
     3
275
     1
285
     8
340
186
341
1B3
342
1B3
371
    25
372
    25
  0
DIMSTYLE
105
1C3
330
A
100
AcDbSymbolTableRecord
100
AcDbDimStyleTableRecord
  2
DEFAULT-GB$7
 70
     0
 41
4.0
 42
0.0
 43
5.999999999999999
 44
5.0
 45
0.00000001
 46
10.0
 73
     0
 74
     0
 77
     1
 78
     8
 79
     2
140
3.5
143
0.03937
147
0.75
171
     3
172
     1
176
     7
177
     7
178
     7
179
     3
271
     2
272
     2
274
     3
275
     1
285
     8
340
186
341
1B3
342
1B3
371
    25
372
    25
  0
DIMSTYLE
105
1C4
330
A
100
AcDbSymbolTableRecord
100
AcDbDimStyleTableRecord
  2
DEFAULT-GBBigText
 70
     0
 41
8.0
 42
0.0
 43
5.999999999999999
 44
5.0
 45
0.00000001
 46
10.0
 73
     0
 74
     0
 77
     1
 78
     8
 79
     2
140
5.25
143
0.03937
146
0.6666666666666666
147
0.75
171
     3
172
     1
176
     7
177
     7
178
     7
179
     3
271
     2
272
     2
274
     3
275
     1
285
     8
340
193
341
1B3
342
1B3
371
    25
372
    25
  0
DIMSTYLE
105
1C5
330
A
100
AcDbSymbolTableRecord
100
AcDbDimStyleTableRecord
  2
DEFAULT-GBBigText$7
 70
     0
 41
8.0
 42
0.0
 43
5.999999999999999
 44
5.0
 45
0.00000001
 46
10.0
 73
     0
 74
     0
 77
     1
 78
     8
 79
     2
140
5.25
143
0.03937
146
0.6666666666666666
147
0.75
171
     3
172
     1
176
     7
177
     7
178
     7
179
     3
271
     2
272
     2
274
     3
275
     1
285
     8
340
193
341
1B3
342
1B3
371
    25
372
    25
  0
DIMSTYLE
105
1C6
102
{ACAD_REACTORS
330
4A8
330
58C
330
66E
102
}
330
A
100
AcDbSymbolTableRecord
100
AcDbDimStyleTableRecord
  2
DEFAULT-ISO
 70
     0
 41
2.5
 42
0.0
 43
5.999999999999999
 44
3.174999999999999
 45
0.00000001
 46
10.0
 73
     0
 74
     0
 77
     1
140
3.5
143
0.03937
147
0.762
171
     3
172
     1
176
     7
177
     7
178
     7
179
     2
271
     2
272
     2
274
     3
278
    44
340
186
371
    25
372
    25
  0
DIMSTYLE
105
1C7
330
A
100
AcDbSymbolTableRecord
100
AcDbDimStyleTableRecord
  2
DEFAULT-ISO$7
 70
     0
 41
2.5
 42
0.0
 43
5.999999999999999
 44
3.174999999999999
 45
0.00000001
 46
10.0
 73
     0
 74
     0
 77
     1
140
3.5
143
0.03937
147
0.762
171
     3
172
     1
176
     7
177
     7
178
     7
179
     2
271
     2
272
     2
274
     3
278
    44
340
186
371
    25
372
    25
  0
DIMSTYLE
105
1C8
330
A
100
AcDbSymbolTableRecord
100
AcDbDimStyleTableRecord
  2
DEFAULT-ISOBigText
 70
     0
 41
5.0
 42
0.0
 43
5.999999999999999
 44
3.174999999999999
 45
0.00000001
 46
10.0
 73
     0
 74
     0
 77
     1
140
7.5
143
0.03937
146
0.4666666666666667
147
0.762
171
     3
172
     1
176
     7
177
     7
178
     7
179
     2
271
     2
272
     2
274
     3
278
    44
340
1A7
371
    25
372
    25
  0
DIMSTYLE
105
1C9
330
A
100
AcDbSymbolTableRecord
100
AcDbDimStyleTableRecord
  2
DEFAULT-ISOBigText$7
 70
     0
 41
5.0
 42
0.0
 43
5.999999999999999
 44
3.174999999999999
 45
0.00000001
 46
10.0
 73
     0
 74
     0
 77
     1
140
7.5
143
0.03937
146
0.4666666666666667
147
0.762
171
     3
172
     1
176
     7
177
     7
178
     7
179
     2
271
     2
272
     2
274
     3
278
    44
340
1A7
371
    25
372
    25
  0
DIMSTYLE
105
1CA
330
A
100
AcDbSymbolTableRecord
100
AcDbDimStyleTableRecord
  2
DEFAULT-JIS - Method 2
 70
     0
 41
2.5
 42
0.0
 43
5.999999999999999
 44
3.174999999999999
 45
0.00000001
 46
10.0
 77
     1
 78
     8
 79
     2
140
4.5
143
0.03937
147
0.8
171
     3
172
     1
176
     7
177
     7
178
     7
271
     2
272
     2
274
     3
284
     8
286
     8
340
188
341
1CB
342
1CB
371
    25
372
    25
  0
DIMSTYLE
105
1D1
330
A
100
AcDbSymbolTableRecord
100
AcDbDimStyleTableRecord
  2
DEFAULT-JIS - Method 2$7
 70
     0
 41
2.5
 42
0.0
 43
5.999999999999999
 44
3.174999999999999
 45
0.00000001
 46
10.0
 77
     1
 78
     8
 79
     2
140
4.5
143
0.03937
147
0.8
171
     3
172
     1
176
     7
177
     7
178
     7
271
     2
272
     2
274
     3
284
     8
286
     8
340
188
341
1CB
342
1CB
371
    25
372
    25
  0
DIMSTYLE
105
1D2
330
A
100
AcDbSymbolTableRecord
100
AcDbDimStyleTableRecord
  2
DEFAULT-JIS - Method 2BigText
 70
     0
 41
5.0
 42
0.0
 43
5.999999999999999
 44
3.174999999999999
 45
0.00000001
 46
10.0
 77
     1
 78
     8
 79
     2
140
6.749999523162841
143
0.03937
146
0.666666713761698
147
0.8
171
     3
172
     1
176
     7
177
     7
178
     7
271
     2
272
     2
274
     3
284
     8
286
     8
340
198
341
1CB
342
1CB
371
    25
372
    25
  0
DIMSTYLE
105
1D3
330
A
100
AcDbSymbolTableRecord
100
AcDbDimStyleTableRecord
  2
DEFAULT-JIS - Method 2BigText$7
 70
     0
 41
5.0
 42
0.0
 43
5.999999999999999
 44
3.174999999999999
 45
0.00000001
 46
10.0
 77
     1
 78
     8
 79
     2
140
6.749999523162841
143
0.03937
146
0.666666713761698
147
0.8
171
     3
172
     1
176
     7
177
     7
178
     7
271
     2
272
     2
274
     3
284
     8
286
     8
340
198
341
1CB
342
1CB
371
    25
372
    25
  0
DIMSTYLE
105
1D4
330
A
100
AcDbSymbolTableRecord
100
AcDbDimStyleTableRecord
  2
DIN - Other
 70
     0
 41
2.5
 42
0.0
 43
5.999999999999999
 44
3.174999999999999
 45
0.00000001
 46
10.0
 77
     1
 78
     8
 79
     2
140
3.5
143
0.03937
147
0.8
171
     3
172
     1
176
     7
177
     7
178
     7
271
     2
272
     2
274
     3
278
    44
284
     8
286
     8
340
186
371
    25
372
    25
  0
DIMSTYLE
105
1D5
330
A
100
AcDbSymbolTableRecord
100
AcDbDimStyleTableRecord
  2
DIN - Other$7
 70
     0
 41
2.5
 42
0.0
 43
5.999999999999999
 44
3.174999999999999
 45
0.00000001
 46
10.0
 77
     1
 78
     8
 79
     2
140
3.5
143
0.03937
147
0.8
171
     3
172
     1
176
     7
177
     7
178
     7
271
     2
272
     2
274
     3
278
    44
284
     8
286
     8
340
186
371
    25
372
    25
  0
DIMSTYLE
105
1D6
330
A
100
AcDbSymbolTableRecord
100
AcDbDimStyleTableRecord
  2
DIN - OtherBigText
 70
     0
 41
5.0
 42
0.0
 43
5.999999999999999
 44
3.174999999999999
 45
0.00000001
 46
10.0
 77
     1
 78
     8
 79
     2
140
5.25
143
0.03937
146
0.6666666666666666
147
0.8
171
     3
172
     1
176
     7
177
     7
178
     7
271
     2
272
     2
274
     3
278
    44
284
     8
286
     8
340
190
371
    25
372
    25
  0
DIMSTYLE
105
1D7
330
A
100
AcDbSymbolTableRecord
100
AcDbDimStyleTableRecord
  2
DIN - OtherBigText$7
 70
     0
 41
5.0
 42
0.0
 43
5.999999999999999
 44
3.174999999999999
 45
0.00000001
 46
10.0
 77
     1
 78
     8
 79
     2
140
5.25
143
0.03937
146
0.6666666666666666
147
0.8
171
     3
172
     1
176
     7
177
     7
178
     7
271
     2
272
     2
274
     3
278
    44
284
     8
286
     8
340
190
371
    25
372
    25
  0
DIMSTYLE
105
1D8
330
A
100
AcDbSymbolTableRecord
100
AcDbDimStyleTableRecord
  2
X . XXX in [mm]
 70
     0
  4
 mm
 41
2.5
 42
2.387599999999999
 43
6.349999999999999
 44
3.174999999999999
 45
0.00000001
 46
10.0
 73
     0
 78
     4
 79
     1
140
3.04800009727478
144
0.0393700787401575
147
1.600199999999999
170
     1
176
     7
177
     7
178
     7
179
     1
271
     3
272
     2
284
     4
285
     8
286
     4
340
19E
371
    25
372
    25
  0
DIMSTYLE
105
1D9
330
A
100
AcDbSymbolTableRecord
100
AcDbDimStyleTableRecord
  2
X . XXX in [mm]$7
 70
     0
  4
 mm
 41
2.5
 42
2.387599999999999
 43
6.349999999999999
 44
3.174999999999999
 45
0.00000001
 46
10.0
 73
     0
 78
     4
 79
     1
140
3.04800009727478
144
0.0393700787401575
147
1.600199999999999
170
     1
176
     7
177
     7
178
     7
179
     1
271
     3
272
     2
284
     4
285
     8
286
     4
340
19E
371
    25
372
    25
  0
DIMSTYLE
105
1DA
330
A
100
AcDbSymbolTableRecord
100
AcDbDimStyleTableRecord
  2
X . XXX in [mm]BigText
 70
     0
  4
 mm
 41
5.0
 42
2.387599999999999
 43
6.349999999999999
 44
3.174999999999999
 45
0.00000001
 46
10.0
 73
     0
 78
     4
 79
     1
140
4.57200002670288
144
0.0393700787401575
146
0.6666666840491819
147
1.600199999999999
170
     1
176
     7
177
     7
178
     7
179
     1
271
     3
272
     2
284
     4
285
     8
286
     4
340
18A
371
    25
372
    25
  0
DIMSTYLE
105
1DB
330
A
100
AcDbSymbolTableRecord
100
AcDbDimStyleTableRecord
  2
X . XXX in [mm]BigText$7
 70
     0
  4
 mm
 41
5.0
 42
2.387599999999999
 43
6.349999999999999
 44
3.174999999999999
 45
0.00000001
 46
10.0
 73
     0
 78
     4
 79
     1
140
4.57200002670288
144
0.0393700787401575
146
0.6666666840491819
147
1.600199999999999
170
     1
176
     7
177
     7
178
     7
179
     1
271
     3
272
     2
284
     4
285
     8
286
     4
340
18A
371
    25
372
    25
  0
DIMSTYLE
105
1DC
330
A
100
AcDbSymbolTableRecord
100
AcDbDimStyleTableRecord
  2
1_32 - FRACTION
 70
     0
 41
2.5
340
55
342
1DD
  0
DIMSTYLE
105
1E4
330
A
100
AcDbSymbolTableRecord
100
AcDbDimStyleTableRecord
  2
1_64 - FRACTION
 70
     0
 41
2.5
340
55
342
1DD
  0
DIMSTYLE
105
1E5
330
A
100
AcDbSymbolTableRecord
100
AcDbDimStyleTableRecord
  2
ANSI - ALIGNED
 70
     0
 41
2.5
340
55
342
1DD
  0
DIMSTYLE
105
1E6
330
A
100
AcDbSymbolTableRecord
100
AcDbDimStyleTableRecord
  2
ANSI FRACTION - ALIGNED
 70
     0
 41
2.5
340
55
342
1DD
  0
DIMSTYLE
105
1E7
330
A
100
AcDbSymbolTableRecord
100
AcDbDimStyleTableRecord
  2
DEFAULT-ANSI
 70
     0
 41
2.5
340
55
342
1DD
  0
DIMSTYLE
105
1E8
330
A
100
AcDbSymbolTableRecord
100
AcDbDimStyleTableRecord
  2
DEFAULT-ANSI FRACTION
 70
     0
 41
2.5
340
55
342
1DD
  0
DIMSTYLE
105
1E9
330
A
100
AcDbSymbolTableRecord
100
AcDbDimStyleTableRecord
  2
DEFAULT-BSI
 70
     0
 41
2.5
340
55
342
1DD
  0
DIMSTYLE
105
1EA
330
A
100
AcDbSymbolTableRecord
100
AcDbDimStyleTableRecord
  2
DEFAULT-DIN
 70
     0
 41
2.5
340
55
342
1DD
  0
DIMSTYLE
105
1EB
330
A
100
AcDbSymbolTableRecord
100
AcDbDimStyleTableRecord
  2
DEFAULT-DIN - Method 2a
 70
     0
 41
2.5
340
55
342
1DD
  0
DIMSTYLE
105
1EC
330
A
100
AcDbSymbolTableRecord
100
AcDbDimStyleTableRecord
  2
DEFAULT-DIN - Method 2b
 70
     0
 41
2.5
340
55
342
1DD
  0
DIMSTYLE
105
1ED
330
A
100
AcDbSymbolTableRecord
100
AcDbDimStyleTableRecord
  2
DEFAULT-ISO-Method 1b
 70
     0
 41
2.5
340
55
342
1DD
  0
DIMSTYLE
105
1EE
330
A
100
AcDbSymbolTableRecord
100
AcDbDimStyleTableRecord
  2
DEFAULT-ISO-Method 2a
 70
     0
 41
2.5
340
55
342
1DD
  0
DIMSTYLE
105
1EF
330
A
100
AcDbSymbolTableRecord
100
AcDbDimStyleTableRecord
  2
DEFAULT-ISO-Method 2b
 70
     0
 41
2.5
340
55
342
1DD
  0
DIMSTYLE
105
1F0
330
A
100
AcDbSymbolTableRecord
100
AcDbDimStyleTableRecord
  2
DEFAULT-JIS
 70
     0
 41
2.5
340
55
342
1DD
  0
DIMSTYLE
105
1F1
330
A
100
AcDbSymbolTableRecord
100
AcDbDimStyleTableRecord
  2
DEFAULT-JIS - Method 1b
 70
     0
 41
2.5
340
55
342
1DD
  0
DIMSTYLE
105
1F2
330
A
100
AcDbSymbolTableRecord
100
AcDbDimStyleTableRecord
  2
DIA1
 70
     0
 41
2.5
340
55
342
1DD
  0
DIMSTYLE
105
1F3
330
A
100
AcDbSymbolTableRecord
100
AcDbDimStyleTableRecord
  2
DIM0
 70
     0
 41
2.5
340
55
342
1DD
  0
DIMSTYLE
105
1F4
330
A
100
AcDbSymbolTableRecord
100
AcDbDimStyleTableRecord
  2
DIM1
 70
     0
 41
2.5
340
55
342
1DD
  0
DIMSTYLE
105
1F5
330
A
100
AcDbSymbolTableRecord
100
AcDbDimStyleTableRecord
  2
DIM2
 70
     0
 41
2.5
340
55
342
1DD
  0
DIMSTYLE
105
1F6
330
A
100
AcDbSymbolTableRecord
100
AcDbDimStyleTableRecord
  2
DIMSTYLE
 70
     0
 41
2.5
340
55
342
1DD
  0
DIMSTYLE
105
201
330
A
100
AcDbSymbolTableRecord
100
AcDbDimStyleTableRecord
  2
Leader-Datum(ANSI)
 70
     0
 41
2.5
340
55
342
1DD
  0
DIMSTYLE
105
202
330
A
100
AcDbSymbolTableRecord
100
AcDbDimStyleTableRecord
  2
Leader-Datum(BSI)
 70
     0
 41
2.5
340
55
342
1DD
  0
DIMSTYLE
105
203
330
A
100
AcDbSymbolTableRecord
100
AcDbDimStyleTableRecord
  2
Leader-Datum(DIN)
 70
     0
 41
2.5
340
55
342
1DD
  0
DIMSTYLE
105
225
330
A
100
AcDbSymbolTableRecord
100
AcDbDimStyleTableRecord
  2
Leader-Datum(GB)
 70
     0
 41
4.0
340
55
342
1DD
  0
DIMSTYLE
105
226
330
A
100
AcDbSymbolTableRecord
100
AcDbDimStyleTableRecord
  2
Leader-Datum(ISO)
 70
     0
 41
2.5
340
55
342
1DD
  0
DIMSTYLE
105
227
330
A
100
AcDbSymbolTableRecord
100
AcDbDimStyleTableRecord
  2
Leader-Datum(JIS)
 70
     0
 41
2.5
340
55
342
1DD
  0
DIMSTYLE
105
228
330
A
100
AcDbSymbolTableRecord
100
AcDbDimStyleTableRecord
  2
Leader-Dot(ANSI)
 70
     0
 41
2.5
340
55
342
1DD
  0
DIMSTYLE
105
229
330
A
100
AcDbSymbolTableRecord
100
AcDbDimStyleTableRecord
  2
Leader-Dot(BSI)
 70
     0
 41
2.5
340
55
342
1DD
  0
DIMSTYLE
105
22A
330
A
100
AcDbSymbolTableRecord
100
AcDbDimStyleTableRecord
  2
Leader-Dot(DIN)
 70
     0
 41
2.5
340
55
342
1DD
  0
DIMSTYLE
105
22B
330
A
100
AcDbSymbolTableRecord
100
AcDbDimStyleTableRecord
  2
Leader-Dot(GB)
 70
     0
 41
4.0
340
55
342
1DD
  0
DIMSTYLE
105
22C
330
A
100
AcDbSymbolTableRecord
100
AcDbDimStyleTableRecord
  2
Leader-Dot(ISO)
 70
     0
 41
2.5
340
55
342
1DD
  0
DIMSTYLE
105
22D
330
A
100
AcDbSymbolTableRecord
100
AcDbDimStyleTableRecord
  2
Leader-Dot(JIS)
 70
     0
 41
2.5
340
55
342
1DD
  0
DIMSTYLE
105
22E
330
A
100
AcDbSymbolTableRecord
100
AcDbDimStyleTableRecord
  2
Leader-OriginIndicator(ANSI)
 70
     0
 41
2.5
340
55
342
1DD
  0
DIMSTYLE
105
22F
330
A
100
AcDbSymbolTableRecord
100
AcDbDimStyleTableRecord
  2
Leader-OriginIndicator(BSI)
 70
     0
 41
2.5
340
55
342
1DD
  0
DIMSTYLE
105
230
330
A
100
AcDbSymbolTableRecord
100
AcDbDimStyleTableRecord
  2
Leader-OriginIndicator(DIN)
 70
     0
 41
2.5
340
55
342
1DD
  0
DIMSTYLE
105
231
330
A
100
AcDbSymbolTableRecord
100
AcDbDimStyleTableRecord
  2
Leader-OriginIndicator(GB)
 70
     0
 41
4.0
340
55
342
1DD
  0
DIMSTYLE
105
232
330
A
100
AcDbSymbolTableRecord
100
AcDbDimStyleTableRecord
  2
Leader-OriginIndicator(ISO)
 70
     0
 41
2.5
340
55
342
1DD
  0
DIMSTYLE
105
233
330
A
100
AcDbSymbolTableRecord
100
AcDbDimStyleTableRecord
  2
Leader-OriginIndicator(JIS)
 70
     0
 41
2.5
340
55
342
1DD
  0
DIMSTYLE
105
234
330
A
100
AcDbSymbolTableRecord
100
AcDbDimStyleTableRecord
  2
Leader(ANSI)
 70
     0
 41
2.5
340
55
342
1DD
  0
DIMSTYLE
105
235
330
A
100
AcDbSymbolTableRecord
100
AcDbDimStyleTableRecord
  2
Leader(BSI)
 70
     0
 41
2.5
340
55
342
1DD
  0
DIMSTYLE
105
236
330
A
100
AcDbSymbolTableRecord
100
AcDbDimStyleTableRecord
  2
Leader(DIN)
 70
     0
 41
2.5
340
55
342
1DD
  0
DIMSTYLE
105
237
330
A
100
AcDbSymbolTableRecord
100
AcDbDimStyleTableRecord
  2
Leader(GB)
 70
     0
 41
4.0
340
55
342
1DD
  0
DIMSTYLE
105
238
330
A
100
AcDbSymbolTableRecord
100
AcDbDimStyleTableRecord
  2
Leader(ISO)
 70
     0
 41
2.5
340
55
342
1DD
  0
DIMSTYLE
105
239
330
A
100
AcDbSymbolTableRecord
100
AcDbDimStyleTableRecord
  2
Leader(JIS)
 70
     0
 41
2.5
340
55
342
1DD
  0
DIMSTYLE
105
23A
330
A
100
AcDbSymbolTableRecord
100
AcDbDimStyleTableRecord
  2
MM-ANSI
 70
     0
 41
2.5
340
55
342
1DD
  0
DIMSTYLE
105
23B
330
A
100
AcDbSymbolTableRecord
100
AcDbDimStyleTableRecord
  2
X . XX mm [in]
 70
     0
 41
2.5
340
55
342
1DD
  0
DIMSTYLE
105
23C
330
A
100
AcDbSymbolTableRecord
100
AcDbDimStyleTableRecord
  2
X . XXX
 70
     0
 41
2.5
340
55
342
1DD
  0
DIMSTYLE
105
23D
330
A
100
AcDbSymbolTableRecord
100
AcDbDimStyleTableRecord
  2
X . XXX - Deviation Tol
 70
     0
 41
2.5
340
55
342
1DD
  0
DIMSTYLE
105
23E
330
A
100
AcDbSymbolTableRecord
100
AcDbDimStyleTableRecord
  2
X . XXX - Limits Stacked
 70
     0
 41
2.5
340
55
342
1DD
  0
DIMSTYLE
105
23F
330
A
100
AcDbSymbolTableRecord
100
AcDbDimStyleTableRecord
  2
X.X big gap & text
 70
     0
 41
2.5
340
55
342
1DD
  0
DIMSTYLE
105
240
330
A
100
AcDbSymbolTableRecord
100
AcDbDimStyleTableRecord
  2
X.XXX
 70
     0
 41
2.5
340
55
342
1DD
  0
DIMSTYLE
105
241
330
A
100
AcDbSymbolTableRecord
100
AcDbDimStyleTableRecord
  2
X.XXX +_- tolerance
 70
     0
 41
2.5
340
55
342
1DD
  0
DIMSTYLE
105
242
330
A
100
AcDbSymbolTableRecord
100
AcDbDimStyleTableRecord
  2
X.XXX +tolerance_-tolerance
 70
     0
 41
2.5
340
55
342
1DD
  0
DIMSTYLE
105
243
330
A
100
AcDbSymbolTableRecord
100
AcDbDimStyleTableRecord
  2
X.XXX mm[inch]
 70
     0
 41
2.5
340
55
342
1DD
  0
DIMSTYLE
105
244
330
A
100
AcDbSymbolTableRecord
100
AcDbDimStyleTableRecord
  2
X.XXX radial
 70
     0
 41
2.5
340
55
342
1DD
  0
DIMSTYLE
105
245
330
A
100
AcDbSymbolTableRecord
100
AcDbDimStyleTableRecord
  2
X.XXX small tolerance
 70
     0
 41
2.5
340
55
342
1DD
  0
ENDTAB
  0
TABLE
  2
BLOCK_RECORD
  5
1
330
0
100
AcDbSymbolTable
 70
    10
  0
BLOCK_RECORD
  5
6C
330
1
100
AcDbSymbolTableRecord
100
AcDbBlockTableRecord
  2
*Model_Space
340
6F
  0
BLOCK_RECORD
  5
68
330
1
100
AcDbSymbolTableRecord
100
AcDbBlockTableRecord
  2
*Paper_Space
340
6B
  0
BLOCK_RECORD
  5
70
330
1
100
AcDbSymbolTableRecord
100
AcDbBlockTableRecord
  2
*Paper_Space0
340
73
  0
BLOCK_RECORD
  5
1B3
330
1
100
AcDbSymbolTableRecord
100
AcDbBlockTableRecord
  2
Filled-1
340
0
  0
BLOCK_RECORD
  5
1CB
330
1
100
AcDbSymbolTableRecord
100
AcDbBlockTableRecord
  2
_Open
340
0
  0
BLOCK_RECORD
  5
1DD
330
1
100
AcDbSymbolTableRecord
100
AcDbBlockTableRecord
  2
_Closed
340
0
  0
BLOCK_RECORD
  5
1F7
330
1
100
AcDbSymbolTableRecord
100
AcDbBlockTableRecord
  2
DatumFilled45
340
0
  0
BLOCK_RECORD
  5
204
330
1
100
AcDbSymbolTableRecord
100
AcDbBlockTableRecord
  2
DatumThickLine
340
0
  0
BLOCK_RECORD
  5
246
330
1
100
AcDbSymbolTableRecord
100
AcDbBlockTableRecord
  2
Borders PCH WEB A4
340
0
102
{BLKREFS
331
464
102
}
  0
BLOCK_RECORD
  5
4AA
330
1
100
AcDbSymbolTableRecord
100
AcDbBlockTableRecord
  2
*D7
340
0
  0
BLOCK_RECORD
  5
58D
330
1
100
AcDbSymbolTableRecord
100
AcDbBlockTableRecord
  2
*D8
340
0
  0
BLOCK_RECORD
  5
66F
330
1
100
AcDbSymbolTableRecord
100
AcDbBlockTableRecord
  2
*D9
340
0
  0
ENDTAB
  0
ENDSEC
  0
SECTION
  2
BLOCKS
  0
BLOCK
  5
6D
330
6C
100
AcDbEntity
  8
0
100
AcDbBlockBegin
  2
*Model_Space
 70
     0
 10
0.0
 20
0.0
 30
0.0
  3
*Model_Space
  1

  0
ENDBLK
  5
6E
330
6C
100
AcDbEntity
  8
0
100
AcDbBlockEnd
  0
BLOCK
  5
69
330
68
100
AcDbEntity
 67
     1
  8
0
100
AcDbBlockBegin
  2
*Paper_Space
 70
     0
 10
0.0
 20
0.0
 30
0.0
  3
*Paper_Space
  1

  0
ENDBLK
  5
6A
330
68
100
AcDbEntity
 67
     1
  8
0
100
AcDbBlockEnd
  0
BLOCK
  5
71
330
70
100
AcDbEntity
 67
     1
  8
0
100
AcDbBlockBegin
  2
*Paper_Space0
 70
     0
 10
0.0
 20
0.0
 30
0.0
  3
*Paper_Space0
  1

  0
ENDBLK
  5
72
330
70
100
AcDbEntity
 67
     1
  8
0
100
AcDbBlockEnd
  0
BLOCK
  5
1B4
330
1B3
100
AcDbEntity
  8
0
100
AcDbBlockBegin
  2
Filled-1
 70
     0
 10
0.0
 20
0.0
 30
0.0
  3
Filled-1
  1

  0
LINE
  5
1B6
330
1B3
100
AcDbEntity
  8
0
 62
     0
100
AcDbLine
 10
-1.0
 20
0.0
 30
0.0
 11
0.0
 21
0.0
 31
0.0
  0
POLYLINE
  5
1B8
330
1B3
100
AcDbEntity
  8
0
 62
     0
100
AcDb2dPolyline
 66
     1
 10
0.0
 20
0.0
 30
0.0
 70
   128
  0
VERTEX
  5
1B9
330
1B8
100
AcDbEntity
  8
0
 62
     0
100
AcDbVertex
100
AcDb2dVertex
 10
-1.0
 20
-0.125
 30
0.0
  0
VERTEX
  5
1BA
330
1B8
100
AcDbEntity
  8
0
 62
     0
100
AcDbVertex
100
AcDb2dVertex
 10
0.0
 20
0.0
 30
0.0
  0
VERTEX
  5
1BC
330
1B8
100
AcDbEntity
  8
0
 62
     0
100
AcDbVertex
100
AcDb2dVertex
 10
-1.0
 20
0.125
 30
0.0
  0
VERTEX
  5
1BD
330
1B8
100
AcDbEntity
  8
0
 62
     0
100
AcDbVertex
100
AcDb2dVertex
 10
-1.0
 20
-0.125
 30
0.0
  0
SEQEND
  5
1BB
330
1B8
100
AcDbEntity
  8
0
 62
     0
  0
SOLID
  5
1BE
330
1B3
100
AcDbEntity
  8
0
 62
     0
100
AcDbTrace
 10
-1.0
 20
-0.125
 30
0.0
 11
0.0
 21
0.0
 31
0.0
 12
-1.0
 22
0.125
 32
0.0
 13
-1.0
 23
-0.125
 33
0.0
  0
LINE
  5
1BF
330
1B3
100
AcDbEntity
  8
0
 62
     0
100
AcDbLine
 10
-1.0
 20
-0.125
 30
0.0
 11
0.0
 21
0.0
 31
0.0
  0
LINE
  5
1C0
330
1B3
100
AcDbEntity
  8
0
 62
     0
100
AcDbLine
 10
0.0
 20
0.0
 30
0.0
 11
-1.0
 21
0.125
 31
0.0
  0
LINE
  5
1C1
330
1B3
100
AcDbEntity
  8
0
 62
     0
100
AcDbLine
 10
-1.0
 20
0.125
 30
0.0
 11
-1.0
 21
-0.125
 31
0.0
  0
ENDBLK
  5
1B5
330
1B3
100
AcDbEntity
  8
0
100
AcDbBlockEnd
  0
BLOCK
  5
1CF
330
1CB
100
AcDbEntity
  8
0
100
AcDbBlockBegin
  2
_Open
 70
     0
 10
0.0
 20
0.0
 30
0.0
  3
_Open
  1

  0
LINE
  5
1CC
330
1CB
100
AcDbEntity
  8
0
  6
ByBlock
 62
     0
370
    -2
100
AcDbLine
 10
-1.0
 20
0.1666666666666666
 30
0.0
 11
0.0
 21
0.0
 31
0.0
  0
LINE
  5
1CD
330
1CB
100
AcDbEntity
  8
0
  6
ByBlock
 62
     0
370
    -2
100
AcDbLine
 10
-1.0
 20
-0.1666666666666666
 30
0.0
 11
0.0
 21
0.0
 31
0.0
  0
LINE
  5
1CE
330
1CB
100
AcDbEntity
  8
0
  6
ByBlock
 62
     0
370
    -2
100
AcDbLine
 10
0.0
 20
0.0
 30
0.0
 11
-1.0
 21
0.0
 31
0.0
  0
ENDBLK
  5
1D0
330
1CB
100
AcDbEntity
  8
0
100
AcDbBlockEnd
  0
BLOCK
  5
1E2
330
1DD
100
AcDbEntity
  8
0
100
AcDbBlockBegin
  2
_Closed
 70
     0
 10
0.0
 20
0.0
 30
0.0
  3
_Closed
  1

  0
LINE
  5
1DE
330
1DD
100
AcDbEntity
  8
0
  6
ByBlock
 62
     0
370
    -2
100
AcDbLine
 10
-1.0
 20
0.1666666666666666
 30
0.0
 11
0.0
 21
0.0
 31
0.0
  0
LINE
  5
1DF
330
1DD
100
AcDbEntity
  8
0
  6
ByBlock
 62
     0
370
    -2
100
AcDbLine
 10
0.0
 20
0.0
 30
0.0
 11
-1.0
 21
-0.1666666666666666
 31
0.0
  0
LINE
  5
1E0
330
1DD
100
AcDbEntity
  8
0
  6
ByBlock
 62
     0
370
    -2
100
AcDbLine
 10
-1.0
 20
0.1666666666666666
 30
0.0
 11
-1.0
 21
-0.1666666666666666
 31
0.0
  0
LINE
  5
1E1
330
1DD
100
AcDbEntity
  8
0
  6
ByBlock
 62
     0
370
    -2
100
AcDbLine
 10
0.0
 20
0.0
 30
0.0
 11
-1.0
 21
0.0
 31
0.0
  0
ENDBLK
  5
1E3
330
1DD
100
AcDbEntity
  8
0
100
AcDbBlockEnd
  0
BLOCK
  5
1F8
330
1F7
100
AcDbEntity
  8
0
100
AcDbBlockBegin
  2
DatumFilled45
 70
     0
 10
0.0
 20
0.0
 30
0.0
  3
DatumFilled45
  1

  0
POLYLINE
  5
1FA
330
1F7
100
AcDbEntity
  8
0
 62
     0
100
AcDb2dPolyline
 66
     1
 10
0.0
 20
0.0
 30
0.0
 70
   128
  0
VERTEX
  5
1FB
330
1FA
100
AcDbEntity
  8
0
 62
     0
100
AcDbVertex
100
AcDb2dVertex
 10
0.0
 20
1.0
 30
0.0
  0
VERTEX
  5
1FC
330
1FA
100
AcDbEntity
  8
0
 62
     0
100
AcDbVertex
100
AcDb2dVertex
 10
0.0
 20
-1.0
 30
0.0
  0
VERTEX
  5
1FE
330
1FA
100
AcDbEntity
  8
0
 62
     0
100
AcDbVertex
100
AcDb2dVertex
 10
-1.0
 20
0.0
 30
0.0
  0
VERTEX
  5
1FF
330
1FA
100
AcDbEntity
  8
0
 62
     0
100
AcDbVertex
100
AcDb2dVertex
 10
0.0
 20
1.0
 30
0.0
  0
SEQEND
  5
1FD
330
1FA
100
AcDbEntity
  8
0
 62
     0
  0
SOLID
  5
200
330
1F7
100
AcDbEntity
  8
0
 62
     0
100
AcDbTrace
 10
0.0
 20
1.0
 30
0.0
 11
0.0
 21
-1.0
 31
0.0
 12
-1.0
 22
0.0
 32
0.0
 13
0.0
 23
1.0
 33
0.0
  0
ENDBLK
  5
1F9
330
1F7
100
AcDbEntity
  8
0
100
AcDbBlockEnd
  0
BLOCK
  5
205
330
204
100
AcDbEntity
  8
0
100
AcDbBlockBegin
  2
DatumThickLine
 70
     0
 10
0.0
 20
0.0
 30
0.0
  3
DatumThickLine
  1

  0
POLYLINE
  5
207
330
204
100
AcDbEntity
  8
0
 62
     0
100
AcDb2dPolyline
 66
     1
 10
0.0
 20
0.0
 30
0.0
 70
   128
  0
VERTEX
  5
208
330
207
100
AcDbEntity
  8
0
 62
     0
100
AcDbVertex
100
AcDb2dVertex
 10
-0.25
 20
1.0
 30
0.0
  0
VERTEX
  5
209
330
207
100
AcDbEntity
  8
0
 62
     0
100
AcDbVertex
100
AcDb2dVertex
 10
-0.25
 20
-1.0
 30
0.0
  0
VERTEX
  5
20B
330
207
100
AcDbEntity
  8
0
 62
     0
100
AcDbVertex
100
AcDb2dVertex
 10
-0.5
 20
-1.0
 30
0.0
  0
VERTEX
  5
20C
330
207
100
AcDbEntity
  8
0
 62
     0
100
AcDbVertex
100
AcDb2dVertex
 10
-0.25
 20
1.0
 30
0.0
  0
SEQEND
  5
20A
330
207
100
AcDbEntity
  8
0
 62
     0
  0
SOLID
  5
20D
330
204
100
AcDbEntity
  8
0
 62
     0
100
AcDbTrace
 10
-0.25
 20
1.0
 30
0.0
 11
-0.25
 21
-1.0
 31
0.0
 12
-0.5
 22
-1.0
 32
0.0
 13
-0.25
 23
1.0
 33
0.0
  0
POLYLINE
  5
20E
330
204
100
AcDbEntity
  8
0
 62
     0
100
AcDb2dPolyline
 66
     1
 10
0.0
 20
0.0
 30
0.0
 70
   128
  0
VERTEX
  5
20F
330
20E
100
AcDbEntity
  8
0
 62
     0
100
AcDbVertex
100
AcDb2dVertex
 10
-0.25
 20
1.0
 30
0.0
  0
VERTEX
  5
210
330
20E
100
AcDbEntity
  8
0
 62
     0
100
AcDbVertex
100
AcDb2dVertex
 10
-0.5
 20
-1.0
 30
0.0
  0
VERTEX
  5
212
330
20E
100
AcDbEntity
  8
0
 62
     0
100
AcDbVertex
100
AcDb2dVertex
 10
-0.5
 20
-1.0
 30
0.0
  0
VERTEX
  5
213
330
20E
100
AcDbEntity
  8
0
 62
     0
100
AcDbVertex
100
AcDb2dVertex
 10
-0.25
 20
1.0
 30
0.0
  0
SEQEND
  5
211
330
20E
100
AcDbEntity
  8
0
 62
     0
  0
SOLID
  5
214
330
204
100
AcDbEntity
  8
0
 62
     0
100
AcDbTrace
 10
-0.25
 20
1.0
 30
0.0
 11
-0.5
 21
-1.0
 31
0.0
 12
-0.5
 22
-1.0
 32
0.0
 13
-0.25
 23
1.0
 33
0.0
  0
POLYLINE
  5
215
330
204
100
AcDbEntity
  8
0
 62
     0
100
AcDb2dPolyline
 66
     1
 10
0.0
 20
0.0
 30
0.0
 70
   128
  0
VERTEX
  5
216
330
215
100
AcDbEntity
  8
0
 62
     0
100
AcDbVertex
100
AcDb2dVertex
 10
-0.25
 20
1.0
 30
0.0
  0
VERTEX
  5
217
330
215
100
AcDbEntity
  8
0
 62
     0
100
AcDbVertex
100
AcDb2dVertex
 10
-0.5
 20
-1.0
 30
0.0
  0
VERTEX
  5
219
330
215
100
AcDbEntity
  8
0
 62
     0
100
AcDbVertex
100
AcDb2dVertex
 10
-0.5
 20
1.0
 30
0.0
  0
VERTEX
  5
21A
330
215
100
AcDbEntity
  8
0
 62
     0
100
AcDbVertex
100
AcDb2dVertex
 10
-0.25
 20
1.0
 30
0.0
  0
SEQEND
  5
218
330
215
100
AcDbEntity
  8
0
 62
     0
  0
SOLID
  5
21B
330
204
100
AcDbEntity
  8
0
 62
     0
100
AcDbTrace
 10
-0.25
 20
1.0
 30
0.0
 11
-0.5
 21
-1.0
 31
0.0
 12
-0.5
 22
1.0
 32
0.0
 13
-0.25
 23
1.0
 33
0.0
  0
POLYLINE
  5
21C
330
204
100
AcDbEntity
  8
0
 62
     0
100
AcDb2dPolyline
 66
     1
 10
0.0
 20
0.0
 30
0.0
 70
   128
  0
VERTEX
  5
21D
330
21C
100
AcDbEntity
  8
0
 62
     0
100
AcDbVertex
100
AcDb2dVertex
 10
-0.25
 20
1.0
 30
0.0
  0
VERTEX
  5
21E
330
21C
100
AcDbEntity
  8
0
 62
     0
100
AcDbVertex
100
AcDb2dVertex
 10
-0.5
 20
1.0
 30
0.0
  0
VERTEX
  5
220
330
21C
100
AcDbEntity
  8
0
 62
     0
100
AcDbVertex
100
AcDb2dVertex
 10
-0.25
 20
1.0
 30
0.0
  0
VERTEX
  5
221
330
21C
100
AcDbEntity
  8
0
 62
     0
100
AcDbVertex
100
AcDb2dVertex
 10
-0.25
 20
1.0
 30
0.0
  0
SEQEND
  5
21F
330
21C
100
AcDbEntity
  8
0
 62
     0
  0
SOLID
  5
222
330
204
100
AcDbEntity
  8
0
 62
     0
100
AcDbTrace
 10
-0.25
 20
1.0
 30
0.0
 11
-0.5
 21
1.0
 31
0.0
 12
-0.25
 22
1.0
 32
0.0
 13
-0.25
 23
1.0
 33
0.0
  0
LINE
  5
223
330
204
100
AcDbEntity
  8
0
 62
     0
100
AcDbLine
 10
-1.0
 20
0.0
 30
0.0
 11
-0.5
 21
0.0
 31
0.0
  0
LINE
  5
224
330
204
100
AcDbEntity
  8
0
 62
     0
100
AcDbLine
 10
-0.5
 20
0.0
 30
0.0
 11
-1.0
 21
0.0
 31
0.0
  0
ENDBLK
  5
206
330
204
100
AcDbEntity
  8
0
100
AcDbBlockEnd
  0
BLOCK
  5
247
330
246
100
AcDbEntity
  8
0
100
AcDbBlockBegin
  2
Borders PCH WEB A4
 70
     0
 10
0.0
 20
0.0
 30
0.0
  3
Borders PCH WEB A4
  1

  0
HATCH
  5
26D
330
246
100
AcDbEntity
  8
Hatch
 62
     7
100
AcDbHatch
 10
0.0
 20
0.0
 30
0.0
210
0.0
220
0.0
230
1.0
  2
SOLID
 70
     1
 71
     0
 91
        1
 92
        1
 93
       36
 72
     1
 10
85.12442361902841
 20
29.83952031839042
 11
90.12021436987984
 21
29.83952031839042
 72
     1
 10
90.12021436987984
 20
29.83952031839042
 11
90.12021436987984
 21
30.31758642010827
 72
     1
 10
90.12021436987984
 20
30.31758642010827
 11
89.57055771862744
 21
30.31758642010827
 72
     2
 10
89.57055771862744
 20
31.42300045759145
 40
1.105414037483174
 50
90.0
 51
172.8064007198703
 73
     0
 72
     1
 10
88.47384473046572
 20
31.28457785877812
 11
88.47384473046572
 21
35.72725452681896
 72
     1
 10
88.47384473046572
 20
35.72725452681896
 11
96.16057270764461
 21
35.72725452681896
 72
     1
 10
96.16057270764459
 20
35.72725452681896
 11
96.16057270764459
 21
31.3089677253812
 72
     2
 10
94.99216056273015
 20
31.49643795118536
 40
1.183356254872822
 50
9.115342837332718
 51
84.99970343845211
 73
     0
 72
     1
 10
95.09530295777265
 20
30.31758525797406
 11
93.99162909502386
 21
30.31758525797406
 72
     1
 10
93.99162909502386
 20
30.31758525797407
 11
93.99162909502386
 21
29.83951915625621
 72
     1
 10
93.99162909502386
 20
29.83951915625621
 11
99.53719586151921
 21
29.83951915625621
 72
     1
 10
99.53719586151921
 20
29.83951915625621
 11
99.53719586151919
 21
30.31758525797406
 72
     1
 10
99.53719586151919
 20
30.31758525797407
 11
98.96748550108981
 21
30.31758525797406
 72
     2
 10
98.96748550108981
 20
31.50824222299917
 40
1.190656965025106
 50
90.0
 51
178.5223656823804
 73
     0
 72
     1
 10
97.7772244686659
 20
31.47753907892596
 11
97.77722446866588
 21
40.54104742202702
 72
     2
 10
98.9457575770492
 20
40.54104742202702
 40
1.168533108383336
 50
180.0
 51
273.9107354596889
 73
     0
 72
     1
 10
99.02545413466942
 20
41.70685962135053
 11
99.32922171552743
 21
41.70685962135053
 72
     1
 10
99.32922171552744
 20
41.70685962135053
 11
99.32922171552744
 21
42.14439631375073
 72
     1
 10
99.32922171552744
 20
42.14439631375073
 11
94.18509592283649
 21
42.14439631375073
 72
     1
 10
94.18509592283648
 20
42.14439631375073
 11
94.18509592283648
 21
41.70685962135053
 72
     1
 10
94.18509592283648
 20
41.70685962135053
 11
95.06738178839349
 21
41.70685962135053
 72
     2
 10
95.06646109900245
 20
40.61274840008619
 40
1.094111608642141
 50
270.0482141146825
 51
360.0
 73
     0
 72
     1
 10
96.16057270764457
 20
40.61274840008619
 11
96.16057270764459
 21
36.45263041054171
 72
     1
 10
96.16057270764459
 20
36.45263041054171
 11
88.47384473046572
 21
36.45263041054171
 72
     1
 10
88.47384473046572
 20
36.45263041054171
 11
88.47384473046572
 21
40.668399985546
 72
     2
 10
89.51257510724987
 20
40.668399985546
 40
1.038730376784161
 50
180.0
 51
271.3081954843145
 73
     0
 72
     1
 10
89.53628966942384
 20
41.70685962135043
 11
90.12817817732347
 21
41.70685962135043
 72
     1
 10
90.12817817732347
 20
41.70685962135043
 11
90.12817817732347
 21
42.14439631374834
 72
     1
 10
90.12817817732347
 20
42.14439631374834
 11
85.3245838741066
 21
42.14439631374839
 72
     1
 10
85.3245838741066
 20
42.14439631374839
 11
85.32458387410624
 21
41.70685962135043
 72
     1
 10
85.32458387410626
 20
41.70685962135043
 11
85.89887128525438
 21
41.70685962135038
 72
     2
 10
85.7884589986755
 20
40.77781686597326
 40
0.935580736412567
 50
276.7775394983764
 51
360.0
 73
     0
 72
     1
 10
86.72403973508806
 20
40.77781686597326
 11
86.72403973508808
 21
31.11571726131325
 72
     2
 10
85.89998462560147
 20
31.14206255560418
 40
0.8244761354959045
 50
1.831139923276387
 51
90.0
 73
     0
 72
     1
 10
85.89998462560147
 20
30.31758642010828
 11
85.12442361902841
 21
30.31758642010828
 72
     1
 10
85.12442361902841
 20
30.31758642010828
 11
85.12442361902841
 21
29.83952031839043
 97
        0
 75
     0
 76
     1
 98
        1
 10
0.0
 20
0.0
  0
HATCH
  5
28D
330
246
100
AcDbEntity
  8
Hatch
 62
     7
100
AcDbHatch
 10
0.0
 20
0.0
 30
0.0
210
0.0
220
0.0
230
1.0
  2
SOLID
 70
     1
 71
     0
 91
        1
 92
        1
 93
       31
 72
     1
 10
102.1547912193991
 20
41.9701002442414
 11
102.154791219399
 21
41.62746438732523
 72
     1
 10
102.154791219399
 20
41.62746438732523
 11
103.0602669398915
 21
41.62746438732523
 72
     2
 10
102.8331600320866
 20
40.91583622624237
 40
0.7469887463803611
 50
287.6998094052565
 51
361.934617559854
 73
     0
 72
     1
 10
103.579722995987
 20
40.89061861035192
 11
103.579722995987
 21
34.1669504827082
 72
     2
 10
102.9573085340146
 20
34.12404022227598
 40
0.6238918599586445
 50
356.0561765841167
 51
450.0
 73
     0
 72
     1
 10
102.9573085340146
 20
33.50014836231733
 11
101.8824085117055
 21
33.50014836231733
 72
     1
 10
101.8824085117055
 20
33.50014836231733
 11
101.8824085117055
 21
33.12128352118615
 72
     1
 10
101.8824085117055
 20
33.12128352118615
 11
109.4445507229238
 21
33.12128352118615
 72
     1
 10
109.4445507229238
 20
33.12128352118615
 11
109.6264058462396
 21
35.31869959974696
 72
     1
 10
109.6264058462397
 20
35.31869959974697
 11
109.3081593804369
 21
35.31869959974697
 72
     1
 10
109.3081593804369
 20
35.31869959974697
 11
109.0050675082438
 21
34.31849641916067
 72
     2
 10
107.9829263150102
 20
34.84857097355368
 40
1.151412893848158
 50
27.41090705137652
 51
90.0
 73
     0
 72
     1
 10
107.9829263150102
 20
33.69715807970553
 11
105.3997755668756
 21
33.69715807970555
 72
     2
 10
105.3997755668756
 20
34.27727935010004
 40
0.5801212703944943
 50
90.0
 51
185.5763565279712
 73
     0
 72
     1
 10
104.8223996719787
 20
34.33365101280592
 11
104.8223996719787
 21
37.43188625703534
 72
     1
 10
104.8223996719787
 20
37.43188625703533
 11
107.4789200117702
 21
37.43188625703533
 72
     2
 10
107.4035166768197
 20
36.74829132476935
 40
0.6877410081865026
 50
276.2945141870209
 51
360.0
 73
     0
 72
     1
 10
108.0912576850063
 20
36.74829132476935
 11
108.0912576850063
 21
36.29702916093619
 72
     1
 10
108.0912576850063
 20
36.29702916093619
 11
108.4317148223339
 21
36.29702916093619
 72
     1
 10
108.4317148223339
 20
36.29702916093619
 11
108.4317148223339
 21
39.05473190445711
 72
     1
 10
108.4317148223339
 20
39.05473190445711
 11
108.0912576850063
 21
39.05473190445711
 72
     1
 10
108.0912576850063
 20
39.05473190445711
 11
108.0912576850063
 21
38.70548055206807
 72
     2
 10
107.4142779478781
 20
38.68787207572515
 40
0.6772086996792471
 50
358.5100529642173
 51
450.0
 73
     0
 72
     1
 10
107.4142779478781
 20
38.0106633760459
 11
104.8223996719787
 21
38.01066337604589
 72
     1
 10
104.8223996719787
 20
38.0106633760459
 11
104.8223996719787
 21
41.38053705784578
 72
     1
 10
104.8223996719787
 20
41.38053705784578
 11
107.7927000194713
 21
41.38053705784578
 72
     2
 10
107.8978801512681
 20
40.68365869243439
 40
0.7047711091576076
 50
261.417106453745
 51
352.3295996795476
 73
     0
 72
     1
 10
108.596345170334
 20
40.7777274621958
 11
108.7771229990136
 21
39.89000566875154
 72
     1
 10
108.7771229990136
 20
39.89000566875155
 11
109.1308570939223
 21
39.92799053706638
 72
     1
 10
109.1308570939223
 20
39.92799053706638
 11
108.9115701509106
 21
41.9701002442414
 72
     1
 10
108.9115701509106
 20
41.9701002442414
 11
102.1547912193991
 21
41.9701002442414
 97
        0
 75
     0
 76
     1
 98
        1
 10
0.0
 20
0.0
  0
HATCH
  5
2A7
330
246
100
AcDbEntity
  8
Hatch
 62
     7
100
AcDbHatch
 10
0.0
 20
0.0
 30
0.0
210
0.0
220
0.0
230
1.0
  2
SOLID
 70
     1
 71
     0
 91
        1
 92
        1
 93
       25
 72
     1
 10
119.3021258490195
 20
41.97010024423225
 11
119.3021258490195
 21
41.6040588455903
 72
     1
 10
119.3021258490195
 20
41.6040588455903
 11
120.1993209031724
 21
41.6040588455903
 72
     2
 10
120.0708873828182
 20
40.96732444950536
 40
0.6495582039418895
 50
281.4039208677229
 51
367.8463456294263
 73
     0
 72
     1
 10
120.7143642528213
 20
40.87864875904135
 11
120.7143642528211
 21
35.11936028363493
 72
     1
 10
120.7143642528211
 20
35.11936028363493
 11
114.1508259874092
 21
41.97010024423225
 72
     1
 10
114.1508259874092
 20
41.97010024423225
 11
111.8901167513869
 21
41.97010024423225
 72
     1
 10
111.8901167513869
 20
41.97010024423225
 11
111.8901167513869
 21
41.6040588455903
 72
     1
 10
111.8901167513869
 20
41.6040588455903
 11
112.2991383716152
 21
41.60405884559019
 72
     2
 10
112.1386734304087
 20
40.00605731376576
 40
1.606037948826286
 50
275.7341919061111
 51
304.8422491572884
 73
     0
 72
     1
 10
113.0562332922184
 20
41.32417786707858
 11
113.0562332922185
 21
33.99046377482
 72
     2
 10
112.4939092605523
 20
34.04463735811942
 40
0.5649275119135968
 50
5.502820418839479
 51
90.00000000000182
 73
     0
 72
     1
 10
112.4939092605523
 20
33.47970984620582
 11
111.8798712955539
 21
33.47970984620582
 72
     1
 10
111.8798712955539
 20
33.47970984620582
 11
111.8798712955539
 21
33.12128352118615
 72
     1
 10
111.8798712955539
 20
33.12128352118615
 11
115.2123756143386
 21
33.12128352118615
 72
     1
 10
115.2123756143386
 20
33.12128352118615
 11
115.2123756143386
 21
33.47970984620582
 72
     1
 10
115.2123756143386
 20
33.47970984620582
 11
114.4433938382243
 21
33.47970984620582
 72
     2
 10
114.4433938382243
 20
34.14246580113967
 40
0.6627559549338308
 50
90.0
 51
176.6611019586586
 73
     0
 72
     1
 10
113.7817629072869
 20
34.10386571011405
 11
113.7817629072868
 21
40.59237604156083
 72
     1
 10
113.7817629072868
 20
40.59237604156083
 11
121.0561519425781
 21
32.99968051091815
 72
     1
 10
121.0561519425781
 20
32.99968051091815
 11
121.3807309808982
 21
32.99968051091815
 72
     1
 10
121.3807309808982
 20
32.99968051091815
 11
121.3807309808982
 21
41.01826591397905
 72
     2
 10
121.9666849959759
 20
41.01826591397905
 40
0.5859540150776762
 50
180.0
 51
268.6564887847029
 73
     0
 72
     1
 10
121.9529463985238
 20
41.6040588455903
 11
122.698224284294
 21
41.6040588455903
 72
     1
 10
122.698224284294
 20
41.6040588455903
 11
122.698224284294
 21
41.97010024423225
 72
     1
 10
122.698224284294
 20
41.97010024423225
 11
119.3021258490195
 21
41.97010024423225
 97
        0
 75
     0
 76
     1
 98
        1
 10
0.0
 20
0.0
  0
HATCH
  5
2B7
330
246
100
AcDbEntity
  8
Hatch
 62
     7
100
AcDbHatch
 10
0.0
 20
0.0
 30
0.0
210
0.0
220
0.0
230
1.0
  2
SOLID
 70
     1
 71
     0
 91
        2
 92
        0
 93
        5
 72
     2
 10
127.4121233785852
 20
34.05344370007729
 40
0.5657747847795487
 50
183.5630728646947
 51
270.0
 73
     1
 72
     1
 10
127.4121233785852
 20
33.48766891529775
 11
129.2967718760781
 21
33.48766891529775
 72
     2
 10
128.6383138931824
 20
37.58682170857503
 40
4.151700921052971
 50
279.1256196326258
 51
444.7832579466122
 73
     1
 72
     1
 10
129.0158013944008
 20
41.72132575674042
 11
126.8474422423256
 21
41.72132575674042
 72
     1
 10
126.8474422423256
 20
41.72132575674042
 11
126.8474422423256
 21
34.01828233712216
 97
        0
 92
        1
 93
       10
 72
     1
 10
124.3981126085731
 20
33.13340178117039
 11
124.3981126085731
 21
33.48766891529775
 72
     1
 10
124.3981126085731
 20
33.48766891529775
 11
124.9975881118954
 21
33.48766891529775
 72
     2
 10
124.9975881118954
 20
34.18828623806311
 40
0.7006173227653628
 50
270.0000000000014
 51
353.024809413329
 73
     1
 72
     1
 10
125.6930200458687
 20
34.10320358313766
 11
125.6930200458687
 21
40.8351095659028
 72
     2
 10
124.8019237182614
 20
40.8351095659028
 40
0.8910963276072079
 50
0.0
 51
84.00085025510522
 73
     1
 72
     1
 10
124.8950554967922
 20
41.72132575674042
 11
124.324815961179
 21
41.72132575674042
 72
     1
 10
124.324815961179
 20
41.72132575674042
 11
124.324815961179
 21
41.97786402628091
 72
     1
 10
124.324815961179
 20
41.97786402628091
 11
129.0158013944007
 21
41.97786402628091
 72
     2
 10
129.5605390499924
 20
37.56847517638674
 40
4.442909985920329
 50
262.9573407957678
 51
453.4035435467083
 73
     0
 72
     1
 10
129.2967718760781
 20
33.13340178117039
 11
124.3981126085731
 21
33.13340178117039
 97
        0
 75
     0
 76
     1
 98
        1
 10
0.0
 20
0.0
  0
HATCH
  5
2D7
330
246
100
AcDbEntity
  8
Hatch
 62
     7
100
AcDbHatch
 10
0.0
 20
0.0
 30
0.0
210
0.0
220
0.0
230
1.0
  2
SOLID
 70
     1
 71
     0
 91
        1
 92
        1
 93
       31
 72
     1
 10
142.3185929658183
 20
39.05175935219841
 11
142.3185929658183
 21
38.70250799980937
 72
     2
 10
141.6416132286902
 20
38.68489952346644
 40
0.6772086996792471
 50
358.5100529642173
 51
450.0
 73
     0
 72
     1
 10
141.6416132286902
 20
38.0076908237872
 11
139.0497349527908
 21
38.0076908237872
 72
     1
 10
139.0497349527908
 20
38.0076908237872
 11
139.0497349527908
 21
41.37756450558708
 72
     1
 10
139.0497349527908
 20
41.37756450558708
 11
142.0200353002834
 21
41.37756450558707
 72
     2
 10
142.1252154320802
 20
40.68068614017568
 40
0.7047711091576076
 50
261.417106453745
 51
352.3295996795476
 73
     0
 72
     1
 10
142.8236804511461
 20
40.77475490993709
 11
143.0044582798257
 21
39.88703311649284
 72
     1
 10
143.0044582798257
 20
39.88703311649284
 11
143.3581923747342
 21
39.92501798480765
 72
     1
 10
143.3581923747342
 20
39.92501798480765
 11
143.1389054317227
 21
41.9671276919827
 72
     1
 10
143.1389054317227
 20
41.9671276919827
 11
136.3821265002112
 21
41.9671276919827
 72
     1
 10
136.3821265002112
 20
41.9671276919827
 11
136.3821265002111
 21
41.62449183506653
 72
     1
 10
136.3821265002111
 20
41.62449183506653
 11
137.2876022207036
 21
41.62449183506653
 72
     2
 10
137.0604953128987
 20
40.91286367398367
 40
0.7469887463803611
 50
287.6998094052565
 51
361.934617559854
 73
     0
 72
     1
 10
137.807058276799
 20
40.88764605809322
 11
137.807058276799
 21
34.1639779304495
 72
     2
 10
137.1846438148267
 20
34.12106767001727
 40
0.6238918599586445
 50
356.0561765841167
 51
450.0
 73
     0
 72
     1
 10
137.1846438148267
 20
33.49717581005863
 11
136.1097437925176
 21
33.49717581005862
 72
     1
 10
136.1097437925176
 20
33.49717581005862
 11
136.1097437925176
 21
33.11831096892745
 72
     1
 10
136.1097437925176
 20
33.11831096892745
 11
143.6718860037359
 21
33.11831096892746
 72
     1
 10
143.6718860037359
 20
33.11831096892745
 11
143.8537411270517
 21
35.31572704748831
 72
     1
 10
143.8537411270517
 20
35.31572704748831
 11
143.5354946612489
 21
35.31572704748827
 72
     1
 10
143.5354946612489
 20
35.31572704748827
 11
143.2324027890558
 21
34.31552386690196
 72
     2
 10
142.2102615958223
 20
34.84559842129498
 40
1.151412893848158
 50
27.41090705137652
 51
90.0
 73
     0
 72
     1
 10
142.2102615958223
 20
33.69418552744684
 11
139.6271108476878
 21
33.69418552744682
 72
     2
 10
139.6271108476876
 20
34.27430679784134
 40
0.5801212703944943
 50
89.99999999998072
 51
185.5763565279438
 73
     0
 72
     1
 10
139.049734952791
 20
34.33067846054691
 11
139.0497349527908
 21
37.42891370477663
 72
     1
 10
139.0497349527908
 20
37.42891370477663
 11
141.7062552925825
 21
37.42891370477666
 72
     2
 10
141.6308519576318
 20
36.74531877251065
 40
0.6877410081865026
 50
276.2945141870343
 51
360.0
 73
     0
 72
     1
 10
142.3185929658183
 20
36.74531877251035
 11
142.3185929658183
 21
36.29405660867749
 72
     1
 10
142.3185929658183
 20
36.29405660867749
 11
142.6590501031463
 21
36.2940566086772
 72
     1
 10
142.6590501031463
 20
36.2940566086772
 11
142.6590501031459
 21
39.0517593521984
 72
     1
 10
142.6590501031459
 20
39.05175935219841
 11
142.3185929658183
 21
39.05175935219841
 97
        0
 75
     0
 76
     1
 98
        1
 10
0.0
 20
0.0
  0
HATCH
  5
2F5
330
246
100
AcDbEntity
  8
Hatch
 62
     7
100
AcDbHatch
 10
0.0
 20
0.0
 30
0.0
210
0.0
220
0.0
230
1.0
  2
SOLID
 70
     1
 71
     0
 91
        2
 92
        0
 93
        4
 72
     1
 10
148.540817945555
 20
41.70739500424215
 11
148.540817945555
 21
37.14319332318921
 72
     1
 10
148.540817945555
 20
37.14319332318921
 11
150.1618876282939
 21
37.14319332318921
 72
     2
 10
149.7024653346136
 20
39.41099089891019
 40
2.313865745538523
 50
281.4522871515732
 51
442.9565641102318
 73
     1
 72
     1
 10
149.986195617437
 20
41.70739500424215
 11
148.540817945555
 21
41.70739500424215
 97
        0
 92
        1
 93
       25
 72
     1
 10
155.109905556091
 20
32.99773196157084
 11
156.836788809244
 21
32.99773196157085
 72
     1
 10
156.836788809244
 20
32.99773196157085
 11
156.836788809244
 21
33.26958830489685
 72
     2
 10
156.836788809244
 20
35.97495469715656
 40
2.705366392259709
 50
90.0
 51
121.4748873055302
 73
     0
 72
     2
 10
157.1492256200603
 20
37.11724892920301
 40
3.856864382510258
 50
116.5672687922152
 51
139.2905966922647
 73
     0
 72
     2
 10
144.6020344191325
 20
26.32137869055188
 40
12.69556206325385
 50
40.70940330773501
 51
47.76115907009479
 73
     1
 72
     2
 10
140.9828681073053
 20
24.27141303148241
 40
16.6969331544594
 50
43.29080613025121
 51
51.03987823246249
 73
     1
 72
     2
 10
150.957289585664
 20
39.53199939728282
 40
2.336888734327936
 50
282.9642598519832
 51
382.7019303784485
 73
     1
 72
     2
 10
150.5171197140356
 20
39.12637848801547
 40
2.906690505091034
 50
26.73269879166254
 51
100.5244953658555
 73
     1
 72
     1
 10
149.986195617437
 20
41.98416946988195
 11
145.9268370495981
 21
41.98416946988195
 72
     1
 10
145.9268370495981
 20
41.98416946988195
 11
145.9268370495981
 21
41.70739500424215
 72
     1
 10
145.9268370495981
 20
41.70739500424215
 11
146.4220486991635
 21
41.70739500424215
 72
     2
 10
146.3368756844528
 20
40.7212546308712
 40
0.9898117388812398
 50
274.9363900951959
 51
345.5401304593235
 73
     0
 72
     1
 10
147.2953329304226
 20
40.96841244700324
 11
147.2953329304226
 21
34.19004908333223
 72
     2
 10
146.5376590263892
 20
34.23000561713436
 40
0.7587267422772337
 50
3.018741975093385
 51
76.24202028809174
 73
     0
 72
     1
 10
146.718100308716
 20
33.49304753618342
 11
145.9568677432127
 21
33.49304753618342
 72
     1
 10
145.9568677432127
 20
33.49304753618342
 11
145.9568677432127
 21
33.11621294359638
 72
     1
 10
145.9568677432127
 20
33.11621294359638
 11
149.9136308709488
 21
33.11621294359638
 72
     1
 10
149.9136308709488
 20
33.11621294359638
 11
149.9136308709488
 21
33.49304753618342
 72
     1
 10
149.9136308709488
 20
33.49304753618342
 11
149.0774973948495
 21
33.49304753618342
 72
     2
 10
149.2317352488414
 20
34.23266573894872
 40
0.7555292194652674
 50
101.7794792006094
 51
156.1321644428744
 73
     0
 72
     1
 10
148.540817945555
 20
33.92695724792318
 11
148.540817945555
 21
36.82939443260041
 72
     1
 10
148.540817945555
 20
36.82939443260041
 11
150.1618876282939
 21
36.82939443260041
 72
     2
 10
145.0574978337099
 20
29.20567244294297
 40
9.174744255326107
 50
303.8039063870235
 51
319.8670231832745
 73
     0
 72
     2
 10
158.8762514677249
 20
40.90690879441194
 40
8.932670134752644
 50
220.3838915613148
 51
231.5920830405884
 73
     1
 72
     2
 10
155.772891204607
 20
36.50036177452046
 40
3.564823358415056
 50
226.6714173869075
 51
259.2817293774281
 73
     1
 97
        0
 75
     0
 76
     1
 98
        1
 10
0.0
 20
0.0
  0
HATCH
  5
30D
330
246
100
AcDbEntity
  8
Hatch
 62
     7
100
AcDbHatch
 10
0.0
 20
0.0
 30
0.0
210
0.0
220
0.0
230
1.0
  2
SOLID
 70
     1
 71
     0
 91
        1
 92
        1
 93
       23
 72
     1
 10
160.6479774396501
 20
39.26244441350283
 11
160.4444259469803
 21
39.4225163001458
 72
     2
 10
161.2312554746254
 20
40.42306879057798
 40
1.272873124739543
 50
128.1813352870933
 51
251.4218211974398
 73
     0
 72
     2
 10
161.5530162788555
 20
39.46577000957755
 40
2.28279934543278
 50
251.4218211974422
 51
344.7903960667428
 73
     0
 72
     1
 10
163.7558549448598
 20
40.06466454375235
 11
164.10721567289
 21
40.06466454375235
 72
     1
 10
164.10721567289
 20
40.06466454375235
 11
163.7996543556428
 21
41.96446463385914
 72
     1
 10
163.7996543556428
 20
41.96446463385914
 11
163.5697074490312
 21
41.96446463385914
 72
     1
 10
163.5697074490312
 20
41.96446463385914
 11
163.4020199525485
 21
41.8038070543676
 72
     1
 10
163.4020199525485
 20
41.8038070543676
 11
163.142663193898
 21
41.8038070543676
 72
     2
 10
161.4701380824508
 20
38.62456231685784
 40
3.592344269332347
 50
62.25220845887818
 51
110.8096881097972
 73
     1
 72
     2
 10
160.9124442066014
 20
40.09195432508899
 40
2.022547542051841
 50
110.8096881097966
 51
229.7592170607356
 73
     1
 72
     2
 10
167.9276104182948
 20
47.38076045662679
 40
12.13538957445691
 50
226.7060885191224
 51
242.2640809537411
 73
     1
 72
     2
 10
161.3299597988683
 20
34.83320672820006
 40
2.041002712150211
 50
297.7359190462586
 51
370.1574404862627
 73
     0
 72
     2
 10
161.4963816346599
 20
35.3735633764681
 40
2.050774512687569
 50
26.04024600612266
 51
95.31911364912323
 73
     0
 72
     2
 10
161.5364623132012
 20
35.80405851622432
 40
2.48313145567109
 50
95.31911364912337
 51
169.9703510823305
 73
     0
 72
     1
 10
159.091278660378
 20
35.37160189399552
 11
158.7827946941463
 21
35.37160189399552
 72
     1
 10
158.7827946941462
 20
35.37160189399552
 11
159.1500680314156
 21
33.10296185342283
 72
     1
 10
159.1500680314156
 20
33.10296185342283
 11
159.3735558034684
 21
33.10296185342283
 72
     1
 10
159.3735558034684
 20
33.10296185342283
 11
159.4283890898879
 21
33.28391169903226
 72
     2
 10
159.6330425367475
 20
32.86491159904763
 40
0.4663090360465238
 50
243.9675933989487
 51
294.6997988266684
 73
     0
 72
     2
 10
161.8140380420993
 20
39.47165532283664
 40
6.494263125210722
 50
252.1918822162923
 51
273.9856636166399
 73
     1
 72
     2
 10
162.0862808614568
 20
35.37085123246108
 40
2.384492125826143
 50
274.3088400476872
 51
365.8124657135003
 73
     1
 72
     2
 10
162.1212399354459
 20
35.3744099303153
 40
2.349352387856274
 50
5.812465713500849
 51
56.96974444854591
 73
     1
 72
     2
 10
172.755821743604
 20
53.70760387544598
 40
18.84840909917213
 50
119.7538544899346
 51
129.9695328664264
 73
     0
 97
        0
 75
     0
 76
     1
 98
        1
 10
0.0
 20
0.0
  0
HATCH
  5
318
330
246
100
AcDbEntity
  8
Hatch
 62
     7
100
AcDbHatch
 10
0.0
 20
0.0
 30
0.0
210
0.0
220
0.0
230
1.0
  2
SOLID
 70
     1
 71
     0
 91
        2
 92
        0
 93
        6
 72
     2
 10
172.0675676127221
 20
38.34437756967243
 40
3.407244478276231
 50
36.26259189651417
 51
85.28533039672877
 73
     1
 72
     2
 10
172.0529366637332
 20
38.16697410357546
 40
3.585250249113969
 50
85.28533039672847
 51
183.8704455164119
 73
     1
 72
     2
 10
172.6174459292001
 20
37.37486696252652
 40
4.177955851326371
 50
172.4340468239057
 51
259.8572405806371
 73
     1
 72
     2
 10
172.7919859789266
 20
51.72678793767909
 40
18.4870082501753
 50
267.1776652275068
 51
267.8936768180174
 73
     1
 72
     2
 10
172.2421477821939
 20
36.77693828387718
 40
3.527050806590522
 50
267.8936768180172
 51
344.2786924858666
 73
     1
 72
     2
 10
170.5717924706307
 20
37.24712431901378
 40
5.262320749425029
 50
344.2786924858665
 51
396.2625918965145
 73
     1
 97
        0
 92
        1
 93
        4
 72
     2
 10
172.2881453734119
 20
38.38183346095937
 40
5.460249349820256
 50
267.5537157622909
 51
278.6905453670297
 73
     1
 72
     2
 10
172.6210062620611
 20
37.55776597074917
 40
4.599897721625063
 50
276.1421716975607
 51
442.8928695938044
 73
     1
 72
     2
 10
172.7637841895103
 20
-9.954992033700396
 40
52.07905779243873
 50
89.53094387807677
 51
91.6265072912272
 73
     1
 72
     2
 10
171.652425464485
 20
37.51332019972517
 40
4.604400491663247
 50
94.56991720728446
 51
275.0170075405732
 73
     1
 97
        0
 75
     0
 76
     1
 98
        1
 10
0.0
 20
0.0
  0
HATCH
  5
332
330
246
100
AcDbEntity
  8
Hatch
 62
     7
100
AcDbHatch
 10
0.0
 20
0.0
 30
0.0
210
0.0
220
0.0
230
1.0
  2
SOLID
 70
     1
 71
     0
 91
        1
 92
        1
 93
       25
 72
     1
 10
194.0232474083051
 20
42.12081822737387
 11
189.3749083702509
 21
42.12081822737387
 72
     1
 10
189.3749083702509
 20
42.12081822737387
 11
189.3749083702509
 21
41.73122328531364
 72
     1
 10
189.3749083702509
 20
41.73122328531364
 11
190.0806148606268
 21
41.73122328531364
 72
     2
 10
190.1499363255331
 20
40.58187851296409
 40
1.151433398518552
 50
266.5484493812014
 51
345.7670224464733
 73
     0
 72
     1
 10
191.2660253227426
 20
40.86497606069582
 11
191.266025322743
 21
32.47326338192227
 72
     1
 10
191.266025322743
 20
32.47326338192227
 11
182.0229222769413
 21
42.12081822737388
 72
     1
 10
182.0229222769413
 20
42.12081822737388
 11
178.9709006007346
 21
42.12081822737387
 72
     1
 10
178.9709006007346
 20
42.12081822737387
 11
178.9709006007346
 21
41.69538822606449
 72
     1
 10
178.9709006007346
 20
41.69538822606448
 11
179.4030407309133
 21
41.69538822606448
 72
     2
 10
179.2845704708843
 20
39.36965923476694
 40
2.328744413514125
 50
272.9160680622471
 51
303.393032434177
 73
     0
 72
     1
 10
180.5662629877748
 20
41.3139624095882
 11
180.5662629877748
 21
31.25937940638551
 72
     2
 10
179.4685390873549
 20
31.39820434497361
 40
1.106467408072776
 50
7.207714392328115
 51
90.62366208306563
 73
     0
 72
     1
 10
179.4564954752804
 20
30.2918024846464
 11
178.8830555747337
 21
30.2918024846464
 72
     1
 10
178.8830555747337
 20
30.2918024846464
 11
178.8830555747337
 21
29.83112863370736
 72
     1
 10
178.8830555747337
 20
29.83112863370736
 11
183.5316735189297
 21
29.83112863370736
 72
     1
 10
183.5316735189297
 20
29.83112863370736
 11
183.5316735189297
 21
30.2918024846464
 72
     1
 10
183.5316735189297
 20
30.2918024846464
 11
182.5445732629956
 21
30.2918024846464
 72
     2
 10
182.6757822558207
 20
31.40832659917116
 40
1.12420723094698
 50
96.7024070595489
 51
176.5514028863301
 73
     0
 72
     1
 10
181.5536107771009
 20
31.34070211794372
 11
181.5536107771007
 21
40.34473639418195
 72
     1
 10
181.5536107771007
 20
40.34473639418195
 11
191.7274563618655
 21
29.72571237358943
 72
     1
 10
191.7274563618655
 20
29.72571237358943
 11
192.2505130215134
 21
29.72571237358906
 72
     1
 10
192.2505130215134
 20
29.72571237358906
 11
192.2505130215134
 21
41.05003346921343
 72
     2
 10
193.1925794818321
 20
40.74413677832381
 40
0.9904857400057274
 50
197.9890378732773
 51
265.2518080546132
 73
     0
 72
     1
 10
193.1105902820963
 20
41.73122328531364
 11
194.0232474083051
 21
41.73122328531364
 72
     1
 10
194.0232474083051
 20
41.73122328531364
 11
194.0232474083051
 21
42.12081822737387
 97
        0
 75
     0
 76
     1
 98
        1
 10
0.0
 20
0.0
  0
HATCH
  5
33B
330
246
100
AcDbEntity
  8
Hatch
 62
     7
100
AcDbHatch
 10
0.0
 20
0.0
 30
0.0
210
0.0
220
0.0
230
1.0
  2
SOLID
 70
     1
 71
     0
 91
        1
 92
        1
 93
        8
 72
     1
 10
136.7383592365332
 20
28.81328749047306
 11
131.6040728259251
 21
28.81328749047306
 72
     1
 10
131.6040728259251
 20
28.81328749047306
 11
130.6040529664875
 21
29.85706536384081
 72
     1
 10
130.6040529664875
 20
29.85706536384081
 11
146.8056977643305
 21
29.8570653638408
 72
     1
 10
146.8056977643305
 20
29.8570653638408
 11
145.8056779048929
 21
28.81328749047306
 72
     1
 10
145.8056779048929
 20
28.81328749047306
 11
140.6713914942848
 21
28.81328749047306
 72
     1
 10
140.6713914942848
 20
28.81328749047306
 11
141.5059420923931
 21
29.68435564006092
 72
     1
 10
141.5059420923931
 20
29.68435564006092
 11
135.9038086384247
 21
29.68435564006092
 72
     1
 10
135.9038086384247
 20
29.68435564006092
 11
136.7383592365332
 21
28.81328749047306
 97
        0
 75
     0
 76
     1
 98
        1
 10
0.0
 20
0.0
  0
HATCH
  5
340
330
246
100
AcDbEntity
  8
Hatch
 62
     1
100
AcDbHatch
 10
0.0
 20
0.0
 30
0.0
210
0.0
220
0.0
230
1.0
  2
SOLID
 70
     1
 71
     0
 91
        1
 92
        1
 93
        4
 72
     1
 10
128.7494049999523
 20
30.36864548668035
 11
128.7494049999523
 21
29.8570653638408
 72
     1
 10
128.7494049999523
 20
29.8570653638408
 11
101.780234499479
 21
29.85706536384079
 72
     1
 10
101.780234499479
 20
29.85706536384079
 11
101.780234499479
 21
30.36864548668034
 72
     1
 10
101.780234499479
 20
30.36864548668034
 11
128.7494049999523
 21
30.36864548668034
 97
        0
 75
     0
 76
     1
 98
        1
 10
0.0
 20
0.0
  0
HATCH
  5
349
330
246
100
AcDbEntity
  8
Hatch
 62
     1
100
AcDbHatch
 10
0.0
 20
0.0
 30
0.0
210
0.0
220
0.0
230
1.0
  2
SOLID
 70
     1
 71
     0
 91
        1
 92
        1
 93
        8
 72
     1
 10
146.8056977643303
 20
30.47124551584519
 11
145.8056779048927
 21
31.51502338921306
 72
     1
 10
145.8056779048926
 20
31.51502338921306
 11
140.6713914942846
 21
31.51502338921296
 72
     1
 10
140.6713914942846
 20
31.51502338921296
 11
141.5059420923931
 21
30.64395523962508
 72
     1
 10
141.5059420923931
 20
30.64395523962508
 11
135.9038086384247
 21
30.64395523962508
 72
     1
 10
135.9038086384247
 20
30.64395523962508
 11
136.7383592365332
 21
31.51502338921294
 72
     1
 10
136.7383592365332
 20
31.51502338921294
 11
131.6040728259251
 21
31.51502338921294
 72
     1
 10
131.6040728259251
 20
31.51502338921294
 11
130.6040529664875
 21
30.47124551584519
 72
     1
 10
130.6040529664875
 20
30.47124551584519
 11
146.8056977643303
 21
30.47124551584519
 97
        0
 75
     0
 76
     1
 98
        1
 10
0.0
 20
0.0
  0
HATCH
  5
34E
330
246
100
AcDbEntity
  8
Hatch
 62
     1
100
AcDbHatch
 10
0.0
 20
0.0
 30
0.0
210
0.0
220
0.0
230
1.0
  2
SOLID
 70
     1
 71
     0
 91
        1
 92
        1
 93
        4
 72
     1
 10
175.6295162313388
 20
30.36864548668034
 11
148.6603457308655
 21
30.36864548668034
 72
     1
 10
148.6603457308655
 20
30.36864548668034
 11
148.6603457308655
 21
29.85706536384079
 72
     1
 10
148.6603457308655
 20
29.85706536384079
 11
175.6295162313388
 21
29.85706536384079
 72
     1
 10
175.6295162313388
 20
29.85706536384079
 11
175.6295162313388
 21
30.36864548668034
 97
        0
 75
     0
 76
     1
 98
        1
 10
0.0
 20
0.0
  0
LINE
  5
34F
330
246
100
AcDbEntity
  8
Sketch Geometry(ISO)
  6
CONTINUOUS_ACAD
 62
     7
370
    25
100
AcDbLine
 10
10.0
 20
287.0
 30
0.0
 11
9.999999999999998
 21
10.0
 31
0.0
  0
LINE
  5
350
330
246
100
AcDbEntity
  8
Sketch Geometry(ISO)
  6
Continuous
 62
     7
370
    25
100
AcDbLine
 10
200.0
 20
287.0
 30
0.0
 11
10.0
 21
287.0
 31
0.0
  0
LINE
  5
351
330
246
100
AcDbEntity
  8
Sketch Geometry(ISO)
  6
CONTINUOUS_ACAD
 62
     7
370
    18
100
AcDbLine
 10
96.16057270764457
 20
40.61274840008619
 30
0.0
 11
96.16057270764459
 21
36.45263041054171
 31
0.0
  0
ARC
  5
352
330
246
100
AcDbEntity
  8
Sketch Geometry(ISO)
  6
CONTINUOUS_ACAD
 62
     7
370
    18
100
AcDbCircle
 10
98.9457575770492
 20
40.54104742202702
 30
0.0
 40
1.168533108383336
100
AcDbArc
 50
86.08926454031106
 51
180.0
  0
ARC
  5
353
330
246
100
AcDbEntity
  8
Sketch Geometry(ISO)
  6
CONTINUOUS_ACAD
 62
     7
370
    18
100
AcDbCircle
 10
95.06646109900245
 20
40.61274840008619
 30
0.0
 40
1.094111608642141
100
AcDbArc
 50
0.0
 51
89.95178588531743
  0
LINE
  5
354
330
246
100
AcDbEntity
  8
Sketch Geometry(ISO)
  6
CONTINUOUS_ACAD
 62
     7
370
    18
100
AcDbLine
 10
94.18509592283648
 20
41.70685962135053
 30
0.0
 11
95.06738178839349
 21
41.70685962135053
 31
0.0
  0
LINE
  5
355
330
246
100
AcDbEntity
  8
Sketch Geometry(ISO)
  6
CONTINUOUS_ACAD
 62
     7
370
    18
100
AcDbLine
 10
88.47384473046572
 20
36.45263041054171
 30
0.0
 11
96.16057270764459
 21
36.45263041054171
 31
0.0
  0
LINE
  5
356
330
246
100
AcDbEntity
  8
Sketch Geometry(ISO)
  6
CONTINUOUS_ACAD
 62
     7
370
    18
100
AcDbLine
 10
96.16057270764459
 20
35.72725452681896
 30
0.0
 11
88.47384473046572
 21
35.72725452681896
 31
0.0
  0
LINE
  5
357
330
246
100
AcDbEntity
  8
Sketch Geometry(ISO)
  6
CONTINUOUS_ACAD
 62
     7
370
    18
100
AcDbLine
 10
97.77722446866588
 20
40.54104742202702
 30
0.0
 11
97.7772244686659
 21
31.47753907892596
 31
0.0
  0
LINE
  5
358
330
246
100
AcDbEntity
  8
Sketch Geometry(ISO)
  6
CONTINUOUS_ACAD
 62
     7
370
    18
100
AcDbLine
 10
94.18509592283648
 20
41.70685962135053
 30
0.0
 11
94.18509592283648
 21
42.14439631375073
 31
0.0
  0
LINE
  5
359
330
246
100
AcDbEntity
  8
Sketch Geometry(ISO)
  6
CONTINUOUS_ACAD
 62
     7
370
    18
100
AcDbLine
 10
99.32922171552744
 20
41.70685962135053
 30
0.0
 11
98.866061019429
 21
41.70685962135053
 31
0.0
  0
LINE
  5
35A
330
246
100
AcDbEntity
  8
Sketch Geometry(ISO)
  6
CONTINUOUS_ACAD
 62
     7
370
    18
100
AcDbLine
 10
99.32922171552744
 20
42.14439631375073
 30
0.0
 11
99.32922171552744
 21
41.70685962135053
 31
0.0
  0
LINE
  5
35B
330
246
100
AcDbEntity
  8
Sketch Geometry(ISO)
  6
CONTINUOUS_ACAD
 62
     7
370
    18
100
AcDbLine
 10
94.18509592283648
 20
42.14439631375073
 30
0.0
 11
99.32922171552744
 21
42.14439631375073
 31
0.0
  0
LINE
  5
35C
330
246
100
AcDbEntity
  8
Sketch Geometry(ISO)
  6
CONTINUOUS_ACAD
 62
     7
370
    18
100
AcDbLine
 10
90.12817817732347
 20
42.14439631374834
 30
0.0
 11
90.12817817732347
 21
41.70685962135043
 31
0.0
  0
LINE
  5
35D
330
246
100
AcDbEntity
  8
Sketch Geometry(ISO)
  6
CONTINUOUS_ACAD
 62
     7
370
    18
100
AcDbLine
 10
85.3245838741066
 20
42.14439631374839
 30
0.0
 11
90.12817817732347
 21
42.14439631374834
 31
0.0
  0
LINE
  5
35E
330
246
100
AcDbEntity
  8
Sketch Geometry(ISO)
  6
CONTINUOUS_ACAD
 62
     7
370
    18
100
AcDbLine
 10
85.32458387410626
 20
41.70685962135043
 30
0.0
 11
85.3245838741066
 21
42.14439631374839
 31
0.0
  0
LINE
  5
35F
330
246
100
AcDbEntity
  8
Sketch Geometry(ISO)
  6
CONTINUOUS_ACAD
 62
     7
370
    18
100
AcDbLine
 10
90.12817817732347
 20
41.70685962135043
 30
0.0
 11
89.48886054507591
 21
41.70685962135043
 31
0.0
  0
LINE
  5
360
330
246
100
AcDbEntity
  8
Sketch Geometry(ISO)
  6
CONTINUOUS_ACAD
 62
     7
370
    18
100
AcDbLine
 10
85.89887128525436
 20
41.70685962135038
 30
0.0
 11
85.32458387410626
 21
41.70685962135043
 31
0.0
  0
ARC
  5
361
330
246
100
AcDbEntity
  8
Sketch Geometry(ISO)
  6
CONTINUOUS_ACAD
 62
     7
370
    18
100
AcDbCircle
 10
85.7884589986755
 20
40.77781686597326
 30
0.0
 40
0.9355807364125672
100
AcDbArc
 50
0.0
 51
83.22246050162359
  0
ARC
  5
362
330
246
100
AcDbEntity
  8
Sketch Geometry(ISO)
  6
CONTINUOUS_ACAD
 62
     7
370
    18
100
AcDbCircle
 10
89.51257510724987
 20
40.668399985546
 30
0.0
 40
1.038730376784161
100
AcDbArc
 50
88.69180451568546
 51
180.0
  0
LINE
  5
363
330
246
100
AcDbEntity
  8
Sketch Geometry(ISO)
  6
CONTINUOUS_ACAD
 62
     7
370
    18
100
AcDbLine
 10
93.99162909502386
 20
29.83951915625621
 30
0.0
 11
93.99162909502386
 21
30.31758525797407
 31
0.0
  0
LINE
  5
364
330
246
100
AcDbEntity
  8
Sketch Geometry(ISO)
  6
CONTINUOUS_ACAD
 62
     7
370
    18
100
AcDbLine
 10
93.99162909502386
 20
30.31758525797407
 30
0.0
 11
95.09530295777265
 21
30.31758525797406
 31
0.0
  0
ARC
  5
365
330
246
100
AcDbEntity
  8
Sketch Geometry(ISO)
  6
CONTINUOUS_ACAD
 62
     7
370
    18
100
AcDbCircle
 10
94.99216056273015
 20
31.49643795118536
 30
0.0
 40
1.183356254872822
100
AcDbArc
 50
275.0002965615479
 51
350.8846571626673
  0
LINE
  5
366
330
246
100
AcDbEntity
  8
Sketch Geometry(ISO)
  6
CONTINUOUS_ACAD
 62
     7
370
    18
100
AcDbLine
 10
99.53719586151921
 20
29.83951915625621
 30
0.0
 11
93.99162909502386
 21
29.83951915625621
 31
0.0
  0
LINE
  5
367
330
246
100
AcDbEntity
  8
Sketch Geometry(ISO)
  6
CONTINUOUS_ACAD
 62
     7
370
    18
100
AcDbLine
 10
99.53719586151919
 20
30.31758525797407
 30
0.0
 11
99.53719586151921
 21
29.83951915625621
 31
0.0
  0
LINE
  5
368
330
246
100
AcDbEntity
  8
Sketch Geometry(ISO)
  6
CONTINUOUS_ACAD
 62
     7
370
    18
100
AcDbLine
 10
98.96748550108981
 20
30.31758525797406
 30
0.0
 11
99.53719586151919
 21
30.31758525797407
 31
0.0
  0
ARC
  5
369
330
246
100
AcDbEntity
  8
Sketch Geometry(ISO)
  6
CONTINUOUS_ACAD
 62
     7
370
    18
100
AcDbCircle
 10
98.96748550108981
 20
31.50824222299917
 30
0.0
 40
1.190656965025106
100
AcDbArc
 50
181.4776343176195
 51
270.0
  0
LINE
  5
36A
330
246
100
AcDbEntity
  8
Sketch Geometry(ISO)
  6
CONTINUOUS_ACAD
 62
     7
370
    18
100
AcDbLine
 10
96.16057270764459
 20
35.72725452681896
 30
0.0
 11
96.16057270764459
 21
31.3089677253812
 31
0.0
  0
LINE
  5
36B
330
246
100
AcDbEntity
  8
Sketch Geometry(ISO)
  6
CONTINUOUS_ACAD
 62
     1
370
    18
100
AcDbLine
 10
101.780234499479
 20
29.85706536384079
 30
0.0
 11
101.780234499479
 21
30.36864548668034
 31
0.0
  0
ARC
  5
36C
330
246
100
AcDbEntity
  8
Sketch Geometry(ISO)
  6
CONTINUOUS_ACAD
 62
     7
370
    18
100
AcDbCircle
 10
102.9573085340146
 20
34.12404022227598
 30
0.0
 40
0.6238918599586445
100
AcDbArc
 50
270.0
 51
3.943823415883249
  0
LINE
  5
36D
330
246
100
AcDbEntity
  8
Sketch Geometry(ISO)
  6
CONTINUOUS_ACAD
 62
     7
370
    18
100
AcDbLine
 10
101.8824085117055
 20
33.12128352118615
 30
0.0
 11
101.8824085117055
 21
33.50014836231733
 31
0.0
  0
LINE
  5
36E
330
246
100
AcDbEntity
  8
Sketch Geometry(ISO)
  6
CONTINUOUS_ACAD
 62
     7
370
    18
100
AcDbLine
 10
103.579722995987
 20
40.94105384213363
 30
0.0
 11
103.579722995987
 21
34.1669504827082
 31
0.0
  0
ARC
  5
36F
330
246
100
AcDbEntity
  8
Sketch Geometry(ISO)
  6
CONTINUOUS_ACAD
 62
     7
370
    18
100
AcDbCircle
 10
102.8331600320866
 20
40.91583622624237
 30
0.0
 40
0.7469887463803613
100
AcDbArc
 50
358.065382440146
 51
72.30019059474345
  0
LINE
  5
370
330
246
100
AcDbEntity
  8
Sketch Geometry(ISO)
  6
CONTINUOUS_ACAD
 62
     7
370
    18
100
AcDbLine
 10
103.0602669398915
 20
41.62746438732523
 30
0.0
 11
102.154791219399
 21
41.62746438732523
 31
0.0
  0
LINE
  5
371
330
246
100
AcDbEntity
  8
Sketch Geometry(ISO)
  6
CONTINUOUS_ACAD
 62
     7
370
    18
100
AcDbLine
 10
102.154791219399
 20
41.62746438732523
 30
0.0
 11
102.1547912193991
 21
41.9701002442414
 31
0.0
  0
ARC
  5
372
330
246
100
AcDbEntity
  8
Sketch Geometry(ISO)
  6
CONTINUOUS_ACAD
 62
     7
370
    18
100
AcDbCircle
 10
107.9829263150102
 20
34.84857097355368
 30
0.0
 40
1.151412893848158
100
AcDbArc
 50
270.0
 51
332.5890929486235
  0
ARC
  5
373
330
246
100
AcDbEntity
  8
Sketch Geometry(ISO)
  6
CONTINUOUS_ACAD
 62
     7
370
    18
100
AcDbCircle
 10
105.3997755668756
 20
34.27727935010004
 30
0.0
 40
0.5801212703944943
100
AcDbArc
 50
174.4236434720287
 51
270.0
  0
LINE
  5
374
330
246
100
AcDbEntity
  8
Sketch Geometry(ISO)
  6
CONTINUOUS_ACAD
 62
     7
370
    18
100
AcDbLine
 10
104.8223996719787
 20
37.43188625703533
 30
0.0
 11
104.8223996719787
 21
34.33365101280592
 31
0.0
  0
LINE
  5
375
330
246
100
AcDbEntity
  8
Sketch Geometry(ISO)
  6
CONTINUOUS_ACAD
 62
     7
370
    18
100
AcDbLine
 10
108.4317148223339
 20
36.29702916093619
 30
0.0
 11
108.0912576850063
 21
36.29702916093619
 31
0.0
  0
LINE
  5
376
330
246
100
AcDbEntity
  8
Sketch Geometry(ISO)
  6
CONTINUOUS_ACAD
 62
     7
370
    18
100
AcDbLine
 10
108.0912576850063
 20
36.29702916093619
 30
0.0
 11
108.0912576850063
 21
36.74829132476935
 31
0.0
  0
ARC
  5
377
330
246
100
AcDbEntity
  8
Sketch Geometry(ISO)
  6
CONTINUOUS_ACAD
 62
     7
370
    18
100
AcDbCircle
 10
107.4035166768197
 20
36.74829132476935
 30
0.0
 40
0.6877410081865026
100
AcDbArc
 50
0.0
 51
83.70548581297908
  0
LINE
  5
378
330
246
100
AcDbEntity
  8
Sketch Geometry(ISO)
  6
CONTINUOUS_ACAD
 62
     7
370
    18
100
AcDbLine
 10
108.4317148223339
 20
39.05473190445711
 30
0.0
 11
108.4317148223339
 21
36.29702916093619
 31
0.0
  0
LINE
  5
379
330
246
100
AcDbEntity
  8
Sketch Geometry(ISO)
  6
CONTINUOUS_ACAD
 62
     7
370
    18
100
AcDbLine
 10
107.4789200117702
 20
37.43188625703533
 30
0.0
 11
104.8223996719787
 21
37.43188625703533
 31
0.0
  0
LINE
  5
37A
330
246
100
AcDbEntity
  8
Sketch Geometry(ISO)
  6
CONTINUOUS_ACAD
 62
     7
370
    18
100
AcDbLine
 10
109.3081593804369
 20
35.31869959974697
 30
0.0
 11
109.0050675082438
 21
34.31849641916066
 31
0.0
  0
LINE
  5
37B
330
246
100
AcDbEntity
  8
Sketch Geometry(ISO)
  6
CONTINUOUS_ACAD
 62
     7
370
    18
100
AcDbLine
 10
105.3997755668756
 20
33.69715807970555
 30
0.0
 11
107.9829263150102
 21
33.69715807970553
 31
0.0
  0
LINE
  5
37C
330
246
100
AcDbEntity
  8
Sketch Geometry(ISO)
  6
CONTINUOUS_ACAD
 62
     7
370
    18
100
AcDbLine
 10
109.6264058462397
 20
35.31869959974697
 30
0.0
 11
109.4445507229238
 21
33.12128352118615
 31
0.0
  0
LINE
  5
37D
330
246
100
AcDbEntity
  8
Sketch Geometry(ISO)
  6
CONTINUOUS_ACAD
 62
     7
370
    18
100
AcDbLine
 10
109.3081593804369
 20
35.31869959974697
 30
0.0
 11
109.6264058462397
 21
35.31869959974697
 31
0.0
  0
LINE
  5
37E
330
246
100
AcDbEntity
  8
Sketch Geometry(ISO)
  6
CONTINUOUS_ACAD
 62
     7
370
    18
100
AcDbLine
 10
109.4445507229238
 20
33.12128352118615
 30
0.0
 11
101.8824085117055
 21
33.12128352118615
 31
0.0
  0
LINE
  5
37F
330
246
100
AcDbEntity
  8
Sketch Geometry(ISO)
  6
CONTINUOUS_ACAD
 62
     7
370
    18
100
AcDbLine
 10
101.8824085117055
 20
33.50014836231733
 30
0.0
 11
102.9573085340146
 21
33.50014836231733
 31
0.0
  0
LINE
  5
380
330
246
100
AcDbEntity
  8
Sketch Geometry(ISO)
  6
CONTINUOUS_ACAD
 62
     7
370
    18
100
AcDbLine
 10
104.8223996719787
 20
41.38053705784578
 30
0.0
 11
104.8223996719787
 21
38.0106633760459
 31
0.0
  0
LINE
  5
381
330
246
100
AcDbEntity
  8
Sketch Geometry(ISO)
  6
CONTINUOUS_ACAD
 62
     7
370
    18
100
AcDbLine
 10
104.8223996719787
 20
41.38053705784578
 30
0.0
 11
107.7927000194713
 21
41.38053705784578
 31
0.0
  0
ARC
  5
382
330
246
100
AcDbEntity
  8
Sketch Geometry(ISO)
  6
CONTINUOUS_ACAD
 62
     7
370
    18
100
AcDbCircle
 10
107.8978801512681
 20
40.68365869243439
 30
0.0
 40
0.7047711091576076
100
AcDbArc
 50
7.670400320452447
 51
98.58289354625499
  0
LINE
  5
383
330
246
100
AcDbEntity
  8
Sketch Geometry(ISO)
  6
CONTINUOUS_ACAD
 62
     7
370
    18
100
AcDbLine
 10
108.0912576850063
 20
39.05473190445711
 30
0.0
 11
108.4317148223339
 21
39.05473190445711
 31
0.0
  0
LINE
  5
384
330
246
100
AcDbEntity
  8
Sketch Geometry(ISO)
  6
CONTINUOUS_ACAD
 62
     7
370
    18
100
AcDbLine
 10
108.0912576850063
 20
38.67026359938223
 30
0.0
 11
108.0912576850063
 21
39.05473190445711
 31
0.0
  0
ARC
  5
385
330
246
100
AcDbEntity
  8
Sketch Geometry(ISO)
  6
CONTINUOUS_ACAD
 62
     7
370
    18
100
AcDbCircle
 10
107.4142779478781
 20
38.68787207572515
 30
0.0
 40
0.6772086996792471
100
AcDbArc
 50
270.0
 51
1.489947035782676
  0
LINE
  5
386
330
246
100
AcDbEntity
  8
Sketch Geometry(ISO)
  6
CONTINUOUS_ACAD
 62
     7
370
    18
100
AcDbLine
 10
104.8223996719787
 20
38.0106633760459
 30
0.0
 11
107.4142779478781
 21
38.0106633760459
 31
0.0
  0
LINE
  5
387
330
246
100
AcDbEntity
  8
Sketch Geometry(ISO)
  6
CONTINUOUS_ACAD
 62
     7
370
    18
100
AcDbLine
 10
108.7771229990136
 20
39.89000566875155
 30
0.0
 11
108.596345170334
 21
40.7777274621958
 31
0.0
  0
LINE
  5
388
330
246
100
AcDbEntity
  8
Sketch Geometry(ISO)
  6
CONTINUOUS_ACAD
 62
     7
370
    18
100
AcDbLine
 10
109.1308570939223
 20
39.92799053706638
 30
0.0
 11
108.7771229990136
 21
39.89000566875155
 31
0.0
  0
LINE
  5
389
330
246
100
AcDbEntity
  8
Sketch Geometry(ISO)
  6
CONTINUOUS_ACAD
 62
     7
370
    18
100
AcDbLine
 10
108.9115701509106
 20
41.9701002442414
 30
0.0
 11
109.1308570939223
 21
39.92799053706638
 31
0.0
  0
LINE
  5
38A
330
246
100
AcDbEntity
  8
Sketch Geometry(ISO)
  6
CONTINUOUS_ACAD
 62
     7
370
    18
100
AcDbLine
 10
102.1547912193991
 20
41.9701002442414
 30
0.0
 11
108.9115701509106
 21
41.9701002442414
 31
0.0
  0
LINE
  5
38B
330
246
100
AcDbEntity
  8
Sketch Geometry(ISO)
  6
CONTINUOUS_ACAD
 62
     1
370
    18
100
AcDbLine
 10
128.7494049999523
 20
30.36864548668035
 30
0.0
 11
128.7494049999523
 21
29.8570653638408
 31
0.0
  0
LINE
  5
38C
330
246
100
AcDbEntity
  8
Sketch Geometry(ISO)
  6
CONTINUOUS_ACAD
 62
     1
370
    18
100
AcDbLine
 10
128.7494049999523
 20
29.8570653638408
 30
0.0
 11
101.780234499479
 21
29.85706536384079
 31
0.0
  0
LINE
  5
38D
330
246
100
AcDbEntity
  8
Sketch Geometry(ISO)
  6
CONTINUOUS_ACAD
 62
     1
370
    18
100
AcDbLine
 10
101.780234499479
 20
30.36864548668034
 30
0.0
 11
128.7494049999523
 21
30.36864548668035
 31
0.0
  0
LINE
  5
38E
330
246
100
AcDbEntity
  8
Sketch Geometry(ISO)
  6
CONTINUOUS_ACAD
 62
     7
370
    18
100
AcDbLine
 10
111.8798712955539
 20
33.12128352118615
 30
0.0
 11
115.2123756143386
 21
33.12128352118615
 31
0.0
  0
LINE
  5
38F
330
246
100
AcDbEntity
  8
Sketch Geometry(ISO)
  6
CONTINUOUS_ACAD
 62
     7
370
    18
100
AcDbLine
 10
115.2123756143386
 20
33.12128352118615
 30
0.0
 11
115.2123756143386
 21
33.47970984620582
 31
0.0
  0
LINE
  5
390
330
246
100
AcDbEntity
  8
Sketch Geometry(ISO)
  6
CONTINUOUS_ACAD
 62
     7
370
    18
100
AcDbLine
 10
115.2123756143386
 20
33.47970984620582
 30
0.0
 11
114.4433938382243
 21
33.47970984620582
 31
0.0
  0
ARC
  5
391
330
246
100
AcDbEntity
  8
Sketch Geometry(ISO)
  6
CONTINUOUS_ACAD
 62
     7
370
    18
100
AcDbCircle
 10
114.4433938382243
 20
34.14246580113967
 30
0.0
 40
0.6627559549338308
100
AcDbArc
 50
183.3388980413414
 51
270.0
  0
LINE
  5
392
330
246
100
AcDbEntity
  8
Sketch Geometry(ISO)
  6
CONTINUOUS_ACAD
 62
     7
370
    18
100
AcDbLine
 10
121.0561519425781
 20
32.99968051091815
 30
0.0
 11
113.7817629072868
 21
40.59237604156083
 31
0.0
  0
LINE
  5
393
330
246
100
AcDbEntity
  8
Sketch Geometry(ISO)
  6
CONTINUOUS_ACAD
 62
     7
370
    18
100
AcDbLine
 10
120.7143642528213
 20
41.05600013996931
 30
0.0
 11
120.7143642528211
 21
35.11936028363493
 31
0.0
  0
LINE
  5
394
330
246
100
AcDbEntity
  8
Sketch Geometry(ISO)
  6
CONTINUOUS_ACAD
 62
     7
370
    18
100
AcDbLine
 10
120.7143642528211
 20
35.11936028363493
 30
0.0
 11
114.1508259874092
 21
41.97010024423225
 31
0.0
  0
ARC
  5
395
330
246
100
AcDbEntity
  8
Sketch Geometry(ISO)
  6
CONTINUOUS_ACAD
 62
     7
370
    18
100
AcDbCircle
 10
120.0708873828182
 20
40.96732444950536
 30
0.0
 40
0.6495582039418895
100
AcDbArc
 50
352.1536543705736
 51
78.59607913227709
  0
LINE
  5
396
330
246
100
AcDbEntity
  8
Sketch Geometry(ISO)
  6
CONTINUOUS_ACAD
 62
     7
370
    18
100
AcDbLine
 10
120.1993209031724
 20
41.6040588455903
 30
0.0
 11
119.3021258490195
 21
41.6040588455903
 31
0.0
  0
LINE
  5
397
330
246
100
AcDbEntity
  8
Sketch Geometry(ISO)
  6
CONTINUOUS_ACAD
 62
     7
370
    18
100
AcDbLine
 10
113.7817629072868
 20
40.59237604156083
 30
0.0
 11
113.7817629072869
 21
34.10386571011405
 31
0.0
  0
LINE
  5
398
330
246
100
AcDbEntity
  8
Sketch Geometry(ISO)
  6
CONTINUOUS_ACAD
 62
     7
370
    18
100
AcDbLine
 10
119.3021258490195
 20
41.6040588455903
 30
0.0
 11
119.3021258490195
 21
41.97010024423225
 31
0.0
  0
LINE
  5
399
330
246
100
AcDbEntity
  8
Sketch Geometry(ISO)
  6
CONTINUOUS_ACAD
 62
     7
370
    18
100
AcDbLine
 10
112.4939092605523
 20
33.47970984620582
 30
0.0
 11
111.8798712955539
 21
33.47970984620582
 31
0.0
  0
ARC
  5
39A
330
246
100
AcDbEntity
  8
Sketch Geometry(ISO)
  6
CONTINUOUS_ACAD
 62
     7
370
    18
100
AcDbCircle
 10
112.4939092605523
 20
34.04463735811942
 30
0.0
 40
0.5649275119135968
100
AcDbArc
 50
269.9999999999982
 51
354.4971795811605
  0
LINE
  5
39B
330
246
100
AcDbEntity
  8
Sketch Geometry(ISO)
  6
CONTINUOUS_ACAD
 62
     7
370
    18
100
AcDbLine
 10
111.8798712955539
 20
33.47970984620582
 30
0.0
 11
111.8798712955539
 21
33.12128352118615
 31
0.0
  0
LINE
  5
39C
330
246
100
AcDbEntity
  8
Sketch Geometry(ISO)
  6
CONTINUOUS_ACAD
 62
     7
370
    18
100
AcDbLine
 10
113.0562332922185
 20
33.99046377482
 30
0.0
 11
113.0562332922184
 21
41.32417786707858
 31
0.0
  0
ARC
  5
39D
330
246
100
AcDbEntity
  8
Sketch Geometry(ISO)
  6
CONTINUOUS_ACAD
 62
     7
370
    18
100
AcDbCircle
 10
112.1386734304087
 20
40.00605731376576
 30
0.0
 40
1.606037948826286
100
AcDbArc
 50
55.15775084271091
 51
84.26580809388882
  0
LINE
  5
39E
330
246
100
AcDbEntity
  8
Sketch Geometry(ISO)
  6
CONTINUOUS_ACAD
 62
     7
370
    18
100
AcDbLine
 10
111.8901167513869
 20
41.97010024423225
 30
0.0
 11
114.1508259874092
 21
41.97010024423225
 31
0.0
  0
LINE
  5
39F
330
246
100
AcDbEntity
  8
Sketch Geometry(ISO)
  6
CONTINUOUS_ACAD
 62
     7
370
    18
100
AcDbLine
 10
112.2991383716152
 20
41.60405884559019
 30
0.0
 11
111.8901167513869
 21
41.6040588455903
 31
0.0
  0
LINE
  5
3A0
330
246
100
AcDbEntity
  8
Sketch Geometry(ISO)
  6
CONTINUOUS_ACAD
 62
     7
370
    18
100
AcDbLine
 10
111.8901167513869
 20
41.6040588455903
 30
0.0
 11
111.8901167513869
 21
41.97010024423225
 31
0.0
  0
LINE
  5
3A1
330
246
100
AcDbEntity
  8
Sketch Geometry(ISO)
  6
CONTINUOUS_ACAD
 62
     7
370
    18
100
AcDbLine
 10
126.8474422423256
 20
41.72132575674042
 30
0.0
 11
126.8474422423256
 21
34.01828233712216
 31
0.0
  0
LINE
  5
3A2
330
246
100
AcDbEntity
  8
Sketch Geometry(ISO)
  6
CONTINUOUS_ACAD
 62
     7
370
    18
100
AcDbLine
 10
125.6930200458687
 20
34.10320358313766
 30
0.0
 11
125.6930200458687
 21
40.8351095659028
 31
0.0
  0
ARC
  5
3A3
330
246
100
AcDbEntity
  8
Sketch Geometry(ISO)
  6
CONTINUOUS_ACAD
 62
     7
370
    18
100
AcDbCircle
 10
124.9975881118954
 20
34.18828623806311
 30
0.0
 40
0.7006173227653628
100
AcDbArc
 50
270.0000000000014
 51
353.024809413329
  0
LINE
  5
3A4
330
246
100
AcDbEntity
  8
Sketch Geometry(ISO)
  6
CONTINUOUS_ACAD
 62
     7
370
    18
100
AcDbLine
 10
124.3981126085731
 20
33.48766891529775
 30
0.0
 11
124.9975881118954
 21
33.48766891529775
 31
0.0
  0
ARC
  5
3A5
330
246
100
AcDbEntity
  8
Sketch Geometry(ISO)
  6
CONTINUOUS_ACAD
 62
     7
370
    18
100
AcDbCircle
 10
124.8019237182614
 20
40.8351095659028
 30
0.0
 40
0.8910963276072079
100
AcDbArc
 50
0.0
 51
84.00085025510522
  0
LINE
  5
3A6
330
246
100
AcDbEntity
  8
Sketch Geometry(ISO)
  6
CONTINUOUS_ACAD
 62
     7
370
    18
100
AcDbLine
 10
124.3981126085731
 20
33.13340178117039
 30
0.0
 11
124.3981126085731
 21
33.48766891529775
 31
0.0
  0
LINE
  5
3A7
330
246
100
AcDbEntity
  8
Sketch Geometry(ISO)
  6
CONTINUOUS_ACAD
 62
     7
370
    18
100
AcDbLine
 10
124.8950554967922
 20
41.72132575674042
 30
0.0
 11
124.324815961179
 21
41.72132575674042
 31
0.0
  0
LINE
  5
3A8
330
246
100
AcDbEntity
  8
Sketch Geometry(ISO)
  6
CONTINUOUS_ACAD
 62
     7
370
    18
100
AcDbLine
 10
122.698224284294
 20
41.6040588455903
 30
0.0
 11
121.9529463985238
 21
41.6040588455903
 31
0.0
  0
ARC
  5
3A9
330
246
100
AcDbEntity
  8
Sketch Geometry(ISO)
  6
CONTINUOUS_ACAD
 62
     7
370
    18
100
AcDbCircle
 10
121.9666849959759
 20
41.01826591397905
 30
0.0
 40
0.5859540150776763
100
AcDbArc
 50
91.34351121529713
 51
180.0
  0
LINE
  5
3AA
330
246
100
AcDbEntity
  8
Sketch Geometry(ISO)
  6
CONTINUOUS_ACAD
 62
     7
370
    18
100
AcDbLine
 10
121.3807309808982
 20
32.99968051091815
 30
0.0
 11
121.3807309808982
 21
41.01826591397905
 31
0.0
  0
LINE
  5
3AB
330
246
100
AcDbEntity
  8
Sketch Geometry(ISO)
  6
CONTINUOUS_ACAD
 62
     7
370
    18
100
AcDbLine
 10
121.0561519425781
 20
32.99968051091815
 30
0.0
 11
121.3807309808982
 21
32.99968051091815
 31
0.0
  0
LINE
  5
3AC
330
246
100
AcDbEntity
  8
Sketch Geometry(ISO)
  6
CONTINUOUS_ACAD
 62
     7
370
    18
100
AcDbLine
 10
122.698224284294
 20
41.97010024423225
 30
0.0
 11
122.698224284294
 21
41.6040588455903
 31
0.0
  0
LINE
  5
3AD
330
246
100
AcDbEntity
  8
Sketch Geometry(ISO)
  6
CONTINUOUS_ACAD
 62
     7
370
    18
100
AcDbLine
 10
119.3021258490195
 20
41.97010024423225
 30
0.0
 11
122.698224284294
 21
41.97010024423225
 31
0.0
  0
LINE
  5
3AE
330
246
100
AcDbEntity
  8
Sketch Geometry(ISO)
  6
CONTINUOUS_ACAD
 62
     7
370
    18
100
AcDbLine
 10
129.2967718760781
 20
33.13340178117039
 30
0.0
 11
124.3981126085731
 21
33.13340178117039
 31
0.0
  0
ARC
  5
3AF
330
246
100
AcDbEntity
  8
Sketch Geometry(ISO)
  6
CONTINUOUS_ACAD
 62
     7
370
    18
100
AcDbCircle
 10
127.4121233785852
 20
34.05344370007729
 30
0.0
 40
0.565774784779549
100
AcDbArc
 50
183.5630728646947
 51
270.0
  0
LINE
  5
3B0
330
246
100
AcDbEntity
  8
Sketch Geometry(ISO)
  6
CONTINUOUS_ACAD
 62
     7
370
    18
100
AcDbLine
 10
127.4121233785852
 20
33.48766891529775
 30
0.0
 11
129.2967718760781
 21
33.48766891529775
 31
0.0
  0
LINE
  5
3B1
330
246
100
AcDbEntity
  8
Sketch Geometry(ISO)
  6
CONTINUOUS_ACAD
 62
     7
370
    18
100
AcDbLine
 10
124.324815961179
 20
41.72132575674042
 30
0.0
 11
124.324815961179
 21
41.97786402628091
 31
0.0
  0
LINE
  5
3B2
330
246
100
AcDbEntity
  8
Sketch Geometry(ISO)
  6
CONTINUOUS_ACAD
 62
     7
370
    18
100
AcDbLine
 10
124.324815961179
 20
41.97786402628091
 30
0.0
 11
129.0158013944008
 21
41.97786402628091
 31
0.0
  0
LINE
  5
3B3
330
246
100
AcDbEntity
  8
Sketch Geometry(ISO)
  6
CONTINUOUS_ACAD
 62
     7
370
    18
100
AcDbLine
 10
129.0158013944008
 20
41.72132575674042
 30
0.0
 11
126.8474422423256
 21
41.72132575674042
 31
0.0
  0
ARC
  5
3B4
330
246
100
AcDbEntity
  8
Sketch Geometry(ISO)
  6
CONTINUOUS_ACAD
 62
     7
370
    18
100
AcDbCircle
 10
128.6383138931824
 20
37.58682170857503
 30
0.0
 40
4.151700921052971
100
AcDbArc
 50
279.1256196326258
 51
84.78325794661227
  0
ARC
  5
3B5
330
246
100
AcDbEntity
  8
Sketch Geometry(ISO)
  6
CONTINUOUS_ACAD
 62
     7
370
    18
100
AcDbCircle
 10
129.5605390499924
 20
37.56847517638674
 30
0.0
 40
4.442909985920329
100
AcDbArc
 50
266.5964564532917
 51
97.04265920423202
  0
LINE
  5
3B6
330
246
100
AcDbEntity
  8
Sketch Geometry(ISO)
  6
CONTINUOUS_ACAD
 62
     7
370
    18
100
AcDbLine
 10
131.6040728259251
 20
28.81328749047306
 30
0.0
 11
136.7383592365332
 21
28.81328749047306
 31
0.0
  0
LINE
  5
3B7
330
246
100
AcDbEntity
  8
Sketch Geometry(ISO)
  6
CONTINUOUS_ACAD
 62
     7
370
    18
100
AcDbLine
 10
130.6040529664875
 20
29.85706536384081
 30
0.0
 11
131.6040728259251
 21
28.81328749047306
 31
0.0
  0
LINE
  5
3B8
330
246
100
AcDbEntity
  8
Sketch Geometry(ISO)
  6
CONTINUOUS_ACAD
 62
     7
370
    18
100
AcDbLine
 10
136.7383592365332
 20
28.81328749047306
 30
0.0
 11
135.9038086384247
 21
29.68435564006092
 31
0.0
  0
LINE
  5
3B9
330
246
100
AcDbEntity
  8
Sketch Geometry(ISO)
  6
CONTINUOUS_ACAD
 62
     7
370
    18
100
AcDbLine
 10
90.12021436987984
 20
29.83952031839042
 30
0.0
 11
85.12442361902841
 21
29.83952031839042
 31
0.0
  0
LINE
  5
3BA
330
246
100
AcDbEntity
  8
Sketch Geometry(ISO)
  6
CONTINUOUS_ACAD
 62
     7
370
    18
100
AcDbLine
 10
88.47384473046572
 20
36.45263041054171
 30
0.0
 11
88.47384473046572
 21
40.668399985546
 31
0.0
  0
LINE
  5
3BB
330
246
100
AcDbEntity
  8
Sketch Geometry(ISO)
  6
CONTINUOUS_ACAD
 62
     7
370
    18
100
AcDbLine
 10
90.12021436987984
 20
30.31758642010827
 30
0.0
 11
90.12021436987984
 21
29.83952031839042
 31
0.0
  0
LINE
  5
3BC
330
246
100
AcDbEntity
  8
Sketch Geometry(ISO)
  6
CONTINUOUS_ACAD
 62
     7
370
    18
100
AcDbLine
 10
89.57055771862743
 20
30.31758642010827
 30
0.0
 11
90.12021436987984
 21
30.31758642010827
 31
0.0
  0
LINE
  5
3BD
330
246
100
AcDbEntity
  8
Sketch Geometry(ISO)
  6
CONTINUOUS_ACAD
 62
     7
370
    18
100
AcDbLine
 10
88.47384473046572
 20
31.28457785877812
 30
0.0
 11
88.47384473046572
 21
35.72725452681896
 31
0.0
  0
ARC
  5
3BE
330
246
100
AcDbEntity
  8
Sketch Geometry(ISO)
  6
CONTINUOUS_ACAD
 62
     7
370
    18
100
AcDbCircle
 10
89.57055771862744
 20
31.42300045759145
 30
0.0
 40
1.105414037483174
100
AcDbArc
 50
187.1935992801294
 51
270.0
  0
LINE
  5
3BF
330
246
100
AcDbEntity
  8
Sketch Geometry(ISO)
  6
CONTINUOUS_ACAD
 62
     7
370
    18
100
AcDbLine
 10
86.72403973508806
 20
40.77781686597326
 30
0.0
 11
86.72403973508808
 21
31.11571726131325
 31
0.0
  0
ARC
  5
3C0
330
246
100
AcDbEntity
  8
Sketch Geometry(ISO)
  6
CONTINUOUS_ACAD
 62
     7
370
    18
100
AcDbCircle
 10
85.89998462560147
 20
31.14206255560418
 30
0.0
 40
0.8244761354959045
100
AcDbArc
 50
270.0
 51
358.1688600767236
  0
LINE
  5
3C1
330
246
100
AcDbEntity
  8
Sketch Geometry(ISO)
  6
CONTINUOUS_ACAD
 62
     7
370
    18
100
AcDbLine
 10
85.12442361902841
 20
30.31758642010828
 30
0.0
 11
85.89998462560147
 21
30.31758642010828
 31
0.0
  0
LINE
  5
3C2
330
246
100
AcDbEntity
  8
Sketch Geometry(ISO)
  6
CONTINUOUS_ACAD
 62
     7
370
    18
100
AcDbLine
 10
85.12442361902841
 20
29.83952031839042
 30
0.0
 11
85.12442361902841
 21
30.31758642010828
 31
0.0
  0
LINE
  5
3C3
330
246
100
AcDbEntity
  8
Sketch Geometry(ISO)
  6
CONTINUOUS_ACAD
 62
     7
370
    18
100
AcDbLine
 10
37.99999999999946
 20
9.999999999999875
 30
0.0
 11
37.99999999999943
 21
32.00000000000005
 31
0.0
  0
LINE
  5
3C4
330
246
100
AcDbEntity
  8
Sketch Geometry(ISO)
  6
Continuous
 62
     7
370
    25
100
AcDbLine
 10
9.999999999999998
 20
10.0
 30
0.0
 11
200.0
 21
10.00000000000023
 31
0.0
  0
LINE
  5
3C5
330
246
100
AcDbEntity
  8
Sketch Geometry(ISO)
  6
CONTINUOUS_ACAD
 62
     7
370
    25
100
AcDbLine
 10
9.999999999999415
 20
45.00000000000001
 30
0.0
 11
199.9999999999994
 21
45.00000000000023
 31
0.0
  0
LINE
  5
3C6
330
246
100
AcDbEntity
  8
Sketch Geometry(ISO)
  6
CONTINUOUS_ACAD
 62
     7
370
    25
100
AcDbLine
 10
80.0
 20
10.00000000000009
 30
0.0
 11
80.0
 21
45.0
 31
0.0
  0
LINE
  5
3C7
330
246
100
AcDbEntity
  8
Sketch Geometry(ISO)
  6
CONTINUOUS_ACAD
 62
     7
370
    25
100
AcDbLine
 10
9.999999999999458
 20
10.0
 30
0.0
 11
9.999999999999415
 21
45.00000000000001
 31
0.0
  0
LINE
  5
3C8
330
246
100
AcDbEntity
  8
Sketch Geometry(ISO)
  6
CONTINUOUS_ACAD
370
    18
100
AcDbLine
 10
9.999999999999763
 20
15.5
 30
0.0
 11
80.0
 21
15.50000000000009
 31
0.0
  0
LINE
  5
3C9
330
246
100
AcDbEntity
  8
Sketch Geometry(ISO)
  6
CONTINUOUS_ACAD
370
    18
100
AcDbLine
 10
9.999999999999536
 20
21.00000000000001
 30
0.0
 11
79.99999999999954
 21
21.00000000000009
 31
0.0
  0
LINE
  5
3CA
330
246
100
AcDbEntity
  8
Sketch Geometry(ISO)
  6
CONTINUOUS_ACAD
370
    18
100
AcDbLine
 10
9.99999999999931
 20
26.50000000000001
 30
0.0
 11
79.9999999999994
 21
26.50000000000009
 31
0.0
  0
LINE
  5
3CB
330
246
100
AcDbEntity
  8
Sketch Geometry(ISO)
  6
CONTINUOUS_ACAD
370
    18
100
AcDbLine
 10
9.999999999999083
 20
32.00000000000001
 30
0.0
 11
79.99999999999909
 21
32.00000000000009
 31
0.0
  0
ARC
  5
3CC
330
246
100
AcDbEntity
  8
Sketch Geometry(ISO)
  6
CONTINUOUS_ACAD
 62
     7
370
    18
100
AcDbCircle
 10
162.0862808614568
 20
35.37085123246108
 30
0.0
 40
2.384492125826143
100
AcDbArc
 50
274.3088400476872
 51
5.81246571350027
  0
ARC
  5
3CD
330
246
100
AcDbEntity
  8
Sketch Geometry(ISO)
  6
CONTINUOUS_ACAD
 62
     7
370
    18
100
AcDbCircle
 10
161.4963816346599
 20
35.3735633764681
 30
0.0
 40
2.050774512687569
100
AcDbArc
 50
264.6808863508768
 51
333.9597539938773
  0
ARC
  5
3CE
330
246
100
AcDbEntity
  8
Sketch Geometry(ISO)
  6
CONTINUOUS_ACAD
 62
     7
370
    18
100
AcDbCircle
 10
161.3299597988683
 20
34.83320672820006
 30
0.0
 40
2.04100271215021
100
AcDbArc
 50
349.8425595137373
 51
62.26408095374138
  0
ARC
  5
3CF
330
246
100
AcDbEntity
  8
Sketch Geometry(ISO)
  6
CONTINUOUS_ACAD
 62
     7
370
    18
100
AcDbCircle
 10
161.8140380420993
 20
39.47165532283664
 30
0.0
 40
6.494263125210721
100
AcDbArc
 50
252.1918822162923
 51
273.9856636166399
  0
ARC
  5
3D0
330
246
100
AcDbEntity
  8
Sketch Geometry(ISO)
  6
CONTINUOUS_ACAD
 62
     7
370
    18
100
AcDbCircle
 10
161.5364623132012
 20
35.80405851622432
 30
0.0
 40
2.483131455671091
100
AcDbArc
 50
190.0296489176694
 51
264.6808863508766
  0
ARC
  5
3D1
330
246
100
AcDbEntity
  8
Sketch Geometry(ISO)
  6
CONTINUOUS_ACAD
 62
     7
370
    18
100
AcDbCircle
 10
159.6330425367475
 20
32.86491159904763
 30
0.0
 40
0.4663090360465238
100
AcDbArc
 50
65.30020117333158
 51
116.0324066010488
  0
LINE
  5
3D2
330
246
100
AcDbEntity
  8
Sketch Geometry(ISO)
  6
CONTINUOUS_ACAD
 62
     7
370
    18
100
AcDbLine
 10
159.1500680314156
 20
33.10296185342283
 30
0.0
 11
159.3735558034684
 21
33.10296185342283
 31
0.0
  0
LINE
  5
3D3
330
246
100
AcDbEntity
  8
Sketch Geometry(ISO)
  6
CONTINUOUS_ACAD
 62
     7
370
    18
100
AcDbLine
 10
146.8056977643305
 20
29.8570653638408
 30
0.0
 11
145.8056779048929
 21
28.81328749047306
 31
0.0
  0
LINE
  5
3D4
330
246
100
AcDbEntity
  8
Sketch Geometry(ISO)
  6
CONTINUOUS_ACAD
 62
     7
370
    18
100
AcDbLine
 10
145.8056779048929
 20
28.81328749047306
 30
0.0
 11
140.6713914942848
 21
28.81328749047306
 31
0.0
  0
LINE
  5
3D5
330
246
100
AcDbEntity
  8
Sketch Geometry(ISO)
  6
CONTINUOUS_ACAD
 62
     1
370
    18
100
AcDbLine
 10
145.8056779048926
 20
31.51502338921306
 30
0.0
 11
140.6713914942846
 21
31.51502338921296
 31
0.0
  0
ARC
  5
3D6
330
246
100
AcDbEntity
  8
Sketch Geometry(ISO)
  6
CONTINUOUS_ACAD
 62
     7
370
    18
100
AcDbCircle
 10
142.2102615958223
 20
34.84559842129498
 30
0.0
 40
1.151412893848158
100
AcDbArc
 50
270.0
 51
332.5890929486235
  0
LINE
  5
3D7
330
246
100
AcDbEntity
  8
Sketch Geometry(ISO)
  6
CONTINUOUS_ACAD
 62
     7
370
    18
100
AcDbLine
 10
140.6713914942848
 20
28.81328749047306
 30
0.0
 11
141.5059420923931
 21
29.68435564006092
 31
0.0
  0
LINE
  5
3D8
330
246
100
AcDbEntity
  8
Sketch Geometry(ISO)
  6
CONTINUOUS_ACAD
 62
     7
370
    18
100
AcDbLine
 10
139.6271108476878
 20
33.69418552744682
 30
0.0
 11
142.2102615958223
 21
33.69418552744684
 31
0.0
  0
LINE
  5
3D9
330
246
100
AcDbEntity
  8
Sketch Geometry(ISO)
  6
CONTINUOUS_ACAD
 62
     1
370
    18
100
AcDbLine
 10
140.6713914942846
 20
31.51502338921296
 30
0.0
 11
141.5059420923931
 21
30.64395523962508
 31
0.0
  0
LINE
  5
3DA
330
246
100
AcDbEntity
  8
Sketch Geometry(ISO)
  6
CONTINUOUS_ACAD
 62
     7
370
    18
100
AcDbLine
 10
143.6718860037359
 20
33.11831096892745
 30
0.0
 11
136.1097437925176
 21
33.11831096892745
 31
0.0
  0
LINE
  5
3DB
330
246
100
AcDbEntity
  8
Sketch Geometry(ISO)
  6
CONTINUOUS_ACAD
 62
     7
370
    18
100
AcDbLine
 10
130.6040529664875
 20
29.85706536384081
 30
0.0
 11
146.8056977643305
 21
29.8570653638408
 31
0.0
  0
LINE
  5
3DC
330
246
100
AcDbEntity
  8
Sketch Geometry(ISO)
  6
DOUBLE_DASH_TRIPLE_DOT
 62
     1
370
    18
100
AcDbLine
 10
130.6040529664875
 20
30.47124551584519
 30
0.0
 11
146.8056977643303
 21
30.47124551584519
 31
0.0
  0
LINE
  5
3DD
330
246
100
AcDbEntity
  8
Sketch Geometry(ISO)
  6
CONTINUOUS_ACAD
 62
     7
370
    18
100
AcDbLine
 10
135.9038086384247
 20
29.68435564006092
 30
0.0
 11
141.5059420923931
 21
29.68435564006092
 31
0.0
  0
LINE
  5
3DE
330
246
100
AcDbEntity
  8
Sketch Geometry(ISO)
  6
DOUBLE_DASH_TRIPLE_DOT
 62
     1
370
    18
100
AcDbLine
 10
135.9038086384247
 20
30.64395523962508
 30
0.0
 11
141.5059420923931
 21
30.64395523962508
 31
0.0
  0
ARC
  5
3DF
330
246
100
AcDbEntity
  8
Sketch Geometry(ISO)
  6
CONTINUOUS_ACAD
 62
     7
370
    18
100
AcDbCircle
 10
139.6271108476876
 20
34.27430679784134
 30
0.0
 40
0.5801212703944943
100
AcDbArc
 50
174.4236434720566
 51
270.0000000000193
  0
ARC
  5
3E0
330
246
100
AcDbEntity
  8
Sketch Geometry(ISO)
  6
CONTINUOUS_ACAD
 62
     7
370
    18
100
AcDbCircle
 10
137.1846438148267
 20
34.12106767001727
 30
0.0
 40
0.6238918599586445
100
AcDbArc
 50
270.0
 51
3.943823415883249
  0
LINE
  5
3E1
330
246
100
AcDbEntity
  8
Sketch Geometry(ISO)
  6
CONTINUOUS_ACAD
 62
     1
370
    18
100
AcDbLine
 10
130.6040529664875
 20
30.47124551584519
 30
0.0
 11
131.6040728259251
 21
31.51502338921294
 31
0.0
  0
LINE
  5
3E2
330
246
100
AcDbEntity
  8
Sketch Geometry(ISO)
  6
CONTINUOUS_ACAD
 62
     1
370
    18
100
AcDbLine
 10
131.6040728259251
 20
31.51502338921294
 30
0.0
 11
136.7383592365332
 21
31.51502338921294
 31
0.0
  0
LINE
  5
3E3
330
246
100
AcDbEntity
  8
Sketch Geometry(ISO)
  6
CONTINUOUS_ACAD
 62
     1
370
    18
100
AcDbLine
 10
136.7383592365332
 20
31.51502338921294
 30
0.0
 11
135.9038086384247
 21
30.64395523962508
 31
0.0
  0
LINE
  5
3E4
330
246
100
AcDbEntity
  8
Sketch Geometry(ISO)
  6
CONTINUOUS_ACAD
 62
     7
370
    18
100
AcDbLine
 10
136.1097437925176
 20
33.11831096892745
 30
0.0
 11
136.1097437925176
 21
33.49717581005862
 31
0.0
  0
LINE
  5
3E5
330
246
100
AcDbEntity
  8
Sketch Geometry(ISO)
  6
CONTINUOUS_ACAD
 62
     7
370
    18
100
AcDbLine
 10
136.1097437925176
 20
33.49717581005862
 30
0.0
 11
137.1846438148267
 21
33.49717581005863
 31
0.0
  0
ARC
  5
3E6
330
246
100
AcDbEntity
  8
Sketch Geometry(ISO)
  6
CONTINUOUS_ACAD
 62
     7
370
    18
100
AcDbCircle
 10
137.0604953128987
 20
40.91286367398367
 30
0.0
 40
0.7469887463803613
100
AcDbArc
 50
358.065382440146
 51
72.30019059474345
  0
LINE
  5
3E7
330
246
100
AcDbEntity
  8
Sketch Geometry(ISO)
  6
CONTINUOUS_ACAD
 62
     7
370
    18
100
AcDbLine
 10
136.3821265002112
 20
41.9671276919827
 30
0.0
 11
143.1389054317227
 21
41.9671276919827
 31
0.0
  0
LINE
  5
3E8
330
246
100
AcDbEntity
  8
Sketch Geometry(ISO)
  6
CONTINUOUS_ACAD
 62
     7
370
    18
100
AcDbLine
 10
139.0497349527908
 20
41.37756450558708
 30
0.0
 11
142.0200353002834
 21
41.37756450558707
 31
0.0
  0
LINE
  5
3E9
330
246
100
AcDbEntity
  8
Sketch Geometry(ISO)
  6
CONTINUOUS_ACAD
 62
     7
370
    18
100
AcDbLine
 10
142.3185929658183
 20
38.66729104712353
 30
0.0
 11
142.3185929658183
 21
39.05175935219841
 31
0.0
  0
LINE
  5
3EA
330
246
100
AcDbEntity
  8
Sketch Geometry(ISO)
  6
CONTINUOUS_ACAD
 62
     7
370
    18
100
AcDbLine
 10
139.0497349527908
 20
38.0076908237872
 30
0.0
 11
141.6416132286902
 21
38.0076908237872
 31
0.0
  0
LINE
  5
3EB
330
246
100
AcDbEntity
  8
Sketch Geometry(ISO)
  6
CONTINUOUS_ACAD
 62
     7
370
    18
100
AcDbLine
 10
141.7062552925825
 20
37.42891370477666
 30
0.0
 11
139.0497349527908
 21
37.42891370477663
 31
0.0
  0
LINE
  5
3EC
330
246
100
AcDbEntity
  8
Sketch Geometry(ISO)
  6
CONTINUOUS_ACAD
 62
     7
370
    18
100
AcDbLine
 10
139.0497349527908
 20
41.37756450558708
 30
0.0
 11
139.0497349527908
 21
38.0076908237872
 31
0.0
  0
LINE
  5
3ED
330
246
100
AcDbEntity
  8
Sketch Geometry(ISO)
  6
CONTINUOUS_ACAD
 62
     7
370
    18
100
AcDbLine
 10
137.2876022207036
 20
41.62449183506653
 30
0.0
 11
136.3821265002111
 21
41.62449183506653
 31
0.0
  0
LINE
  5
3EE
330
246
100
AcDbEntity
  8
Sketch Geometry(ISO)
  6
CONTINUOUS_ACAD
 62
     7
370
    18
100
AcDbLine
 10
136.3821265002111
 20
41.62449183506653
 30
0.0
 11
136.3821265002112
 21
41.9671276919827
 31
0.0
  0
LINE
  5
3EF
330
246
100
AcDbEntity
  8
Sketch Geometry(ISO)
  6
CONTINUOUS_ACAD
 62
     7
370
    18
100
AcDbLine
 10
139.0497349527908
 20
37.42891370477663
 30
0.0
 11
139.049734952791
 21
34.33067846054691
 31
0.0
  0
LINE
  5
3F0
330
246
100
AcDbEntity
  8
Sketch Geometry(ISO)
  6
CONTINUOUS_ACAD
 62
     7
370
    18
100
AcDbLine
 10
143.5354946612489
 20
35.31572704748827
 30
0.0
 11
143.2324027890558
 21
34.31552386690196
 31
0.0
  0
LINE
  5
3F1
330
246
100
AcDbEntity
  8
Sketch Geometry(ISO)
  6
CONTINUOUS_ACAD
 62
     7
370
    18
100
AcDbLine
 10
147.2953329304226
 20
40.96841244700324
 30
0.0
 11
147.2953329304226
 21
34.19004908333223
 31
0.0
  0
LINE
  5
3F2
330
246
100
AcDbEntity
  8
Sketch Geometry(ISO)
  6
CONTINUOUS_ACAD
 62
     7
370
    18
100
AcDbLine
 10
142.6590501031463
 20
36.2940566086772
 30
0.0
 11
142.3185929658183
 21
36.29405660867749
 31
0.0
  0
LINE
  5
3F3
330
246
100
AcDbEntity
  8
Sketch Geometry(ISO)
  6
CONTINUOUS_ACAD
 62
     7
370
    18
100
AcDbLine
 10
142.6590501031459
 20
39.05175935219841
 30
0.0
 11
142.6590501031463
 21
36.2940566086772
 31
0.0
  0
LINE
  5
3F4
330
246
100
AcDbEntity
  8
Sketch Geometry(ISO)
  6
CONTINUOUS_ACAD
 62
     7
370
    18
100
AcDbLine
 10
142.3185929658183
 20
36.29405660867749
 30
0.0
 11
142.3185929658183
 21
36.74531877251035
 31
0.0
  0
ARC
  5
3F5
330
246
100
AcDbEntity
  8
Sketch Geometry(ISO)
  6
CONTINUOUS_ACAD
 62
     7
370
    18
100
AcDbCircle
 10
141.6308519576318
 20
36.74531877251065
 30
0.0
 40
0.6877410081865026
100
AcDbArc
 50
0.0
 51
83.70548581296571
  0
ARC
  5
3F6
330
246
100
AcDbEntity
  8
Sketch Geometry(ISO)
  6
CONTINUOUS_ACAD
 62
     7
370
    18
100
AcDbCircle
 10
141.6416132286902
 20
38.68489952346644
 30
0.0
 40
0.6772086996792471
100
AcDbArc
 50
270.0
 51
1.489947035782676
  0
LINE
  5
3F7
330
246
100
AcDbEntity
  8
Sketch Geometry(ISO)
  6
CONTINUOUS_ACAD
 62
     7
370
    18
100
AcDbLine
 10
143.5354946612489
 20
35.31572704748827
 30
0.0
 11
143.8537411270517
 21
35.31572704748831
 31
0.0
  0
LINE
  5
3F8
330
246
100
AcDbEntity
  8
Sketch Geometry(ISO)
  6
CONTINUOUS_ACAD
 62
     7
370
    18
100
AcDbLine
 10
137.807058276799
 20
40.93808128987491
 30
0.0
 11
137.807058276799
 21
34.1639779304495
 31
0.0
  0
ARC
  5
3F9
330
246
100
AcDbEntity
  8
Sketch Geometry(ISO)
  6
CONTINUOUS_ACAD
 62
     7
370
    18
100
AcDbCircle
 10
146.5376590263892
 20
34.23000561713436
 30
0.0
 40
0.7587267422772337
100
AcDbArc
 50
283.7579797119083
 51
356.9812580249066
  0
LINE
  5
3FA
330
246
100
AcDbEntity
  8
Sketch Geometry(ISO)
  6
CONTINUOUS_ACAD
 62
     7
370
    18
100
AcDbLine
 10
145.9568677432127
 20
33.49304753618342
 30
0.0
 11
146.718100308716
 21
33.49304753618342
 31
0.0
  0
LINE
  5
3FB
330
246
100
AcDbEntity
  8
Sketch Geometry(ISO)
  6
CONTINUOUS_ACAD
 62
     7
370
    18
100
AcDbLine
 10
145.9568677432127
 20
33.11621294359638
 30
0.0
 11
145.9568677432127
 21
33.49304753618342
 31
0.0
  0
LINE
  5
3FC
330
246
100
AcDbEntity
  8
Sketch Geometry(ISO)
  6
CONTINUOUS_ACAD
 62
     7
370
    18
100
AcDbLine
 10
143.8537411270517
 20
35.31572704748831
 30
0.0
 11
143.6718860037359
 21
33.11831096892745
 31
0.0
  0
LINE
  5
3FD
330
246
100
AcDbEntity
  8
Sketch Geometry(ISO)
  6
CONTINUOUS_ACAD
 62
     1
370
    18
100
AcDbLine
 10
148.6603457308655
 20
30.36864548668034
 30
0.0
 11
148.6603457308655
 21
29.85706536384079
 31
0.0
  0
LINE
  5
3FE
330
246
100
AcDbEntity
  8
Sketch Geometry(ISO)
  6
CONTINUOUS_ACAD
 62
     1
370
    18
100
AcDbLine
 10
146.8056977643303
 20
30.47124551584519
 30
0.0
 11
145.8056779048926
 21
31.51502338921306
 31
0.0
  0
LINE
  5
3FF
330
246
100
AcDbEntity
  8
Sketch Geometry(ISO)
  6
CONTINUOUS_ACAD
 62
     7
370
    18
100
AcDbLine
 10
143.1389054317227
 20
41.9671276919827
 30
0.0
 11
143.3581923747342
 21
39.92501798480765
 31
0.0
  0
ARC
  5
400
330
246
100
AcDbEntity
  8
Sketch Geometry(ISO)
  6
CONTINUOUS_ACAD
 62
     7
370
    18
100
AcDbCircle
 10
142.1252154320802
 20
40.68068614017568
 30
0.0
 40
0.7047711091576076
100
AcDbArc
 50
7.670400320451732
 51
98.58289354625499
  0
LINE
  5
401
330
246
100
AcDbEntity
  8
Sketch Geometry(ISO)
  6
CONTINUOUS_ACAD
 62
     7
370
    18
100
AcDbLine
 10
143.0044582798257
 20
39.88703311649284
 30
0.0
 11
142.8236804511461
 21
40.77475490993709
 31
0.0
  0
LINE
  5
402
330
246
100
AcDbEntity
  8
Sketch Geometry(ISO)
  6
CONTINUOUS_ACAD
 62
     7
370
    18
100
AcDbLine
 10
143.3581923747342
 20
39.92501798480765
 30
0.0
 11
143.0044582798257
 21
39.88703311649284
 31
0.0
  0
LINE
  5
403
330
246
100
AcDbEntity
  8
Sketch Geometry(ISO)
  6
CONTINUOUS_ACAD
 62
     7
370
    18
100
AcDbLine
 10
142.3185929658183
 20
39.05175935219841
 30
0.0
 11
142.6590501031459
 21
39.05175935219841
 31
0.0
  0
LINE
  5
404
330
246
100
AcDbEntity
  8
Sketch Geometry(ISO)
  6
CONTINUOUS_ACAD
 62
     1
370
    18
100
AcDbLine
 10
175.6295162313388
 20
29.85706536384079
 30
0.0
 11
175.6295162313388
 21
30.36864548668034
 31
0.0
  0
LINE
  5
405
330
246
100
AcDbEntity
  8
Sketch Geometry(ISO)
  6
CONTINUOUS_ACAD
 62
     1
370
    18
100
AcDbLine
 10
148.6603457308655
 20
29.85706536384079
 30
0.0
 11
175.6295162313388
 21
29.85706536384079
 31
0.0
  0
LINE
  5
406
330
246
100
AcDbEntity
  8
Sketch Geometry(ISO)
  6
CONTINUOUS_ACAD
 62
     1
370
    18
100
AcDbLine
 10
175.6295162313388
 20
30.36864548668034
 30
0.0
 11
148.6603457308655
 21
30.36864548668034
 31
0.0
  0
LINE
  5
407
330
246
100
AcDbEntity
  8
Sketch Geometry(ISO)
  6
CONTINUOUS_ACAD
 62
     7
370
    18
100
AcDbLine
 10
159.3735558034684
 20
33.10296185342283
 30
0.0
 11
159.4283890898879
 21
33.28391169903226
 31
0.0
  0
ARC
  5
408
330
246
100
AcDbEntity
  8
Sketch Geometry(ISO)
  6
CONTINUOUS_ACAD
 62
     7
370
    18
100
AcDbCircle
 10
149.2317352488414
 20
34.23266573894872
 30
0.0
 40
0.7555292194652674
100
AcDbArc
 50
203.8678355571255
 51
258.2205207993905
  0
LINE
  5
409
330
246
100
AcDbEntity
  8
Sketch Geometry(ISO)
  6
CONTINUOUS_ACAD
 62
     7
370
    18
100
AcDbLine
 10
149.0774973948495
 20
33.49304753618342
 30
0.0
 11
149.9136308709488
 21
33.49304753618342
 31
0.0
  0
LINE
  5
40A
330
246
100
AcDbEntity
  8
Sketch Geometry(ISO)
  6
CONTINUOUS_ACAD
 62
     7
370
    18
100
AcDbLine
 10
149.986195617437
 20
41.70739500424215
 30
0.0
 11
148.540817945555
 21
41.70739500424215
 31
0.0
  0
LINE
  5
40B
330
246
100
AcDbEntity
  8
Sketch Geometry(ISO)
  6
CONTINUOUS_ACAD
 62
     7
370
    18
100
AcDbLine
 10
148.540817945555
 20
37.14319332318921
 30
0.0
 11
148.540817945555
 21
41.70739500424215
 31
0.0
  0
LINE
  5
40C
330
246
100
AcDbEntity
  8
Sketch Geometry(ISO)
  6
CONTINUOUS_ACAD
 62
     7
370
    18
100
AcDbLine
 10
148.540817945555
 20
33.92695724792318
 30
0.0
 11
148.540817945555
 21
36.82939443260041
 31
0.0
  0
LINE
  5
40D
330
246
100
AcDbEntity
  8
Sketch Geometry(ISO)
  6
CONTINUOUS_ACAD
 62
     7
370
    18
100
AcDbLine
 10
145.9268370495981
 20
41.98416946988195
 30
0.0
 11
149.986195617437
 21
41.98416946988195
 31
0.0
  0
LINE
  5
40E
330
246
100
AcDbEntity
  8
Sketch Geometry(ISO)
  6
CONTINUOUS_ACAD
 62
     7
370
    18
100
AcDbLine
 10
149.9136308709488
 20
33.11621294359638
 30
0.0
 11
145.9568677432127
 21
33.11621294359638
 31
0.0
  0
LINE
  5
40F
330
246
100
AcDbEntity
  8
Sketch Geometry(ISO)
  6
CONTINUOUS_ACAD
 62
     7
370
    18
100
AcDbLine
 10
149.9136308709488
 20
33.49304753618342
 30
0.0
 11
149.9136308709488
 21
33.11621294359638
 31
0.0
  0
ARC
  5
410
330
246
100
AcDbEntity
  8
Sketch Geometry(ISO)
  6
CONTINUOUS_ACAD
 62
     7
370
    18
100
AcDbCircle
 10
146.3368756844528
 20
40.7212546308712
 30
0.0
 40
0.9898117388812394
100
AcDbArc
 50
14.45986954067649
 51
85.06360990480411
  0
LINE
  5
411
330
246
100
AcDbEntity
  8
Sketch Geometry(ISO)
  6
CONTINUOUS_ACAD
 62
     7
370
    18
100
AcDbLine
 10
146.4220486991635
 20
41.70739500424215
 30
0.0
 11
145.9268370495981
 21
41.70739500424215
 31
0.0
  0
LINE
  5
412
330
246
100
AcDbEntity
  8
Sketch Geometry(ISO)
  6
CONTINUOUS_ACAD
 62
     7
370
    18
100
AcDbLine
 10
145.9268370495981
 20
41.70739500424215
 30
0.0
 11
145.9268370495981
 21
41.98416946988195
 31
0.0
  0
ARC
  5
413
330
246
100
AcDbEntity
  8
Sketch Geometry(ISO)
  6
CONTINUOUS_ACAD
 62
     7
370
    18
100
AcDbCircle
 10
150.5171197140356
 20
39.12637848801547
 30
0.0
 40
2.906690505091034
100
AcDbArc
 50
26.73269879166254
 51
100.5244953658555
  0
ARC
  5
414
330
246
100
AcDbEntity
  8
Sketch Geometry(ISO)
  6
CONTINUOUS_ACAD
 62
     7
370
    18
100
AcDbCircle
 10
150.957289585664
 20
39.53199939728282
 30
0.0
 40
2.336888734327936
100
AcDbArc
 50
282.9642598519832
 51
22.70193037844848
  0
ARC
  5
415
330
246
100
AcDbEntity
  8
Sketch Geometry(ISO)
  6
CONTINUOUS_ACAD
 62
     7
370
    18
100
AcDbCircle
 10
149.7024653346136
 20
39.41099089891019
 30
0.0
 40
2.313865745538523
100
AcDbArc
 50
281.4522871515732
 51
82.95656411023186
  0
LINE
  5
416
330
246
100
AcDbEntity
  8
Sketch Geometry(ISO)
  6
CONTINUOUS_ACAD
 62
     7
370
    18
100
AcDbLine
 10
150.1618876282939
 20
36.82939443260041
 30
0.0
 11
148.540817945555
 21
36.82939443260041
 31
0.0
  0
LINE
  5
417
330
246
100
AcDbEntity
  8
Sketch Geometry(ISO)
  6
CONTINUOUS_ACAD
 62
     7
370
    18
100
AcDbLine
 10
148.540817945555
 20
37.14319332318921
 30
0.0
 11
150.1618876282939
 21
37.14319332318921
 31
0.0
  0
ARC
  5
418
330
246
100
AcDbEntity
  8
Sketch Geometry(ISO)
  6
CONTINUOUS_ACAD
 62
     7
370
    18
100
AcDbCircle
 10
145.0574978337099
 20
29.20567244294297
 30
0.0
 40
9.174744255326107
100
AcDbArc
 50
40.13297681672546
 51
56.19609361297648
  0
ARC
  5
419
330
246
100
AcDbEntity
  8
Sketch Geometry(ISO)
  6
CONTINUOUS_ACAD
 62
     7
370
    18
100
AcDbCircle
 10
140.9828681073053
 20
24.27141303148241
 30
0.0
 40
16.6969331544594
100
AcDbArc
 50
43.29080613025119
 51
51.03987823246259
  0
ARC
  5
41A
330
246
100
AcDbEntity
  8
Sketch Geometry(ISO)
  6
CONTINUOUS_ACAD
 62
     7
370
    18
100
AcDbCircle
 10
144.6020344191325
 20
26.32137869055188
 30
0.0
 40
12.69556206325385
100
AcDbArc
 50
40.70940330773501
 51
47.76115907009479
  0
ARC
  5
41B
330
246
100
AcDbEntity
  8
Sketch Geometry(ISO)
  6
CONTINUOUS_ACAD
 62
     7
370
    18
100
AcDbCircle
 10
158.8762514677249
 20
40.90690879441194
 30
0.0
 40
8.932670134752644
100
AcDbArc
 50
220.3838915613148
 51
231.5920830405884
  0
LINE
  5
41C
330
246
100
AcDbEntity
  8
Sketch Geometry(ISO)
  6
CONTINUOUS_ACAD
 62
     7
370
    18
100
AcDbLine
 10
158.7827946941462
 20
35.37160189399552
 30
0.0
 11
159.091278660378
 21
35.37160189399552
 31
0.0
  0
LINE
  5
41D
330
246
100
AcDbEntity
  8
Sketch Geometry(ISO)
  6
CONTINUOUS_ACAD
 62
     7
370
    18
100
AcDbLine
 10
158.7827946941462
 20
35.37160189399552
 30
0.0
 11
159.1500680314156
 21
33.10296185342283
 31
0.0
  0
ARC
  5
41E
330
246
100
AcDbEntity
  8
Sketch Geometry(ISO)
  6
CONTINUOUS_ACAD
 62
     7
370
    18
100
AcDbCircle
 10
157.1492256200603
 20
37.11724892920301
 30
0.0
 40
3.856864382510258
100
AcDbArc
 50
220.7094033077351
 51
243.4327312077848
  0
ARC
  5
41F
330
246
100
AcDbEntity
  8
Sketch Geometry(ISO)
  6
CONTINUOUS_ACAD
 62
     7
370
    18
100
AcDbCircle
 10
155.772891204607
 20
36.50036177452046
 30
0.0
 40
3.564823358415056
100
AcDbArc
 50
226.6714173869075
 51
259.2817293774281
  0
ARC
  5
420
330
246
100
AcDbEntity
  8
Sketch Geometry(ISO)
  6
CONTINUOUS_ACAD
 62
     7
370
    18
100
AcDbCircle
 10
156.836788809244
 20
35.97495469715656
 30
0.0
 40
2.70536639225971
100
AcDbArc
 50
238.5251126944697
 51
270.0
  0
LINE
  5
421
330
246
100
AcDbEntity
  8
Sketch Geometry(ISO)
  6
CONTINUOUS_ACAD
 62
     7
370
    18
100
AcDbLine
 10
156.836788809244
 20
32.99773196157085
 30
0.0
 11
155.109905556091
 21
32.99773196157084
 31
0.0
  0
LINE
  5
422
330
246
100
AcDbEntity
  8
Sketch Geometry(ISO)
  6
CONTINUOUS_ACAD
 62
     7
370
    18
100
AcDbLine
 10
156.836788809244
 20
33.26958830489685
 30
0.0
 11
156.836788809244
 21
32.99773196157085
 31
0.0
  0
LINE
  5
423
330
246
100
AcDbEntity
  8
Sketch Geometry(ISO)
  6
CONTINUOUS_ACAD
 62
     7
370
    18
100
AcDbLine
 10
155.109905556091
 20
32.99773196157084
 30
0.0
 11
155.109905556091
 21
32.99968051091815
 31
0.0
  0
ARC
  5
424
330
246
100
AcDbEntity
  8
Sketch Geometry(ISO)
  6
CONTINUOUS_ACAD
 62
     7
370
    18
100
AcDbCircle
 10
161.4701380824508
 20
38.62456231685784
 30
0.0
 40
3.592344269332347
100
AcDbArc
 50
62.25220845887818
 51
110.8096881097972
  0
LINE
  5
425
330
246
100
AcDbEntity
  8
Sketch Geometry(ISO)
  6
CONTINUOUS_ACAD
 62
     7
370
    18
100
AcDbLine
 10
163.5697074490312
 20
41.96446463385914
 30
0.0
 11
163.4020199525485
 21
41.8038070543676
 31
0.0
  0
LINE
  5
426
330
246
100
AcDbEntity
  8
Sketch Geometry(ISO)
  6
CONTINUOUS_ACAD
 62
     7
370
    18
100
AcDbLine
 10
163.5697074490312
 20
41.96446463385914
 30
0.0
 11
163.7996543556428
 21
41.96446463385914
 31
0.0
  0
LINE
  5
427
330
246
100
AcDbEntity
  8
Sketch Geometry(ISO)
  6
CONTINUOUS_ACAD
 62
     7
370
    18
100
AcDbLine
 10
163.4020199525485
 20
41.8038070543676
 30
0.0
 11
163.142663193898
 21
41.8038070543676
 31
0.0
  0
LINE
  5
428
330
246
100
AcDbEntity
  8
Sketch Geometry(ISO)
  6
CONTINUOUS_ACAD
 62
     7
370
    18
100
AcDbLine
 10
163.7996543556428
 20
41.96446463385914
 30
0.0
 11
164.10721567289
 21
40.06466454375235
 31
0.0
  0
ARC
  5
429
330
246
100
AcDbEntity
  8
Sketch Geometry(ISO)
  6
CONTINUOUS_ACAD
 62
     7
370
    18
100
AcDbCircle
 10
161.5530162788555
 20
39.46577000957755
 30
0.0
 40
2.28279934543278
100
AcDbArc
 50
15.20960393325718
 51
108.5781788025579
  0
ARC
  5
42A
330
246
100
AcDbEntity
  8
Sketch Geometry(ISO)
  6
CONTINUOUS_ACAD
 62
     7
370
    18
100
AcDbCircle
 10
161.2312554746254
 20
40.42306879057798
 30
0.0
 40
1.272873124739543
100
AcDbArc
 50
108.57817880256
 51
231.8186647129063
  0
ARC
  5
42B
330
246
100
AcDbEntity
  8
Sketch Geometry(ISO)
  6
CONTINUOUS_ACAD
 62
     7
370
    18
100
AcDbCircle
 10
160.9124442066014
 20
40.09195432508899
 30
0.0
 40
2.022547542051841
100
AcDbArc
 50
110.8096881097966
 51
229.7592170607357
  0
LINE
  5
42C
330
246
100
AcDbEntity
  8
Sketch Geometry(ISO)
  6
CONTINUOUS_ACAD
 62
     7
370
    18
100
AcDbLine
 10
164.10721567289
 20
40.06466454375235
 30
0.0
 11
163.7558549448598
 21
40.06466454375235
 31
0.0
  0
LINE
  5
42D
330
246
100
AcDbEntity
  8
Sketch Geometry(ISO)
  6
CONTINUOUS_ACAD
 62
     7
370
    18
100
AcDbLine
 10
160.4444259469803
 20
39.4225163001458
 30
0.0
 11
160.6479774396501
 21
39.26244441350283
 31
0.0
  0
ARC
  5
42E
330
246
100
AcDbEntity
  8
Sketch Geometry(ISO)
  6
CONTINUOUS_ACAD
 62
     7
370
    18
100
AcDbCircle
 10
167.9276104182948
 20
47.38076045662679
 30
0.0
 40
12.13538957445691
100
AcDbArc
 50
226.7060885191224
 51
242.2640809537411
  0
ARC
  5
42F
330
246
100
AcDbEntity
  8
Sketch Geometry(ISO)
  6
CONTINUOUS_ACAD
 62
     7
370
    18
100
AcDbCircle
 10
162.1212399354459
 20
35.3744099303153
 30
0.0
 40
2.349352387856274
100
AcDbArc
 50
5.81246571350085
 51
56.96974444854591
  0
ARC
  5
430
330
246
100
AcDbEntity
  8
Sketch Geometry(ISO)
  6
CONTINUOUS_ACAD
 62
     7
370
    18
100
AcDbCircle
 10
172.755821743604
 20
53.70760387544598
 30
0.0
 40
18.84840909917213
100
AcDbArc
 50
230.0304671335736
 51
240.2461455100653
  0
ARC
  5
431
330
246
100
AcDbEntity
  8
Sketch Geometry(ISO)
  6
CONTINUOUS_ACAD
 62
     7
370
    18
100
AcDbCircle
 10
182.6757822558207
 20
31.40832659917116
 30
0.0
 40
1.12420723094698
100
AcDbArc
 50
183.4485971136698
 51
263.2975929404511
  0
LINE
  5
432
330
246
100
AcDbEntity
  8
Sketch Geometry(ISO)
  6
CONTINUOUS_ACAD
 62
     7
370
    18
100
AcDbLine
 10
178.8830555747337
 20
29.83112863370736
 30
0.0
 11
178.8830555747337
 21
30.2918024846464
 31
0.0
  0
LINE
  5
433
330
246
100
AcDbEntity
  8
Sketch Geometry(ISO)
  6
CONTINUOUS_ACAD
 62
     7
370
    18
100
AcDbLine
 10
178.8830555747337
 20
30.2918024846464
 30
0.0
 11
179.4805826994281
 21
30.2918024846464
 31
0.0
  0
LINE
  5
434
330
246
100
AcDbEntity
  8
Sketch Geometry(ISO)
  6
CONTINUOUS_ACAD
 62
     7
370
    18
100
AcDbLine
 10
183.5316735189297
 20
29.83112863370736
 30
0.0
 11
178.8830555747337
 21
29.83112863370736
 31
0.0
  0
ARC
  5
435
330
246
100
AcDbEntity
  8
Sketch Geometry(ISO)
  6
CONTINUOUS_ACAD
 62
     7
370
    18
100
AcDbCircle
 10
179.4685390873549
 20
31.39820434497361
 30
0.0
 40
1.106467408072777
100
AcDbArc
 50
269.3763379169344
 51
352.7922856076719
  0
ARC
  5
436
330
246
100
AcDbEntity
  8
Sketch Geometry(ISO)
  6
CONTINUOUS_ACAD
 62
     7
370
    18
100
AcDbCircle
 10
172.7919859789266
 20
51.72678793767909
 30
0.0
 40
18.4870082501753
100
AcDbArc
 50
267.1776652275068
 51
267.8936768180167
  0
ARC
  5
437
330
246
100
AcDbEntity
  8
Sketch Geometry(ISO)
  6
CONTINUOUS_ACAD
 62
     7
370
    18
100
AcDbCircle
 10
172.2881453734119
 20
38.38183346095937
 30
0.0
 40
5.460249349820256
100
AcDbArc
 50
267.5537157622909
 51
278.6905453670297
  0
ARC
  5
438
330
246
100
AcDbEntity
  8
Sketch Geometry(ISO)
  6
CONTINUOUS_ACAD
 62
     7
370
    18
100
AcDbCircle
 10
172.2421477821939
 20
36.77693828387718
 30
0.0
 40
3.527050806590523
100
AcDbArc
 50
267.8936768180171
 51
344.2786924858666
  0
ARC
  5
439
330
246
100
AcDbEntity
  8
Sketch Geometry(ISO)
  6
CONTINUOUS_ACAD
 62
     7
370
    18
100
AcDbCircle
 10
172.6210062620611
 20
37.55776597074917
 30
0.0
 40
4.599897721625063
100
AcDbArc
 50
276.1421716975607
 51
82.89286959380444
  0
ARC
  5
43A
330
246
100
AcDbEntity
  8
Sketch Geometry(ISO)
  6
CONTINUOUS_ACAD
 62
     7
370
    18
100
AcDbCircle
 10
179.2845704708843
 20
39.36965923476694
 30
0.0
 40
2.328744413514124
100
AcDbArc
 50
56.60696756582305
 51
87.0839319377529
  0
LINE
  5
43B
330
246
100
AcDbEntity
  8
Sketch Geometry(ISO)
  6
CONTINUOUS_ACAD
 62
     7
370
    18
100
AcDbLine
 10
179.4030407309133
 20
41.69538822606448
 30
0.0
 11
178.9709006007346
 21
41.69538822606448
 31
0.0
  0
LINE
  5
43C
330
246
100
AcDbEntity
  8
Sketch Geometry(ISO)
  6
CONTINUOUS_ACAD
 62
     7
370
    18
100
AcDbLine
 10
178.9709006007346
 20
41.69538822606448
 30
0.0
 11
178.9709006007346
 21
42.12081822737387
 31
0.0
  0
ARC
  5
43D
330
246
100
AcDbEntity
  8
Sketch Geometry(ISO)
  6
CONTINUOUS_ACAD
 62
     7
370
    18
100
AcDbCircle
 10
170.5717924706307
 20
37.24712431901378
 30
0.0
 40
5.262320749425031
100
AcDbArc
 50
344.2786924858665
 51
36.26259189651451
  0
ARC
  5
43E
330
246
100
AcDbEntity
  8
Sketch Geometry(ISO)
  6
CONTINUOUS_ACAD
 62
     7
370
    18
100
AcDbCircle
 10
172.6174459292001
 20
37.37486696252652
 30
0.0
 40
4.177955851326371
100
AcDbArc
 50
172.4340468239056
 51
259.8572405806371
  0
ARC
  5
43F
330
246
100
AcDbEntity
  8
Sketch Geometry(ISO)
  6
CONTINUOUS_ACAD
 62
     7
370
    18
100
AcDbCircle
 10
171.652425464485
 20
37.51332019972517
 30
0.0
 40
4.604400491663247
100
AcDbArc
 50
94.56991720728444
 51
275.0170075405719
  0
ARC
  5
440
330
246
100
AcDbEntity
  8
Sketch Geometry(ISO)
  6
CONTINUOUS_ACAD
 62
     7
370
    18
100
AcDbCircle
 10
172.0675676127221
 20
38.34437756967243
 30
0.0
 40
3.407244478276231
100
AcDbArc
 50
36.26259189651417
 51
85.28533039672877
  0
ARC
  5
441
330
246
100
AcDbEntity
  8
Sketch Geometry(ISO)
  6
CONTINUOUS_ACAD
 62
     7
370
    18
100
AcDbCircle
 10
172.7637841895103
 20
-9.954992033700396
 30
0.0
 40
52.07905779243873
100
AcDbArc
 50
89.53094387807677
 51
91.62650729122701
  0
ARC
  5
442
330
246
100
AcDbEntity
  8
Sketch Geometry(ISO)
  6
CONTINUOUS_ACAD
 62
     7
370
    18
100
AcDbCircle
 10
172.0529366637332
 20
38.16697410357546
 30
0.0
 40
3.585250249113969
100
AcDbArc
 50
85.28533039672847
 51
183.8704455164119
  0
LINE
  5
443
330
246
100
AcDbEntity
  8
Sketch Geometry(ISO)
  6
CONTINUOUS_ACAD
 62
     7
370
    18
100
AcDbLine
 10
191.266025322743
 20
32.47326338192227
 30
0.0
 11
191.2660253227426
 21
40.86497606069582
 31
0.0
  0
LINE
  5
444
330
246
100
AcDbEntity
  8
Sketch Geometry(ISO)
  6
CONTINUOUS_ACAD
 62
     7
370
    18
100
AcDbLine
 10
192.2505130215134
 20
41.05003346921343
 30
0.0
 11
192.2505130215134
 21
29.72571237358906
 31
0.0
  0
LINE
  5
445
330
246
100
AcDbEntity
  8
Sketch Geometry(ISO)
  6
CONTINUOUS_ACAD
 62
     7
370
    18
100
AcDbLine
 10
189.3749083702509
 20
41.73122328531364
 30
0.0
 11
189.3749083702509
 21
42.12081822737387
 31
0.0
  0
LINE
  5
446
330
246
100
AcDbEntity
  8
Sketch Geometry(ISO)
  6
CONTINUOUS_ACAD
 62
     7
370
    18
100
AcDbLine
 10
182.0229222769413
 20
42.12081822737388
 30
0.0
 11
191.266025322743
 21
32.47326338192227
 31
0.0
  0
LINE
  5
447
330
246
100
AcDbEntity
  8
Sketch Geometry(ISO)
  6
CONTINUOUS_ACAD
 62
     7
370
    18
100
AcDbLine
 10
181.5536107771007
 20
40.34473639418195
 30
0.0
 11
191.7274563618655
 21
29.72571237358943
 31
0.0
  0
LINE
  5
448
330
246
100
AcDbEntity
  8
Sketch Geometry(ISO)
  6
CONTINUOUS_ACAD
 62
     7
370
    18
100
AcDbLine
 10
192.2505130215134
 20
29.72571237358906
 30
0.0
 11
191.7274563618655
 21
29.72571237358943
 31
0.0
  0
LINE
  5
449
330
246
100
AcDbEntity
  8
Sketch Geometry(ISO)
  6
CONTINUOUS_ACAD
 62
     7
370
    18
100
AcDbLine
 10
181.5536107771007
 20
40.34473639418195
 30
0.0
 11
181.5536107771009
 21
31.34070211794372
 31
0.0
  0
LINE
  5
44A
330
246
100
AcDbEntity
  8
Sketch Geometry(ISO)
  6
CONTINUOUS_ACAD
 62
     7
370
    18
100
AcDbLine
 10
180.5662629877748
 20
31.25937940638551
 30
0.0
 11
180.5662629877748
 21
41.3139624095882
 31
0.0
  0
LINE
  5
44B
330
246
100
AcDbEntity
  8
Sketch Geometry(ISO)
  6
CONTINUOUS_ACAD
 62
     7
370
    18
100
AcDbLine
 10
182.5445732629956
 20
30.2918024846464
 30
0.0
 11
183.5316735189297
 21
30.2918024846464
 31
0.0
  0
LINE
  5
44C
330
246
100
AcDbEntity
  8
Sketch Geometry(ISO)
  6
CONTINUOUS_ACAD
 62
     7
370
    18
100
AcDbLine
 10
183.5316735189297
 20
30.2918024846464
 30
0.0
 11
183.5316735189297
 21
29.83112863370736
 31
0.0
  0
LINE
  5
44D
330
246
100
AcDbEntity
  8
Sketch Geometry(ISO)
  6
CONTINUOUS_ACAD
 62
     7
370
    18
100
AcDbLine
 10
178.9709006007346
 20
42.12081822737387
 30
0.0
 11
182.0229222769413
 21
42.12081822737388
 31
0.0
  0
LINE
  5
44E
330
246
100
AcDbEntity
  8
Sketch Geometry(ISO)
  6
CONTINUOUS_ACAD
 62
     7
370
    18
100
AcDbLine
 10
189.3749083702509
 20
42.12081822737387
 30
0.0
 11
194.0232474083051
 21
42.12081822737387
 31
0.0
  0
LINE
  5
44F
330
246
100
AcDbEntity
  8
Sketch Geometry(ISO)
  6
CONTINUOUS_ACAD
 62
     7
370
    18
100
AcDbLine
 10
190.2192577904394
 20
41.73122328531364
 30
0.0
 11
189.3749083702509
 21
41.73122328531364
 31
0.0
  0
ARC
  5
450
330
246
100
AcDbEntity
  8
Sketch Geometry(ISO)
  6
CONTINUOUS_ACAD
 62
     7
370
    18
100
AcDbCircle
 10
190.1499363255331
 20
40.58187851296409
 30
0.0
 40
1.151433398518552
100
AcDbArc
 50
14.23297755352669
 51
93.45155061879863
  0
ARC
  5
451
330
246
100
AcDbEntity
  8
Sketch Geometry(ISO)
  6
CONTINUOUS_ACAD
 62
     7
370
    18
100
AcDbCircle
 10
193.1925794818321
 20
40.74413677832381
 30
0.0
 40
0.9904857400057275
100
AcDbArc
 50
94.74819194538676
 51
162.0109621267226
  0
LINE
  5
452
330
246
100
AcDbEntity
  8
Sketch Geometry(ISO)
  6
CONTINUOUS_ACAD
 62
     7
370
    18
100
AcDbLine
 10
194.0232474083051
 20
41.73122328531364
 30
0.0
 11
193.1105902820963
 21
41.73122328531364
 31
0.0
  0
LINE
  5
453
330
246
100
AcDbEntity
  8
Sketch Geometry(ISO)
  6
CONTINUOUS_ACAD
 62
     7
370
    18
100
AcDbLine
 10
194.0232474083051
 20
42.12081822737387
 30
0.0
 11
194.0232474083051
 21
41.73122328531364
 31
0.0
  0
LINE
  5
454
330
246
100
AcDbEntity
  8
Sketch Geometry(ISO)
  6
CONTINUOUS_ACAD
 62
     7
370
    25
100
AcDbLine
 10
200.0
 20
10.00000000000023
 30
0.0
 11
200.0
 21
45.00000000000023
 31
0.0
  0
LINE
  5
455
330
246
100
AcDbEntity
  8
Sketch Geometry(ISO)
  6
Continuous
 62
     7
370
    25
100
AcDbLine
 10
200.0
 20
10.00000000000023
 30
0.0
 11
200.0
 21
287.0
 31
0.0
  0
MTEXT
  5
457
330
246
100
AcDbEntity
  8
Symbols(ISO)
 62
     7
100
AcDbMText
 10
101.1707700591221
 20
24.01875248411038
 30
0.0
 40
1.500000059604644
 41
0.0
 71
     7
 72
     1
  1
P.C.HENDERSON LIMITED, BOWBURN, DURHAM DH6 5NG ENGLAND
  7
Text Style171
 73
     1
 44
1.0
1001
ACAD
1000
MTEXTBEGIN
1070
    73
1070
     1
1070
    44
1040
1.0
1070
    74
1070
     0
1000
MTEXTEND
  0
MTEXT
  5
459
330
246
100
AcDbEntity
  8
Symbols(ISO)
 62
     7
100
AcDbMText
 10
101.6972257434598
 20
21.07582371914127
 30
0.0
 40
1.500000059604644
 41
0.0
 71
     7
 72
     1
  1
Telephone: (0191) 3770701        Fax No.: (0191) 3771309
  7
Text Style171
 73
     1
 44
1.0
1001
ACAD
1000
MTEXTBEGIN
1070
    73
1070
     1
1070
    44
1040
1.0
1070
    74
1070
     0
1000
MTEXTEND
  0
MTEXT
  5
45B
330
246
100
AcDbEntity
  8
Symbols(ISO)
 62
     7
100
AcDbMText
 10
110.2660084085957
 20
17.04551236239296
 30
0.0
 40
1.800000071525573
 41
0.0
 71
     7
 72
     1
  1
................................................................
  7
Text Style168
 73
     1
 44
1.0
1001
ACAD
1000
MTEXTBEGIN
1070
    73
1070
     1
1070
    44
1040
1.0
1070
    74
1070
     0
1000
MTEXTEND
  0
MTEXT
  5
45D
330
246
100
AcDbEntity
  8
Symbols(ISO)
 62
     7
100
AcDbMText
 10
117.5324041861373
 20
12.59909847985056
 30
0.0
 40
2.5
 41
0.0
 71
     7
 72
     1
  1
www.pchenderson.com
  7
Text Style169
 73
     1
 44
1.0
1001
ACAD
1000
MTEXTBEGIN
1070
    73
1070
     1
1070
    44
1040
1.0
1070
    74
1070
     0
1000
MTEXTEND
  0
MTEXT
  5
45F
330
246
100
AcDbEntity
  8
Symbols(ISO)
 62
     7
100
AcDbMText
 10
11.49221956798908
 20
16.63434934845192
 30
0.0
 40
2.000000029802322
 41
0.0
 71
     7
 72
     1
  1
Drawing-size:
  7
Text Style175
 73
     1
 44
1.0
1001
ACAD
1000
MTEXTBEGIN
1070
    73
1070
     1
1070
    44
1040
1.0
1070
    74
1070
     0
1000
MTEXTEND
  0
MTEXT
  5
460
330
246
100
AcDbEntity
  8
Symbols(ISO)
 62
     7
100
AcDbMText
 10
11.49221956798908
 20
28.67986058871006
 30
0.0
 40
2.000000029802322
 41
0.0
 71
     7
 72
     1
  1
PCH-code:
  7
Text Style175
 73
     1
 44
1.0
1001
ACAD
1000
MTEXTBEGIN
1070
    73
1070
     1
1070
    44
1040
1.0
1070
    74
1070
     0
1000
MTEXTEND
  0
MTEXT
  5
461
330
246
100
AcDbEntity
  8
Symbols(ISO)
 62
     7
100
AcDbMText
 10
11.39781932491779
 20
22.49851508063875
 30
0.0
 40
2.000000029802322
 41
0.0
 71
     7
 72
     1
  1
CAD-scale:
  7
Text Style175
 73
     1
 44
1.0
1001
ACAD
1000
MTEXTBEGIN
1070
    73
1070
     1
1070
    44
1040
1.0
1070
    74
1070
     0
1000
MTEXTEND
  0
MTEXT
  5
462
330
246
100
AcDbEntity
  8
Symbols(ISO)
 62
     7
100
AcDbMText
 10
11.49221956798908
 20
12.15982176465988
 30
0.0
 40
2.000000029802322
 41
0.0
 71
     7
 72
     1
  1
Revision:
  7
Text Style175
 73
     1
 44
1.0
1001
ACAD
1000
MTEXTBEGIN
1070
    73
1070
     1
1070
    44
1040
1.0
1070
    74
1070
     0
1000
MTEXTEND
  0
MTEXT
  5
463
330
246
100
AcDbEntity
  8
Symbols(ISO)
 62
     7
100
AcDbMText
 10
11.49221956798908
 20
41.33868184548543
 30
0.0
 40
2.000000029802322
 41
0.0
 71
     7
 72
     1
  1
Description:
  7
Text Style175
 73
     1
 44
1.0
1001
ACAD
1000
MTEXTBEGIN
1070
    73
1070
     1
1070
    44
1040
1.0
1070
    74
1070
     0
1000
MTEXTEND
  0
ENDBLK
  5
248
330
246
100
AcDbEntity
  8
0
100
AcDbBlockEnd
  0
BLOCK
  5
4AB
330
4AA
100
AcDbEntity
  8
0
100
AcDbBlockBegin
  2
*D7
 70
     1
 10
0.0
 20
0.0
 30
0.0
  3
*D7
  1

  0
LINE
  5
583
330
4AA
100
AcDbEntity
  8
Dimensions(ISO)
  6
Continuous
 62
     7
370
    25
100
AcDbLine
 10
96.37250392475923
 20
121.8256671070269
 30
0.0
 11
96.37250392475923
 21
139.1173741946181
 31
0.0
  0
LINE
  5
584
330
4AA
100
AcDbEntity
  8
Dimensions(ISO)
  6
Continuous
 62
     7
370
    25
100
AcDbLine
 10
115.3725039247592
 20
121.8256671070269
 30
0.0
 11
115.3725039247592
 21
139.1173741946181
 31
0.0
  0
LINE
  5
585
330
4AA
100
AcDbEntity
  8
Dimensions(ISO)
  6
Continuous
 62
     7
370
    25
100
AcDbLine
 10
98.87250392475923
 20
135.9423741946181
 30
0.0
 11
112.8725039247592
 21
135.9423741946181
 31
0.0
  0
SOLID
  5
586
330
4AA
100
AcDbEntity
  8
Dimensions(ISO)
  6
Continuous
 62
     7
100
AcDbTrace
 10
98.87250392475923
 20
136.3590408612848
 30
0.0
 11
98.87250392475923
 21
135.5257075279514
 31
0.0
 12
96.37250392475923
 22
135.9423741946181
 32
0.0
 13
96.37250392475923
 23
135.9423741946181
 33
0.0
  0
SOLID
  5
587
330
4AA
100
AcDbEntity
  8
Dimensions(ISO)
  6
Continuous
 62
     7
100
AcDbTrace
 10
112.8725039247592
 20
136.3590408612848
 30
0.0
 11
112.8725039247592
 21
135.5257075279514
 31
0.0
 12
115.3725039247592
 22
135.9423741946181
 32
0.0
 13
115.3725039247592
 23
135.9423741946181
 33
0.0
  0
MTEXT
  5
588
330
4AA
100
AcDbEntity
  8
Dimensions(ISO)
  6
Continuous
 62
     7
370
    25
100
AcDbMText
 10
103.5268354390839
 20
140.2783851086699
 30
0.0
 40
3.5
 41
0.0
 71
     1
 72
     1
  1
\A1;19
  7
Current-BSI
 73
     1
 44
1.0
1001
ACAD
1000
MTEXTBEGIN
1070
    73
1070
     1
1070
    44
1040
1.0
1070
    74
1070
     0
1000
MTEXTEND
  0
POINT
  5
589
330
4AA
100
AcDbEntity
  8
Defpoints
  6
Continuous
 62
     0
100
AcDbPoint
 10
96.37250392475923
 20
121.8256671070269
 30
0.0
  0
POINT
  5
58A
330
4AA
100
AcDbEntity
  8
Defpoints
  6
Continuous
 62
     0
100
AcDbPoint
 10
115.3725039247592
 20
121.8256671070269
 30
0.0
  0
POINT
  5
58B
330
4AA
100
AcDbEntity
  8
Defpoints
  6
Continuous
 62
     0
100
AcDbPoint
 10
115.3725039247592
 20
135.9423741946181
 30
0.0
  0
ENDBLK
  5
4AC
330
4AA
100
AcDbEntity
  8
0
100
AcDbBlockEnd
  0
BLOCK
  5
58E
330
58D
100
AcDbEntity
  8
0
100
AcDbBlockBegin
  2
*D8
 70
     1
 10
0.0
 20
0.0
 30
0.0
  3
*D8
  1

  0
LINE
  5
665
330
58D
100
AcDbEntity
  8
Dimensions(ISO)
  6
Continuous
 62
     7
370
    25
100
AcDbLine
 10
80.37250392475923
 20
74.82566710702688
 30
0.0
 11
80.37250392475923
 21
55.65066710702689
 31
0.0
  0
LINE
  5
666
330
58D
100
AcDbEntity
  8
Dimensions(ISO)
  6
Continuous
 62
     7
370
    25
100
AcDbLine
 10
131.3725039247592
 20
74.82566710702688
 30
0.0
 11
131.3725039247592
 21
55.65066710702689
 31
0.0
  0
LINE
  5
667
330
58D
100
AcDbEntity
  8
Dimensions(ISO)
  6
Continuous
 62
     7
370
    25
100
AcDbLine
 10
82.87250392475923
 20
58.8256671070269
 30
0.0
 11
128.8725039247592
 21
58.8256671070269
 31
0.0
  0
SOLID
  5
668
330
58D
100
AcDbEntity
  8
Dimensions(ISO)
  6
Continuous
 62
     7
100
AcDbTrace
 10
82.87250392475923
 20
59.24233377369356
 30
0.0
 11
82.87250392475923
 21
58.40900044036023
 31
0.0
 12
80.37250392475923
 22
58.8256671070269
 32
0.0
 13
80.37250392475923
 23
58.8256671070269
 33
0.0
  0
SOLID
  5
669
330
58D
100
AcDbEntity
  8
Dimensions(ISO)
  6
Continuous
 62
     7
100
AcDbTrace
 10
128.8725039247592
 20
59.24233377369356
 30
0.0
 11
128.8725039247592
 21
58.40900044036023
 31
0.0
 12
131.3725039247592
 22
58.8256671070269
 32
0.0
 13
131.3725039247592
 23
58.8256671070269
 33
0.0
  0
MTEXT
  5
66A
330
58D
100
AcDbEntity
  8
Dimensions(ISO)
  6
Continuous
 62
     7
370
    25
100
AcDbMText
 10
103.7035066532722
 20
63.16167802107873
 30
0.0
 40
3.5
 41
0.0
 71
     1
 72
     1
  1
\A1;51
  7
Current-BSI
 73
     1
 44
1.0
1001
ACAD
1000
MTEXTBEGIN
1070
    73
1070
     1
1070
    44
1040
1.0
1070
    74
1070
     0
1000
MTEXTEND
  0
POINT
  5
66B
330
58D
100
AcDbEntity
  8
Defpoints
  6
Continuous
 62
     0
100
AcDbPoint
 10
80.37250392475923
 20
74.82566710702688
 30
0.0
  0
POINT
  5
66C
330
58D
100
AcDbEntity
  8
Defpoints
  6
Continuous
 62
     0
100
AcDbPoint
 10
131.3725039247592
 20
74.82566710702688
 30
0.0
  0
POINT
  5
66D
330
58D
100
AcDbEntity
  8
Defpoints
  6
Continuous
 62
     0
100
AcDbPoint
 10
131.3725039247592
 20
58.8256671070269
 30
0.0
  0
ENDBLK
  5
58F
330
58D
100
AcDbEntity
  8
0
100
AcDbBlockEnd
  0
BLOCK
  5
670
330
66F
100
AcDbEntity
  8
0
100
AcDbBlockBegin
  2
*D9
 70
     1
 10
0.0
 20
0.0
 30
0.0
  3
*D9
  1

  0
LINE
  5
747
330
66F
100
AcDbEntity
  8
Dimensions(ISO)
  6
Continuous
 62
     7
370
    25
100
AcDbLine
 10
80.37250392475923
 20
74.82566710702688
 30
0.0
 11
61.19750392475926
 21
74.82566710702688
 31
0.0
  0
LINE
  5
748
330
66F
100
AcDbEntity
  8
Dimensions(ISO)
  6
Continuous
 62
     7
370
    25
100
AcDbLine
 10
100.3725039247592
 20
125.8256671070269
 30
0.0
 11
61.19750392475928
 21
125.8256671070269
 31
0.0
  0
LINE
  5
749
330
66F
100
AcDbEntity
  8
Dimensions(ISO)
  6
Continuous
 62
     7
370
    25
100
AcDbLine
 10
64.37250392475926
 20
77.32566710702688
 30
0.0
 11
64.37250392475927
 21
123.3256671070269
 31
0.0
  0
SOLID
  5
74A
330
66F
100
AcDbEntity
  8
Dimensions(ISO)
  6
Continuous
 62
     7
100
AcDbTrace
 10
63.9558372580926
 20
77.32566710702688
 30
0.0
 11
64.78917059142593
 21
77.32566710702688
 31
0.0
 12
64.37250392475926
 22
74.82566710702688
 32
0.0
 13
64.37250392475926
 23
74.82566710702688
 33
0.0
  0
SOLID
  5
74B
330
66F
100
AcDbEntity
  8
Dimensions(ISO)
  6
Continuous
 62
     7
100
AcDbTrace
 10
63.9558372580926
 20
123.3256671070269
 30
0.0
 11
64.78917059142594
 21
123.3256671070269
 31
0.0
 12
64.37250392475927
 22
125.8256671070269
 32
0.0
 13
64.37250392475927
 23
125.8256671070269
 33
0.0
  0
MTEXT
  5
74C
330
66F
100
AcDbEntity
  8
Dimensions(ISO)
  6
Continuous
 62
     7
370
    25
100
AcDbMText
 10
60.03649301070741
 20
98.15666983553985
 30
0.0
 40
3.5
 41
0.0
 71
     1
 72
     1
  1
\A1;51
  7
Current-BSI
 11
0.0000000000000001
 21
1.0
 31
0.0
 73
     1
 44
1.0
1001
ACAD
1000
MTEXTBEGIN
1070
    73
1070
     1
1070
    44
1040
1.0
1070
    74
1070
     0
1000
MTEXTEND
  0
POINT
  5
74D
330
66F
100
AcDbEntity
  8
Defpoints
  6
Continuous
 62
     0
100
AcDbPoint
 10
80.37250392475923
 20
74.82566710702688
 30
0.0
  0
POINT
  5
74E
330
66F
100
AcDbEntity
  8
Defpoints
  6
Continuous
 62
     0
100
AcDbPoint
 10
100.3725039247592
 20
125.8256671070269
 30
0.0
  0
POINT
  5
74F
330
66F
100
AcDbEntity
  8
Defpoints
  6
Continuous
 62
     0
100
AcDbPoint
 10
64.37250392475927
 20
125.8256671070269
 30
0.0
  0
ENDBLK
  5
671
330
66F
100
AcDbEntity
  8
0
100
AcDbBlockEnd
  0
ENDSEC
  0
SECTION
  2
ENTITIES
  0
INSERT
  5
464
330
6C
100
AcDbEntity
  8
0
100
AcDbBlockReference
  2
Borders PCH WEB A4
 10
0.0
 20
0.0
 30
0.0
  0
MTEXT
  5
465
330
6C
100
AcDbEntity
  8
Symbols(ISO)
 62
     7
100
AcDbMText
 10
45.4107118555023
 20
27.83542961013504
 30
0.0
 40
2.5
 41
14.59265112876892
 71
     7
 72
     1
  1
{\fRomanS|b0|i0;\H2.5000;778679}
 73
     1
 44
1.0
1001
ACAD
1000
MTEXTBEGIN
1070
    73
1070
     1
1070
    44
1040
1.0
1070
    74
1070
     0
1000
MTEXTEND
  0
MTEXT
  5
468
330
6C
100
AcDbEntity
  8
Symbols(ISO)
 62
     7
100
AcDbMText
 10
45.41071185550234
 20
14.25994205041998
 30
0.0
 40
2.5
 41
0.0
 71
     1
 72
     1
  1
{\fRomanS|b0|i0;\H2.5000;B}
 73
     1
 44
1.0
1001
ACAD
1000
MTEXTBEGIN
1070
    73
1070
     1
1070
    44
1040
1.0
1070
    74
1070
     0
1000
MTEXTEND
  0
MTEXT
  5
469
330
6C
100
AcDbEntity
  8
Symbols(ISO)
 62
     7
100
AcDbMText
 10
45.41071185550234
 20
19.88822693112647
 30
0.0
 40
2.5
 41
0.0
 71
     1
 72
     1
  1
{\fRomanS|b0|i0;\H2.5000;A4}
 73
     1
 44
1.0
1001
ACAD
1000
MTEXTBEGIN
1070
    73
1070
     1
1070
    44
1040
1.0
1070
    74
1070
     0
1000
MTEXTEND
  0
MTEXT
  5
46A
330
6C
100
AcDbEntity
  8
Symbols(ISO)
 62
     7
100
AcDbMText
 10
45.41071185550234
 20
25.01204719787251
 30
0.0
 40
2.5
 41
12.58785963058471
 71
     1
 72
     1
  1
{\fRomanS|b0|i0;\H2.5000;----}
 73
     1
 44
1.0
1001
ACAD
1000
MTEXTBEGIN
1070
    73
1070
     1
1070
    44
1040
1.0
1070
    74
1070
     0
1000
MTEXTEND
  0
MTEXT
  5
46B
330
6C
100
AcDbEntity
  8
Symbols(ISO)
 62
     7
100
AcDbMText
 10
27.03923560922893
 20
38.96031987947541
 30
0.0
 40
3.499999940395355
 41
45.6006383895874
 71
     1
 72
     1
  1
{\fRomanS|b0|i0;\H3.5000;298 Bottom rail}
 73
     1
 44
1.0
1001
ACAD
1000
MTEXTBEGIN
1070
    73
1070
     1
1070
    44
1040
1.0
1070
    74
1070
     0
1000
MTEXTEND
  0
LINE
  5
46C
330
6C
100
AcDbEntity
  8
Visible Tangent Edges(ISO)
100
AcDbLine
 10
178.8806321239943
 20
190.1339826571279
 30
0.0
 11
180.2948456863674
 21
189.3174860762001
 31
0.0
  0
ELLIPSE
  5
46D
330
6C
100
AcDbEntity
  8
Visible Edges(ISO)
100
AcDbEllipse
 10
178.8806321239943
 20
188.5009894952724
 30
0.0
 11
0.999999999999995
 21
1.732050807568869
 31
0.0
210
0.0
220
0.0
230
1.0
 40
0.5773502691896259
 41
5.497787143782134
 42
7.068583470577034
  0
ELLIPSE
  5
46E
330
6C
100
AcDbEntity
  8
Visible Edges(ISO)
100
AcDbEllipse
 10
173.9308846556885
 20
185.6432514620253
 30
0.0
 11
-0.9999999999999015
 21
-1.732050807568946
 31
0.0
210
0.0
220
0.0
230
1.0
 40
0.5773502691896258
 41
3.926990816986993
 42
5.497787143781875
  0
LINE
  5
46F
330
6C
100
AcDbEntity
  8
Visible Tangent Edges(ISO)
100
AcDbLine
 10
180.2948456863674
 20
155.8411262581633
 30
0.0
 11
172.5166710933153
 21
160.3318574532659
 31
0.0
  0
ELLIPSE
  5
470
330
6C
100
AcDbEntity
  8
Visible Edges(ISO)
100
AcDbEllipse
 10
169.6882439685692
 20
149.7174019012054
 30
0.0
 11
-2.000000000000204
 21
-3.464101615137634
 31
0.0
210
0.0
220
0.0
230
0.9999999999999998
 40
0.5773502691896258
 41
0.7853981633976952
 42
2.356194490192583
  0
ELLIPSE
  5
471
330
6C
100
AcDbEntity
  8
Visible Edges(ISO)
100
AcDbEllipse
 10
25.43846060651352
 20
233.0000531558335
 30
0.0
 11
-2.000000000000203
 21
-3.464101615137631
 31
0.0
210
0.0
220
0.0
230
1.0
 40
0.5773502691896258
 41
0.7853981633976828
 42
2.356194490192589
  0
ELLIPSE
  5
472
330
6C
100
AcDbEntity
  8
Visible Edges(ISO)
100
AcDbEllipse
 10
31.0953148560059
 20
268.1094061357257
 30
0.0
 11
-1.999999999999793
 21
-3.464101615137879
 31
0.0
210
0.0
220
0.0
230
1.0
 40
0.5773502691896258
 41
3.926990816987
 42
5.497787143781894
  0
ELLIPSE
  5
473
330
6C
100
AcDbEntity
  8
Visible Edges(ISO)
100
AcDbEllipse
 10
38.8734894490579
 20
272.6001373308282
 30
0.0
 11
2.000000000000007
 21
3.464101615137777
 31
0.0
210
0.0
220
0.0
230
1.0
 40
0.5773502691896258
 41
0.0
 42
0.7853981633974377
  0
ELLIPSE
  5
474
330
6C
100
AcDbEntity
  8
Visible Edges(ISO)
100
AcDbEllipse
 10
183.1232728111136
 20
157.4741194200188
 30
0.0
 11
-1.999999999999996
 21
-3.464101615137749
 31
0.0
210
0.0
220
0.0
230
1.0
 40
0.5773502691896259
 41
5.497787143782139
 42
7.068583470577034
  0
ELLIPSE
  5
475
330
6C
100
AcDbEntity
  8
Visible Edges(ISO)
100
AcDbEllipse
 10
185.9516999358598
 20
162.3730989055852
 30
0.0
 11
-2.0
 21
-3.464101615137756
 31
0.0
210
0.0
220
0.0
230
1.0
 40
0.5773502691896259
 41
5.497787143782134
 42
7.068583470577034
  0
LINE
  5
476
330
6C
100
AcDbEntity
  8
Visible Tangent Edges(ISO)
100
AcDbLine
 10
185.9516999358598
 20
159.1071125818743
 30
0.0
 11
183.1232728111135
 21
160.7401057437297
 31
0.0
  0
ELLIPSE
  5
477
330
6C
100
AcDbEntity
  8
Visible Edges(ISO)
100
AcDbEllipse
 10
180.2948456863674
 20
190.9504792380556
 30
0.0
 11
2.000000000000001
 21
3.464101615137758
 31
0.0
210
0.0
220
0.0
230
1.0
 40
0.5773502691896257
 41
5.497787143782145
 42
7.068583470577034
  0
LINE
  5
478
330
6C
100
AcDbEntity
  8
Visible Tangent Edges(ISO)
100
AcDbLine
 10
38.87348944905791
 20
275.8661236545391
 30
0.0
 11
180.2948456863674
 21
194.2164655617665
 31
0.0
  0
LINE
  5
479
330
6C
100
AcDbEntity
  8
Visible Tangent Edges(ISO)
100
AcDbLine
 10
172.5166710933154
 20
189.7257343666639
 30
0.0
 11
31.0953148560059
 21
271.3753924594366
 31
0.0
  0
ELLIPSE
  5
47A
330
6C
100
AcDbEntity
  8
Visible Edges(ISO)
100
AcDbEllipse
 10
172.5166710933154
 20
186.459748042953
 30
0.0
 11
2.000000000000209
 21
3.464101615137639
 31
0.0
210
0.0
220
0.0
230
1.0
 40
0.5773502691896257
 41
0.7853981633976961
 42
2.356194490192589
  0
LINE
  5
47B
330
6C
100
AcDbEntity
  8
Visible Tangent Edges(ISO)
100
AcDbLine
 10
28.2668877312597
 20
266.4764129738702
 30
0.0
 11
169.6882439685692
 21
184.8267548810976
 31
0.0
  0
LINE
  5
47C
330
6C
100
AcDbEntity
  8
Visible Tangent Edges(ISO)
100
AcDbLine
 10
25.43846060651352
 20
229.7340668321226
 30
0.0
 11
166.859816843823
 21
148.0844087393499
 31
0.0
  0
ELLIPSE
  5
47D
330
6C
100
AcDbEntity
  8
Visible Edges(ISO)
100
AcDbEllipse
 10
166.859816843823
 20
151.3503950630608
 30
0.0
 11
1.99999999999979
 21
3.464101615137867
 31
0.0
210
0.0
220
0.0
230
0.9999999999999998
 40
0.5773502691896258
 41
3.926990816986993
 42
5.497787143781897
  0
LINE
  5
47E
330
6C
100
AcDbEntity
  8
Visible Tangent Edges(ISO)
100
AcDbLine
 10
169.6882439685692
 20
152.9833882249163
 30
0.0
 11
28.26688773125971
 21
234.6330463176889
 31
0.0
  0
LINE
  5
47F
330
6C
100
AcDbEntity
  8
Visible Edges(ISO)
100
AcDbLine
 10
172.5166710933153
 20
158.9790416234598
 30
0.0
 11
181.1232728111136
 21
154.010017804881
 31
0.0
  0
LINE
  5
480
330
6C
100
AcDbEntity
  8
Visible Edges(ISO)
100
AcDbLine
 10
40.8734894490579
 20
276.0642389459659
 30
0.0
 11
182.2948456863674
 21
194.4145808531933
 31
0.0
  0
LINE
  5
481
330
6C
100
AcDbEntity
  8
Visible Edges(ISO)
100
AcDbLine
 10
180.2948456863674
 20
155.8411262581633
 30
0.0
 11
180.2948456863674
 21
189.3174860762001
 31
0.0
  0
LINE
  5
482
330
6C
100
AcDbEntity
  8
Visible Edges(ISO)
100
AcDbLine
 10
178.8806321239943
 20
190.1339826571278
 30
0.0
 11
173.9308846556885
 21
187.2762446238808
 31
0.0
  0
LINE
  5
483
330
6C
100
AcDbEntity
  8
Visible Edges(ISO)
100
AcDbLine
 10
172.5166710933154
 20
184.8267548810976
 30
0.0
 11
172.5166710933154
 21
151.3503950630608
 31
0.0
  0
LINE
  5
484
330
6C
100
AcDbEntity
  8
Visible Edges(ISO)
100
AcDbLine
 10
16.95317923227495
 20
221.5691010228453
 30
0.0
 11
16.95317923227495
 21
224.8350873465562
 31
0.0
  0
LINE
  5
485
330
6C
100
AcDbEntity
  8
Visible Edges(ISO)
100
AcDbLine
 10
16.95317923227495
 20
224.8350873465562
 30
0.0
 11
25.43846060651352
 21
229.7340668321226
 31
0.0
  0
LINE
  5
486
330
6C
100
AcDbEntity
  8
Visible Edges(ISO)
100
AcDbLine
 10
28.26688773125971
 20
234.6330463176889
 30
0.0
 11
28.2668877312597
 21
266.4764129738702
 31
0.0
  0
LINE
  5
487
330
6C
100
AcDbEntity
  8
Visible Edges(ISO)
100
AcDbLine
 10
31.0953148560059
 20
271.3753924594366
 30
0.0
 11
38.87348944905791
 21
275.8661236545391
 31
0.0
  0
LINE
  5
488
330
6C
100
AcDbEntity
  8
Visible Edges(ISO)
100
AcDbLine
 10
194.4369813100984
 20
160.7401057437297
 30
0.0
 11
183.1232728111136
 21
154.2081330963079
 31
0.0
  0
LINE
  5
489
330
6C
100
AcDbEntity
  8
Visible Edges(ISO)
100
AcDbLine
 10
183.1232728111136
 20
192.583472399911
 30
0.0
 11
183.1232728111136
 21
160.7401057437297
 31
0.0
  0
LINE
  5
48A
330
6C
100
AcDbEntity
  8
Visible Edges(ISO)
100
AcDbLine
 10
172.5166710933154
 20
189.7257343666639
 30
0.0
 11
180.2948456863674
 21
194.2164655617665
 31
0.0
  0
LINE
  5
48B
330
6C
100
AcDbEntity
  8
Visible Edges(ISO)
100
AcDbLine
 10
16.95317923227495
 20
224.8350873465562
 30
0.0
 11
158.3745354695845
 21
143.1854292537836
 31
0.0
  0
LINE
  5
48C
330
6C
100
AcDbEntity
  8
Visible Edges(ISO)
100
AcDbLine
 10
158.3745354695845
 20
143.1854292537836
 30
0.0
 11
166.859816843823
 21
148.0844087393499
 31
0.0
  0
LINE
  5
48D
330
6C
100
AcDbEntity
  8
Visible Edges(ISO)
100
AcDbLine
 10
169.6882439685692
 20
152.9833882249163
 30
0.0
 11
169.6882439685692
 21
184.8267548810976
 31
0.0
  0
LINE
  5
48E
330
6C
100
AcDbEntity
  8
Visible Edges(ISO)
100
AcDbLine
 10
185.9516999358598
 20
159.1071125818743
 30
0.0
 11
194.4369813100984
 21
164.0060920674406
 31
0.0
  0
LINE
  5
48F
330
6C
100
AcDbEntity
  8
Visible Edges(ISO)
100
AcDbLine
 10
183.1232728111135
 20
170.5380647148624
 30
0.0
 11
194.4369813100984
 21
164.0060920674406
 31
0.0
  0
LINE
  5
490
330
6C
100
AcDbEntity
  8
Visible Edges(ISO)
100
AcDbLine
 10
194.4369813100984
 20
164.0060920674406
 30
0.0
 11
194.4369813100984
 21
160.7401057437297
 31
0.0
  0
LINE
  5
491
330
6C
100
AcDbEntity
  8
Visible Edges(ISO)
100
AcDbLine
 10
169.6882439685692
 20
146.4514155774945
 30
0.0
 11
158.3745354695845
 21
139.9194429300727
 31
0.0
  0
LINE
  5
492
330
6C
100
AcDbEntity
  8
Visible Edges(ISO)
100
AcDbLine
 10
16.95317923227495
 20
221.5691010228453
 30
0.0
 11
158.3745354695845
 21
139.9194429300727
 31
0.0
  0
LINE
  5
493
330
6C
100
AcDbEntity
  8
Visible Edges(ISO)
100
AcDbLine
 10
158.3745354695845
 20
139.9194429300727
 30
0.0
 11
158.3745354695845
 21
143.1854292537836
 31
0.0
  0
ARC
  5
494
330
6C
100
AcDbEntity
  8
Visible Edges(ISO)
100
AcDbCircle
 10
109.3725039247592
 20
119.8256671070269
 30
0.0
 40
1.99999999999999
100
AcDbArc
 50
0.0
 51
90.00000000000047
  0
ARC
  5
495
330
6C
100
AcDbEntity
  8
Visible Edges(ISO)
100
AcDbCircle
 10
102.3725039247592
 20
119.8256671070268
 30
0.0
 40
2.00000000000001
100
AcDbArc
 50
90.00000000000047
 51
180.0
  0
LINE
  5
496
330
6C
100
AcDbEntity
  8
Visible Edges(ISO)
100
AcDbLine
 10
111.3725039247592
 20
78.82566710702689
 30
0.0
 11
111.3725039247592
 21
119.8256671070268
 31
0.0
  0
LINE
  5
497
330
6C
100
AcDbEntity
  8
Visible Edges(ISO)
100
AcDbLine
 10
109.3725039247592
 20
121.8256671070269
 30
0.0
 11
102.3725039247592
 21
121.8256671070269
 31
0.0
  0
LINE
  5
498
330
6C
100
AcDbEntity
  8
Visible Edges(ISO)
100
AcDbLine
 10
100.3725039247592
 20
119.8256671070268
 30
0.0
 11
100.3725039247592
 21
78.82566710702689
 31
0.0
  0
LINE
  5
499
330
6C
100
AcDbEntity
  8
Visible Edges(ISO)
100
AcDbLine
 10
131.3725039247592
 20
74.82566710702688
 30
0.0
 11
115.3725039247592
 21
74.82566710702688
 31
0.0
  0
LINE
  5
49A
330
6C
100
AcDbEntity
  8
Visible Edges(ISO)
100
AcDbLine
 10
115.3725039247592
 20
121.8256671070269
 30
0.0
 11
115.3725039247592
 21
82.82566710702688
 31
0.0
  0
LINE
  5
49B
330
6C
100
AcDbEntity
  8
Visible Edges(ISO)
100
AcDbLine
 10
100.3725039247592
 20
125.8256671070269
 30
0.0
 11
111.3725039247592
 21
125.8256671070269
 31
0.0
  0
LINE
  5
49C
330
6C
100
AcDbEntity
  8
Visible Edges(ISO)
100
AcDbLine
 10
80.37250392475923
 20
78.82566710702689
 30
0.0
 11
92.37250392475923
 21
78.82566710702689
 31
0.0
  0
LINE
  5
49D
330
6C
100
AcDbEntity
  8
Visible Edges(ISO)
100
AcDbLine
 10
96.37250392475923
 20
82.82566710702688
 30
0.0
 11
96.37250392475921
 21
121.8256671070269
 31
0.0
  0
LINE
  5
49E
330
6C
100
AcDbEntity
  8
Visible Edges(ISO)
100
AcDbLine
 10
119.3725039247592
 20
78.82566710702689
 30
0.0
 11
131.3725039247592
 21
78.82566710702689
 31
0.0
  0
LINE
  5
49F
330
6C
100
AcDbEntity
  8
Visible Edges(ISO)
100
AcDbLine
 10
131.3725039247592
 20
78.82566710702689
 30
0.0
 11
131.3725039247592
 21
74.82566710702688
 31
0.0
  0
LINE
  5
4A0
330
6C
100
AcDbEntity
  8
Visible Edges(ISO)
100
AcDbLine
 10
96.37250392475923
 20
74.82566710702688
 30
0.0
 11
80.37250392475923
 21
74.82566710702688
 31
0.0
  0
LINE
  5
4A1
330
6C
100
AcDbEntity
  8
Visible Edges(ISO)
100
AcDbLine
 10
80.37250392475923
 20
74.82566710702688
 30
0.0
 11
80.37250392475923
 21
78.82566710702689
 31
0.0
  0
ARC
  5
4A2
330
6C
100
AcDbEntity
  8
Visible Edges(ISO)
100
AcDbCircle
 10
96.37250392475923
 20
78.82566710702689
 30
0.0
 40
3.999999999999999
100
AcDbArc
 50
270.0
 51
0.0
  0
ARC
  5
4A3
330
6C
100
AcDbEntity
  8
Visible Edges(ISO)
100
AcDbCircle
 10
115.3725039247592
 20
78.82566710702689
 30
0.0
 40
3.999999999999994
100
AcDbArc
 50
180.0
 51
270.0
  0
ARC
  5
4A4
330
6C
100
AcDbEntity
  8
Visible Edges(ISO)
100
AcDbCircle
 10
119.3725039247592
 20
82.82566710702688
 30
0.0
 40
4.000000000000001
100
AcDbArc
 50
180.0
 51
270.0
  0
ARC
  5
4A5
330
6C
100
AcDbEntity
  8
Visible Edges(ISO)
100
AcDbCircle
 10
111.3725039247592
 20
121.8256671070269
 30
0.0
 40
4.000000000000003
100
AcDbArc
 50
0.0
 51
90.0
  0
ARC
  5
4A6
330
6C
100
AcDbEntity
  8
Visible Edges(ISO)
100
AcDbCircle
 10
100.3725039247592
 20
121.8256671070269
 30
0.0
 40
4.000000000000005
100
AcDbArc
 50
90.0
 51
180.0
  0
ARC
  5
4A7
330
6C
100
AcDbEntity
  8
Visible Edges(ISO)
100
AcDbCircle
 10
92.37250392475926
 20
82.82566710702688
 30
0.0
 40
3.999999999999992
100
AcDbArc
 50
270.0
 51
0.0
  0
DIMENSION
  5
4A8
330
6C
100
AcDbEntity
  8
Dimensions(ISO)
  6
Continuous
 62
     7
370
    25
100
AcDbDimension
  2
*D7
 10
115.3725039247592
 20
135.9423741946181
 30
0.0
 11
105.8725039247592
 21
135.9423741946181
 31
0.0
 70
   160
  1
<>
 42
19.00000000000001
  3
DEFAULT-ISO
100
AcDbAlignedDimension
 13
96.37250392475923
 23
121.8256671070269
 33
0.0
 14
115.3725039247592
 24
121.8256671070269
 34
0.0
100
AcDbRotatedDimension
1001
ACAD
1000
DSTYLE
1002
{
1070
   172
1070
     0
1070
   289
1070
     1
1070
   271
1070
     0
1070
   272
1070
     0
1070
    48
1040
0.0
1070
    47
1040
0.0
1002
}
  0
DIMENSION
  5
58C
330
6C
100
AcDbEntity
  8
Dimensions(ISO)
  6
Continuous
 62
     7
370
    25
100
AcDbDimension
  2
*D8
 10
131.3725039247592
 20
58.8256671070269
 30
0.0
 11
105.8725039247592
 21
58.8256671070269
 31
0.0
 70
   160
  1
<>
 42
51.00000000000001
  3
DEFAULT-ISO
100
AcDbAlignedDimension
 13
80.37250392475923
 23
74.82566710702688
 33
0.0
 14
131.3725039247592
 24
74.82566710702688
 34
0.0
100
AcDbRotatedDimension
1001
ACAD
1000
DSTYLE
1002
{
1070
   172
1070
     0
1070
   289
1070
     1
1070
   271
1070
     0
1070
   272
1070
     0
1070
    48
1040
0.0
1070
    47
1040
0.0
1002
}
  0
DIMENSION
  5
66E
330
6C
100
AcDbEntity
  8
Dimensions(ISO)
  6
Continuous
 62
     7
370
    25
100
AcDbDimension
  2
*D9
 10
64.37250392475927
 20
125.8256671070269
 30
0.0
 11
64.37250392475924
 21
100.3256671070269
 31
0.0
 70
   160
  1
<>
 42
51.00000000000003
  3
DEFAULT-ISO
100
AcDbAlignedDimension
 13
80.37250392475923
 23
74.82566710702688
 33
0.0
 14
100.3725039247592
 24
125.8256671070269
 34
0.0
 50
90.0
100
AcDbRotatedDimension
1001
ACAD
1000
DSTYLE
1002
{
1070
   172
1070
     0
1070
   289
1070
     1
1070
   271
1070
     0
1070
   272
1070
     0
1070
    48
1040
0.0
1070
    47
1040
0.0
1002
}
  0
ENDSEC
  0
SECTION
  2
OBJECTS
  0
DICTIONARY
  5
C
330
0
100
AcDbDictionary
281
     1
  3
ACAD_CIP_PREVIOUS_PRODUCT_INFO
350
750
  3
ACAD_COLOR
350
63
  3
ACAD_GROUP
350
D
  3
ACAD_LAYOUT
350
62
  3
ACAD_MATERIAL
350
10
  3
ACAD_MLEADERSTYLE
350
66
  3
ACAD_MLINESTYLE
350
5F
  3
ACAD_PLOTSETTINGS
350
61
  3
ACAD_PLOTSTYLENAME
350
E
  3
ACAD_SCALELIST
350
42
  3
ACAD_TABLESTYLE
350
64
  3
ACAD_VISUALSTYLE
350
29
  3
ACDB_RECOMPOSE_DATA
350
762
  3
AcDbVariableDictionary
350
751
  3
DWGPROPS
350
763
  0
XRECORD
  5
750
102
{ACAD_REACTORS
330
C
102
}
330
C
100
AcDbXrecord
280
     1
300
INVNTOR
300
2012
300
PDSP_F_S
  0
DICTIONARY
  5
63
102
{ACAD_REACTORS
330
C
102
}
330
C
100
AcDbDictionary
281
     1
  0
DICTIONARY
  5
D
102
{ACAD_REACTORS
330
C
102
}
330
C
100
AcDbDictionary
281
     1
  0
DICTIONARY
  5
62
102
{ACAD_REACTORS
330
C
102
}
330
C
100
AcDbDictionary
281
     1
  3
Layout1
350
6B
  3
Layout2
350
73
  3
Model
350
6F
  0
DICTIONARY
  5
10
102
{ACAD_REACTORS
330
C
102
}
330
C
100
AcDbDictionary
281
     1
  3
ByBlock
350
19
  3
ByLayer
350
11
  3
Global
350
21
  0
DICTIONARY
  5
66
102
{ACAD_REACTORS
330
C
102
}
330
C
100
AcDbDictionary
281
     1
  3
Standard
350
67
  0
DICTIONARY
  5
5F
102
{ACAD_REACTORS
330
C
102
}
330
C
100
AcDbDictionary
281
     1
  3
Standard
350
60
  0
DICTIONARY
  5
61
102
{ACAD_REACTORS
330
C
102
}
330
C
100
AcDbDictionary
281
     1
  0
ACDBDICTIONARYWDFLT
  5
E
102
{ACAD_REACTORS
330
C
102
}
330
C
100
AcDbDictionary
281
     1
  3
Normal
350
F
100
AcDbDictionaryWithDefault
340
F
  0
DICTIONARY
  5
42
102
{ACAD_REACTORS
330
C
102
}
330
C
100
AcDbDictionary
281
     1
  3
A0
350
43
  3
A1
350
44
  3
A2
350
45
  3
A3
350
46
  3
A4
350
47
  3
A5
350
48
  3
A6
350
49
  3
A7
350
4A
  3
A8
350
4B
  3
A9
350
4C
  3
B0
350
4D
  3
B1
350
4E
  3
B2
350
4F
  3
B3
350
50
  3
B4
350
51
  3
B5
350
52
  3
B6
350
53
  0
DICTIONARY
  5
64
102
{ACAD_REACTORS
330
C
102
}
330
C
100
AcDbDictionary
281
     1
  3
Standard
350
65
  0
DICTIONARY
  5
29
102
{ACAD_REACTORS
330
C
102
}
330
C
100
AcDbDictionary
281
     1
  3
2dWireframe
350
2F
  3
Basic
350
2E
  3
Brighten
350
35
  3
ColorChange
350
39
  3
Conceptual
350
32
  3
Dim
350
34
  3
EdgeColorOff
350
41
  3
Facepattern
350
38
  3
Flat
350
2A
  3
FlatWithEdges
350
2B
  3
Gouraud
350
2C
  3
GouraudWithEdges
350
2D
  3
Hidden
350
31
  3
JitterOff
350
3F
  3
Linepattern
350
37
  3
OverhangOff
350
40
  3
Realistic
350
33
  3
Shaded
350
3E
  3
Shaded with edges
350
3D
  3
Shades of Gray
350
3A
  3
Sketchy
350
3B
  3
Thicken
350
36
  3
Wireframe
350
30
  3
X-Ray
350
3C
  0
XRECORD
  5
762
102
{ACAD_REACTORS
330
C
102
}
330
C
100
AcDbXrecord
280
     1
 90
        1
330
65
  0
DICTIONARY
  5
751
102
{ACAD_REACTORS
330
C
102
}
330
C
100
AcDbDictionary
281
     1
  3
CANNOSCALE
350
755
  3
CMLEADERSTYLE
350
753
  3
CTABLESTYLE
350
752
  3
DIMASSOC
350
75C
  3
HIDETEXT
350
75B
  3
INDEXCTL
350
75A
  3
LAYEREVAL
350
757
  3
LAYERNOTIFY
350
758
  3
LIGHTINGUNITS
350
756
  3
MSLTSCALE
350
754
  3
SORTENTS
350
759
  3
XCLIPFRAME
350
75D
  0
XRECORD
  5
763
102
{ACAD_REACTORS
330
C
102
}
330
C
100
AcDbXrecord
280
     1
  1
DWGPROPS COOKIE
  2

  3

  4
davidp
  6

  7

  8

  9

300
Manager=
301
Company=
302
Category=
303
Part Number=298 Channel - RB
304
Description=
305
Project=
306
Designer=davidp
307
Engineer=
308
Authority=
309
Cost Center=
 40
0.0000421296296296
 41
2456329.403354387
 42
2456329.403354387
  1

 90
       16
300
Vendor=
300
User Status=
300
Design Status=WorkInProgress
300
Checked by=
300
Engr Approved by=
300
Mfg Approved by=
  0
LAYOUT
  5
6B
102
{ACAD_XDICTIONARY
360
799
102
}
102
{ACAD_REACTORS
330
62
102
}
330
62
100
AcDbPlotSettings
  1

  2

  4

  6

 40
0.0
 41
0.0
 42
0.0
 43
0.0
 44
0.0
 45
0.0
 46
0.0
 47
0.0
 48
0.0
 49
0.0
140
0.0
141
0.0
142
1.0
143
1.0
 70
   688
 72
     0
 73
     0
 74
     5
  7

 75
    16
147
1.0
148
0.0
149
0.0
100
AcDbLayout
  1
Layout1
 70
     1
 71
     1
 10
0.0
 20
0.0
 11
12.0
 21
9.0
 12
0.0
 22
0.0
 32
0.0
 14
0.0
 24
0.0
 34
0.0
 15
0.0
 25
0.0
 35
0.0
146
0.0
 13
0.0
 23
0.0
 33
0.0
 16
1.0
 26
0.0
 36
0.0
 17
0.0
 27
1.0
 37
0.0
 76
     0
330
68
  0
LAYOUT
  5
73
102
{ACAD_XDICTIONARY
360
79D
102
}
102
{ACAD_REACTORS
330
62
102
}
330
62
100
AcDbPlotSettings
  1

  2

  4

  6

 40
0.0
 41
0.0
 42
0.0
 43
0.0
 44
0.0
 45
0.0
 46
0.0
 47
0.0
 48
0.0
 49
0.0
140
0.0
141
0.0
142
1.0
143
1.0
 70
   688
 72
     0
 73
     0
 74
     5
  7

 75
    16
147
1.0
148
0.0
149
0.0
100
AcDbLayout
  1
Layout2
 70
     1
 71
     2
 10
0.0
 20
0.0
 11
12.0
 21
9.0
 12
0.0
 22
0.0
 32
0.0
 14
0.0
 24
0.0
 34
0.0
 15
0.0
 25
0.0
 35
0.0
146
0.0
 13
0.0
 23
0.0
 33
0.0
 16
1.0
 26
0.0
 36
0.0
 17
0.0
 27
1.0
 37
0.0
 76
     0
330
70
  0
LAYOUT
  5
6F
102
{ACAD_XDICTIONARY
360
79B
102
}
102
{ACAD_REACTORS
330
62
102
}
330
62
100
AcDbPlotSettings
  1

  2

  4

  6

 40
0.0
 41
0.0
 42
0.0
 43
0.0
 44
0.0
 45
0.0
 46
0.0
 47
0.0
 48
0.0
 49
0.0
140
0.0
141
0.0
142
1.0
143
1.0
 70
  1712
 72
     0
 73
     0
 74
     0
  7

 75
     0
147
1.0
148
0.0
149
0.0
100
AcDbLayout
  1
Model
 70
     1
 71
     0
 10
0.0
 20
0.0
 11
12.0
 21
9.0
 12
0.0
 22
0.0
 32
0.0
 14
0.0
 24
0.0
 34
0.0
 15
0.0
 25
0.0
 35
0.0
146
0.0
 13
0.0
 23
0.0
 33
0.0
 16
1.0
 26
0.0
 36
0.0
 17
0.0
 27
1.0
 37
0.0
 76
     0
330
6C
  0
MATERIAL
  5
19
102
{ACAD_XDICTIONARY
360
1A
102
}
102
{ACAD_REACTORS
330
10
102
}
330
10
100
AcDbMaterial
  1
ByBlock
 72
     0
 43
0.0208333333333333
 43
0.0
 43
0.0
 43
0.0
 43
0.0
 43
0.0208333333333333
 43
0.0
 43
0.0
 43
0.0
 43
0.0
 43
1.0
 43
0.0
 43
0.0
 43
0.0
 43
0.0
 43
1.0
 77
     0
 47
0.0208333333333333
 47
0.0
 47
0.0
 47
0.0
 47
0.0
 47
0.0208333333333333
 47
0.0
 47
0.0
 47
0.0
 47
0.0
 47
1.0
 47
0.0
 47
0.0
 47
0.0
 47
0.0
 47
1.0
171
     0
 49
0.0208333333333333
 49
0.0
 49
0.0
 49
0.0
 49
0.0
 49
0.0208333333333333
 49
0.0
 49
0.0
 49
0.0
 49
0.0
 49
1.0
 49
0.0
 49
0.0
 49
0.0
 49
0.0
 49
1.0
175
     0
142
0.0208333333333333
142
0.0
142
0.0
142
0.0
142
0.0
142
0.0208333333333333
142
0.0
142
0.0
142
0.0
142
0.0
142
1.0
142
0.0
142
0.0
142
0.0
142
0.0
142
1.0
179
     0
144
0.0208333333333333
144
0.0
144
0.0
144
0.0
144
0.0
144
0.0208333333333333
144
0.0
144
0.0
144
0.0
144
0.0
144
1.0
144
0.0
144
0.0
144
0.0
144
0.0
144
1.0
147
0.0208333333333333
147
0.0
147
0.0
147
0.0
147
0.0
147
0.0208333333333333
147
0.0
147
0.0
147
0.0
147
0.0
147
1.0
147
0.0
147
0.0
147
0.0
147
0.0
147
1.0
  0
MATERIAL
  5
11
102
{ACAD_XDICTIONARY
360
12
102
}
102
{ACAD_REACTORS
330
10
102
}
330
10
100
AcDbMaterial
  1
ByLayer
 72
     0
 43
0.0208333333333333
 43
0.0
 43
0.0
 43
0.0
 43
0.0
 43
0.0208333333333333
 43
0.0
 43
0.0
 43
0.0
 43
0.0
 43
1.0
 43
0.0
 43
0.0
 43
0.0
 43
0.0
 43
1.0
 77
     0
 47
0.0208333333333333
 47
0.0
 47
0.0
 47
0.0
 47
0.0
 47
0.0208333333333333
 47
0.0
 47
0.0
 47
0.0
 47
0.0
 47
1.0
 47
0.0
 47
0.0
 47
0.0
 47
0.0
 47
1.0
171
     0
 49
0.0208333333333333
 49
0.0
 49
0.0
 49
0.0
 49
0.0
 49
0.0208333333333333
 49
0.0
 49
0.0
 49
0.0
 49
0.0
 49
1.0
 49
0.0
 49
0.0
 49
0.0
 49
0.0
 49
1.0
175
     0
142
0.0208333333333333
142
0.0
142
0.0
142
0.0
142
0.0
142
0.0208333333333333
142
0.0
142
0.0
142
0.0
142
0.0
142
1.0
142
0.0
142
0.0
142
0.0
142
0.0
142
1.0
179
     0
144
0.0208333333333333
144
0.0
144
0.0
144
0.0
144
0.0
144
0.0208333333333333
144
0.0
144
0.0
144
0.0
144
0.0
144
1.0
144
0.0
144
0.0
144
0.0
144
0.0
144
1.0
147
0.0208333333333333
147
0.0
147
0.0
147
0.0
147
0.0
147
0.0208333333333333
147
0.0
147
0.0
147
0.0
147
0.0
147
1.0
147
0.0
147
0.0
147
0.0
147
0.0
147
1.0
  0
MATERIAL
  5
21
102
{ACAD_XDICTIONARY
360
22
102
}
102
{ACAD_REACTORS
330
10
102
}
330
10
100
AcDbMaterial
  1
Global
 72
     0
 43
0.0208333333333333
 43
0.0
 43
0.0
 43
0.0
 43
0.0
 43
0.0208333333333333
 43
0.0
 43
0.0
 43
0.0
 43
0.0
 43
1.0
 43
0.0
 43
0.0
 43
0.0
 43
0.0
 43
1.0
 77
     0
 47
0.0208333333333333
 47
0.0
 47
0.0
 47
0.0
 47
0.0
 47
0.0208333333333333
 47
0.0
 47
0.0
 47
0.0
 47
0.0
 47
1.0
 47
0.0
 47
0.0
 47
0.0
 47
0.0
 47
1.0
171
     0
 49
0.0208333333333333
 49
0.0
 49
0.0
 49
0.0
 49
0.0
 49
0.0208333333333333
 49
0.0
 49
0.0
 49
0.0
 49
0.0
 49
1.0
 49
0.0
 49
0.0
 49
0.0
 49
0.0
 49
1.0
175
     0
142
0.0208333333333333
142
0.0
142
0.0
142
0.0
142
0.0
142
0.0208333333333333
142
0.0
142
0.0
142
0.0
142
0.0
142
1.0
142
0.0
142
0.0
142
0.0
142
0.0
142
1.0
179
     0
144
0.0208333333333333
144
0.0
144
0.0
144
0.0
144
0.0
144
0.0208333333333333
144
0.0
144
0.0
144
0.0
144
0.0
144
1.0
144
0.0
144
0.0
144
0.0
144
0.0
144
1.0
147
0.0208333333333333
147
0.0
147
0.0
147
0.0
147
0.0
147
0.0208333333333333
147
0.0
147
0.0
147
0.0
147
0.0
147
1.0
147
0.0
147
0.0
147
0.0
147
0.0
147
1.0
  0
MLEADERSTYLE
  5
67
102
{ACAD_XDICTIONARY
360
760
102
}
102
{ACAD_REACTORS
330
66
102
}
330
66
100
AcDbMLeaderStyle
170
     2
171
     1
172
     0
 90
        2
 40
0.0
 41
0.0
173
     1
 91
-1056964608
340
5B
 92
       -2
290
     1
 42
0.09
291
     1
 43
0.36
  3
Standard
 44
0.18
300

342
55
174
     1
178
     6
175
     1
176
     0
 93
-1056964608
 45
0.18
292
     0
297
     0
 46
0.18
 94
-1056964608
 47
1.0
 49
1.0
140
1.0
293
     1
141
0.0
294
     1
177
     0
142
1.0
295
     0
296
     0
143
0.125
1001
ACAD_MLEADERVER
1070
     2
  0
MLINESTYLE
  5
60
102
{ACAD_REACTORS
330
5F
102
}
330
5F
100
AcDbMlineStyle
  2
STANDARD
 70
     0
  3

 62
   256
 51
90.0
 52
90.0
 71
     2
 49
0.5
 62
   256
  6
BYLAYER
 49
-0.5
 62
   256
  6
BYLAYER
  0
ACDBPLACEHOLDER
  5
F
102
{ACAD_REACTORS
330
E
102
}
330
E
  0
SCALE
  5
43
102
{ACAD_REACTORS
330
42
102
}
330
42
100
AcDbScale
 70
     0
300
1:1
140
1.0
141
1.0
290
     1
  0
SCALE
  5
44
102
{ACAD_REACTORS
330
42
102
}
330
42
100
AcDbScale
 70
     0
300
1/128" = 1'-0"
140
0.0078125
141
12.0
290
     0
  0
SCALE
  5
45
102
{ACAD_REACTORS
330
42
102
}
330
42
100
AcDbScale
 70
     0
300
1/64" = 1'-0"
140
0.015625
141
12.0
290
     0
  0
SCALE
  5
46
102
{ACAD_REACTORS
330
42
102
}
330
42
100
AcDbScale
 70
     0
300
1/32" = 1'-0"
140
0.03125
141
12.0
290
     0
  0
SCALE
  5
47
102
{ACAD_REACTORS
330
42
102
}
330
42
100
AcDbScale
 70
     0
300
1/16" = 1'-0"
140
0.0625
141
12.0
290
     0
  0
SCALE
  5
48
102
{ACAD_REACTORS
330
42
102
}
330
42
100
AcDbScale
 70
     0
300
3/32" = 1'-0"
140
0.09375
141
12.0
290
     0
  0
SCALE
  5
49
102
{ACAD_REACTORS
330
42
102
}
330
42
100
AcDbScale
 70
     0
300
1/8" = 1'-0"
140
0.125
141
12.0
290
     0
  0
SCALE
  5
4A
102
{ACAD_REACTORS
330
42
102
}
330
42
100
AcDbScale
 70
     0
300
3/16" = 1'-0"
140
0.1875
141
12.0
290
     0
  0
SCALE
  5
4B
102
{ACAD_REACTORS
330
42
102
}
330
42
100
AcDbScale
 70
     0
300
1/4" = 1'-0"
140
0.25
141
12.0
290
     0
  0
SCALE
  5
4C
102
{ACAD_REACTORS
330
42
102
}
330
42
100
AcDbScale
 70
     0
300
3/8" = 1'-0"
140
0.375
141
12.0
290
     0
  0
SCALE
  5
4D
102
{ACAD_REACTORS
330
42
102
}
330
42
100
AcDbScale
 70
     0
300
1/2" = 1'-0"
140
0.5
141
12.0
290
     0
  0
SCALE
  5
4E
102
{ACAD_REACTORS
330
42
102
}
330
42
100
AcDbScale
 70
     0
300
3/4" = 1'-0"
140
0.75
141
12.0
290
     0
  0
SCALE
  5
4F
102
{ACAD_REACTORS
330
42
102
}
330
42
100
AcDbScale
 70
     0
300
1" = 1'-0"
140
1.0
141
12.0
290
     0
  0
SCALE
  5
50
102
{ACAD_REACTORS
330
42
102
}
330
42
100
AcDbScale
 70
     0
300
1-1/2" = 1'-0"
140
1.5
141
12.0
290
     0
  0
SCALE
  5
51
102
{ACAD_REACTORS
330
42
102
}
330
42
100
AcDbScale
 70
     0
300
3" = 1'-0"
140
3.0
141
12.0
290
     0
  0
SCALE
  5
52
102
{ACAD_REACTORS
330
42
102
}
330
42
100
AcDbScale
 70
     0
300
6" = 1'-0"
140
6.0
141
12.0
290
     0
  0
SCALE
  5
53
102
{ACAD_REACTORS
330
42
102
}
330
42
100
AcDbScale
 70
     0
300
1'-0" = 1'-0"
140
12.0
141
12.0
290
     0
  0
TABLESTYLE
  5
65
102
{ACAD_XDICTIONARY
360
75E
102
}
102
{ACAD_REACTORS
330
64
102
}
330
64
100
AcDbTableStyle
  3
Standard
 70
     0
 71
     0
 40
0.06
 41
0.06
280
     0
281
     0
  7
Standard
140
0.18
170
     2
 62
     0
 63
     7
283
     0
274
    -2
284
     1
 64
     0
275
    -2
285
     1
 65
     0
276
    -2
286
     1
 66
     0
277
    -2
287
     1
 67
     0
278
    -2
288
     1
 68
     0
279
    -2
289
     1
 69
     0
  7
Standard
140
0.25
170
     5
 62
     0
 63
     7
283
     0
274
    -2
284
     1
 64
     0
275
    -2
285
     1
 65
     0
276
    -2
286
     1
 66
     0
277
    -2
287
     1
 67
     0
278
    -2
288
     1
 68
     0
279
    -2
289
     1
 69
     0
  7
Standard
140
0.18
170
     5
 62
     0
 63
     7
283
     0
274
    -2
284
     1
 64
     0
275
    -2
285
     1
 65
     0
276
    -2
286
     1
 66
     0
277
    -2
287
     1
 67
     0
278
    -2
288
     1
 68
     0
279
    -2
289
     1
 69
     0
  0
VISUALSTYLE
  5
2F
102
{ACAD_XDICTIONARY
360
771
102
}
102
{ACAD_REACTORS
330
29
102
}
330
29
100
AcDbVisualStyle
  2
2dWireframe
 70
     4
 71
     0
 72
     2
 73
     0
 90
        0
 40
-0.6
 41
-30.0
 62
     5
 63
     7
 74
     1
 91
        4
 64
     7
 65
   257
 75
     1
175
     1
 42
1.0
 92
        0
 66
   257
 43
1.0
 76
     1
 77
     6
 78
     2
 67
     7
 79
     5
170
     0
171
     0
290
     0
174
     0
 93
        1
 44
0.0
173
     0
291
     0
 45
0.0
1001
ACAD
1000
AcDbSavedByObjectVersion
1070
     0
  0
VISUALSTYLE
  5
2E
102
{ACAD_XDICTIONARY
360
76F
102
}
102
{ACAD_REACTORS
330
29
102
}
330
29
100
AcDbVisualStyle
  2
Basic
 70
     7
 71
     1
 72
     0
 73
     1
 90
        0
 40
-0.6
 41
-30.0
 62
     5
 63
     7
 74
     0
 91
        4
 64
     7
 65
   257
 75
     1
175
     1
 42
1.0
 92
        8
 66
     7
 43
1.0
 76
     1
 77
     6
 78
     2
 67
     7
 79
     5
170
     0
171
     0
290
     0
174
     0
 93
        1
 44
0.0
173
     0
291
     1
 45
0.0
1001
ACAD
1000
AcDbSavedByObjectVersion
1070
     0
  0
VISUALSTYLE
  5
35
102
{ACAD_XDICTIONARY
360
77D
102
}
102
{ACAD_REACTORS
330
29
102
}
330
29
100
AcDbVisualStyle
  2
Brighten
 70
    12
 71
     2
 72
     2
 73
     0
 90
        0
 40
-0.6
 41
-30.0
 62
     5
 63
     7
 74
     1
 91
        4
 64
     7
 65
   257
 75
     1
175
     1
 42
1.0
 92
        8
 66
     7
 43
1.0
 76
     1
 77
     6
 78
     2
 67
     7
 79
     5
170
     0
171
     0
290
     0
174
     0
 93
        1
 44
50.0
173
     0
291
     1
 45
0.0
1001
ACAD
1000
AcDbSavedByObjectVersion
1070
     0
  0
VISUALSTYLE
  5
39
102
{ACAD_XDICTIONARY
360
785
102
}
102
{ACAD_REACTORS
330
29
102
}
330
29
100
AcDbVisualStyle
  2
ColorChange
 70
    16
 71
     2
 72
     2
 73
     3
 90
        0
 40
-0.6
 41
-30.0
 62
     5
 63
     8
 74
     1
 91
        4
 64
     7
 65
   257
 75
     1
175
     1
 42
1.0
 92
        8
 66
     8
 43
1.0
 76
     1
 77
     6
 78
     2
 67
     7
 79
     5
170
     0
171
     0
290
     0
174
     0
 93
        1
 44
0.0
173
     0
291
     1
 45
0.0
1001
ACAD
1000
AcDbSavedByObjectVersion
1070
     0
  0
VISUALSTYLE
  5
32
102
{ACAD_XDICTIONARY
360
777
102
}
102
{ACAD_REACTORS
330
29
102
}
330
29
100
AcDbVisualStyle
  2
Conceptual
 70
     9
 71
     3
 72
     2
 73
     0
 90
        0
 40
-0.6
 41
-30.0
 62
     5
 63
     7
 74
     2
 91
        2
 64
     7
 65
   257
 75
     1
175
     1
 42
179.0
 92
        8
 66
     7
 43
1.0
 76
     1
 77
     6
 78
     2
 67
     7
 79
     3
170
     0
171
     0
290
     0
174
     0
 93
        1
 44
0.0
173
     0
291
     0
 45
0.0
1001
ACAD
1000
AcDbSavedByObjectVersion
1070
     0
  0
VISUALSTYLE
  5
34
102
{ACAD_XDICTIONARY
360
77B
102
}
102
{ACAD_REACTORS
330
29
102
}
330
29
100
AcDbVisualStyle
  2
Dim
 70
    11
 71
     2
 72
     2
 73
     0
 90
        0
 40
-0.6
 41
-30.0
 62
     5
 63
     7
 74
     1
 91
        4
 64
     7
 65
   257
 75
     1
175
     1
 42
1.0
 92
        8
 66
     7
 43
1.0
 76
     1
 77
     6
 78
     2
 67
     7
 79
     5
170
     0
171
     0
290
     0
174
     0
 93
        1
 44
-50.0
173
     0
291
     1
 45
0.0
1001
ACAD
1000
AcDbSavedByObjectVersion
1070
     0
  0
VISUALSTYLE
  5
41
102
{ACAD_XDICTIONARY
360
795
102
}
102
{ACAD_REACTORS
330
29
102
}
330
29
100
AcDbVisualStyle
  2
EdgeColorOff
 70
    22
 71
     2
 72
     2
 73
     0
 90
        0
 40
-0.6
 41
-30.0
 62
     5
 63
     7
 74
     1
 91
        4
 64
     7
 65
   257
 75
     1
175
     1
 42
1.0
 92
        8
 66
     7
 43
1.0
 76
     1
 77
     6
 78
     2
 67
     7
 79
     5
170
     0
171
     0
290
     0
174
     0
 93
        1
 44
0.0
173
     0
291
     1
 45
0.0
1001
ACAD
1000
AcDbSavedByObjectVersion
1070
     0
  0
VISUALSTYLE
  5
38
102
{ACAD_XDICTIONARY
360
783
102
}
102
{ACAD_REACTORS
330
29
102
}
330
29
100
AcDbVisualStyle
  2
Facepattern
 70
    15
 71
     2
 72
     2
 73
     0
 90
        0
 40
-0.6
 41
-30.0
 62
     5
 63
     7
 74
     1
 91
        4
 64
     7
 65
   257
 75
     1
175
     1
 42
1.0
 92
        8
 66
     7
 43
1.0
 76
     1
 77
     6
 78
     2
 67
     7
 79
     5
170
     0
171
     0
290
     0
174
     0
 93
        1
 44
0.0
173
     0
291
     1
 45
0.0
1001
ACAD
1000
AcDbSavedByObjectVersion
1070
     0
  0
VISUALSTYLE
  5
2A
102
{ACAD_XDICTIONARY
360
767
102
}
102
{ACAD_REACTORS
330
29
102
}
330
29
100
AcDbVisualStyle
  2
Flat
 70
     0
 71
     2
 72
     1
 73
     1
 90
        2
 40
-0.6
 41
30.0
 62
     5
 63
     7
 74
     0
 91
        0
 64
     7
 65
   257
 75
     1
175
     1
 42
1.0
 92
        8
 66
     7
 43
1.0
 76
     1
 77
     6
 78
     2
 67
     7
 79
     5
170
     0
171
     0
290
     0
174
     0
 93
       13
 44
0.0
173
     0
291
     1
 45
0.0
1001
ACAD
1000
AcDbSavedByObjectVersion
1070
     0
  0
VISUALSTYLE
  5
2B
102
{ACAD_XDICTIONARY
360
769
102
}
102
{ACAD_REACTORS
330
29
102
}
330
29
100
AcDbVisualStyle
  2
FlatWithEdges
 70
     1
 71
     2
 72
     1
 73
     1
 90
        2
 40
-0.6
 41
30.0
 62
     5
 63
     7
 74
     1
 91
        0
 64
     7
 65
   257
 75
     1
175
     1
 42
1.0
 92
        0
 66
   257
 43
1.0
 76
     1
 77
     6
 78
     2
 67
     7
 79
     5
170
     0
171
     0
290
     0
174
     0
 93
       13
 44
0.0
173
     0
291
     1
 45
0.0
1001
ACAD
1000
AcDbSavedByObjectVersion
1070
     0
  0
VISUALSTYLE
  5
2C
102
{ACAD_XDICTIONARY
360
76B
102
}
102
{ACAD_REACTORS
330
29
102
}
330
29
100
AcDbVisualStyle
  2
Gouraud
 70
     2
 71
     2
 72
     2
 73
     1
 90
        2
 40
-0.6
 41
30.0
 62
     5
 63
     7
 74
     0
 91
        0
 64
     7
 65
   257
 75
     1
175
     1
 42
1.0
 92
        0
 66
     7
 43
1.0
 76
     1
 77
     6
 78
     2
 67
     7
 79
     5
170
     0
171
     0
290
     0
174
     0
 93
       13
 44
0.0
173
     0
291
     1
 45
0.0
1001
ACAD
1000
AcDbSavedByObjectVersion
1070
     0
  0
VISUALSTYLE
  5
2D
102
{ACAD_XDICTIONARY
360
76D
102
}
102
{ACAD_REACTORS
330
29
102
}
330
29
100
AcDbVisualStyle
  2
GouraudWithEdges
 70
     3
 71
     2
 72
     2
 73
     1
 90
        2
 40
-0.6
 41
30.0
 62
     5
 63
     7
 74
     1
 91
        0
 64
     7
 65
   257
 75
     1
175
     1
 42
1.0
 92
        0
 66
   257
 43
1.0
 76
     1
 77
     6
 78
     2
 67
     7
 79
     5
170
     0
171
     0
290
     0
174
     0
 93
       13
 44
0.0
173
     0
291
     1
 45
0.0
1001
ACAD
1000
AcDbSavedByObjectVersion
1070
     0
  0
VISUALSTYLE
  5
31
102
{ACAD_XDICTIONARY
360
775
102
}
102
{ACAD_REACTORS
330
29
102
}
330
29
100
AcDbVisualStyle
  2
Hidden
 70
     6
 71
     1
 72
     2
 73
     2
 90
        0
 40
-0.6
 41
-30.0
 62
     5
 63
     7
 74
     2
 91
        2
 64
     7
 65
   257
 75
     2
175
     1
 42
40.0
 92
        0
 66
   257
 43
1.0
 76
     1
 77
     6
 78
     2
 67
     7
 79
     3
170
     0
171
     0
290
     0
174
     0
 93
        1
 44
0.0
173
     0
291
     0
 45
0.0
1001
ACAD
1000
AcDbSavedByObjectVersion
1070
     0
  0
VISUALSTYLE
  5
3F
102
{ACAD_XDICTIONARY
360
791
102
}
102
{ACAD_REACTORS
330
29
102
}
330
29
100
AcDbVisualStyle
  2
JitterOff
 70
    20
 71
     2
 72
     2
 73
     0
 90
        0
 40
-0.6
 41
-30.0
 62
     5
 63
     7
 74
     1
 91
        4
 64
     7
 65
   257
 75
     1
175
     1
 42
1.0
 92
       10
 66
     7
 43
1.0
 76
     1
 77
     6
 78
     2
 67
     7
 79
     5
170
     0
171
     0
290
     0
174
     0
 93
        1
 44
0.0
173
     0
291
     1
 45
0.0
1001
ACAD
1000
AcDbSavedByObjectVersion
1070
     0
  0
VISUALSTYLE
  5
37
102
{ACAD_XDICTIONARY
360
781
102
}
102
{ACAD_REACTORS
330
29
102
}
330
29
100
AcDbVisualStyle
  2
Linepattern
 70
    14
 71
     2
 72
     2
 73
     0
 90
        0
 40
-0.6
 41
-30.0
 62
     5
 63
     7
 74
     1
 91
        4
 64
     7
 65
   257
 75
     7
175
     7
 42
1.0
 92
        8
 66
     7
 43
1.0
 76
     1
 77
     6
 78
     2
 67
     7
 79
     5
170
     0
171
     0
290
     0
174
     0
 93
        1
 44
0.0
173
     0
291
     1
 45
0.0
1001
ACAD
1000
AcDbSavedByObjectVersion
1070
     0
  0
VISUALSTYLE
  5
40
102
{ACAD_XDICTIONARY
360
793
102
}
102
{ACAD_REACTORS
330
29
102
}
330
29
100
AcDbVisualStyle
  2
OverhangOff
 70
    21
 71
     2
 72
     2
 73
     0
 90
        0
 40
-0.6
 41
-30.0
 62
     5
 63
     7
 74
     1
 91
        4
 64
     7
 65
   257
 75
     1
175
     1
 42
1.0
 92
        9
 66
     7
 43
1.0
 76
     1
 77
     6
 78
     2
 67
     7
 79
     5
170
     0
171
     0
290
     0
174
     0
 93
        1
 44
0.0
173
     0
291
     1
 45
0.0
1001
ACAD
1000
AcDbSavedByObjectVersion
1070
     0
  0
VISUALSTYLE
  5
33
102
{ACAD_XDICTIONARY
360
779
102
}
102
{ACAD_REACTORS
330
29
102
}
330
29
100
AcDbVisualStyle
  2
Realistic
 70
     8
 71
     2
 72
     3
 73
     0
 90
        2
 40
-0.6
 41
30.0
 62
     5
 63
     7
 74
     0
 91
        0
 64
     7
 65
   257
 75
     1
175
     1
 42
1.0
 92
        8
 66
   257
 43
1.0
 76
     1
 77
     6
 78
     2
 67
     7
 79
     3
170
     0
171
     0
290
     0
174
     0
 93
       13
 44
0.0
173
     0
291
     0
 45
0.0
1001
ACAD
1000
AcDbSavedByObjectVersion
1070
     0
  0
VISUALSTYLE
  5
3E
102
{ACAD_XDICTIONARY
360
78F
102
}
102
{ACAD_REACTORS
330
29
102
}
330
29
100
AcDbVisualStyle
  2
Shaded
 70
    27
 71
     2
 72
     2
 73
     1
 90
        2
 40
-0.6
 41
30.0
 62
     5
 63
     7
 74
     0
 91
        4
 64
     7
 65
   257
 75
     1
175
     1
 42
1.0
 92
        8
 66
   257
 43
1.0
 76
     1
 77
     6
 78
     2
 67
     8
 79
     3
170
     0
171
     0
290
     0
174
     0
 93
        5
 44
0.0
173
     0
291
     0
 45
0.0
1001
ACAD
1000
AcDbSavedByObjectVersion
1070
     0
  0
VISUALSTYLE
  5
3D
102
{ACAD_XDICTIONARY
360
78D
102
}
102
{ACAD_REACTORS
330
29
102
}
330
29
100
AcDbVisualStyle
  2
Shaded with edges
 70
    26
 71
     2
 72
     2
 73
     1
 90
        2
 40
-0.6
 41
30.0
 62
     5
 63
     7
 74
     1
 91
       10
 64
     7
 65
   257
 75
     2
175
     1
 42
1.0
 92
        8
 66
   257
 43
1.0
 76
     1
 77
     6
 78
     2
 67
     7
 79
     3
170
     0
171
     0
290
     0
174
     0
 93
        5
 44
0.0
173
     0
291
     0
 45
0.0
1001
ACAD
1000
AcDbSavedByObjectVersion
1070
     0
  0
VISUALSTYLE
  5
3A
102
{ACAD_XDICTIONARY
360
787
102
}
102
{ACAD_REACTORS
330
29
102
}
330
29
100
AcDbVisualStyle
  2
Shades of Gray
 70
    23
 71
     2
 72
     2
 73
     3
 90
        0
 40
-0.6
 41
-30.0
 62
     5
 63
     7
 74
     2
 91
        2
 64
     7
 65
     7
 75
     1
175
     1
 42
40.0
 92
        8
 66
     7
 43
1.0
 76
     1
 77
     6
 78
     2
 67
     7
 79
     3
170
     0
171
     0
290
     0
174
     0
 93
        1
 44
0.0
173
     0
291
     0
 45
0.0
1001
ACAD
1000
AcDbSavedByObjectVersion
1070
     0
  0
VISUALSTYLE
  5
3B
102
{ACAD_XDICTIONARY
360
789
102
}
102
{ACAD_REACTORS
330
29
102
}
330
29
100
AcDbVisualStyle
  2
Sketchy
 70
    24
 71
     1
 72
     2
 73
     2
 90
        0
 40
-0.6
 41
-30.0
 62
     5
 63
     7
 74
     2
 91
        2
 64
     7
 65
     7
 75
     1
175
     1
 42
40.0
 92
       11
 66
     7
 43
1.0
 76
     1
 77
     6
 78
     2
 67
     7
 79
     6
170
     0
171
     0
290
     0
174
     0
 93
        1
 44
0.0
173
     0
291
     0
 45
0.0
1001
ACAD
1000
AcDbSavedByObjectVersion
1070
     0
  0
VISUALSTYLE
  5
36
102
{ACAD_XDICTIONARY
360
77F
102
}
102
{ACAD_REACTORS
330
29
102
}
330
29
100
AcDbVisualStyle
  2
Thicken
 70
    13
 71
     2
 72
     2
 73
     0
 90
        0
 40
-0.6
 41
-30.0
 62
     5
 63
     7
 74
     1
 91
        4
 64
     7
 65
   257
 75
     1
175
     1
 42
1.0
 92
       12
 66
     7
 43
1.0
 76
     1
 77
     6
 78
     2
 67
     7
 79
     5
170
     0
171
     0
290
     0
174
     0
 93
        1
 44
0.0
173
     0
291
     1
 45
0.0
1001
ACAD
1000
AcDbSavedByObjectVersion
1070
     0
  0
VISUALSTYLE
  5
30
102
{ACAD_XDICTIONARY
360
773
102
}
102
{ACAD_REACTORS
330
29
102
}
330
29
100
AcDbVisualStyle
  2
Wireframe
 70
     5
 71
     0
 72
     2
 73
     0
 90
        0
 40
-0.6
 41
-30.0
 62
     5
 63
     7
 74
     1
 91
        4
 64
     7
 65
   257
 75
     1
175
     1
 42
1.0
 92
        0
 66
   257
 43
1.0
 76
     1
 77
     6
 78
     2
 67
     7
 79
     3
170
     0
171
     0
290
     0
174
     0
 93
        1
 44
0.0
173
     0
291
     0
 45
0.0
1001
ACAD
1000
AcDbSavedByObjectVersion
1070
     0
  0
VISUALSTYLE
  5
3C
102
{ACAD_XDICTIONARY
360
78B
102
}
102
{ACAD_REACTORS
330
29
102
}
330
29
100
AcDbVisualStyle
  2
X-Ray
 70
    25
 71
     2
 72
     2
 73
     1
 90
        1
 40
0.5
 41
-30.0
 62
     5
 63
     7
 74
     1
 91
        0
 64
     7
 65
   257
 75
     1
175
     1
 42
1.0
 92
        8
 66
     7
 43
1.0
 76
     1
 77
     6
 78
     2
 67
     7
 79
     3
170
     0
171
     0
290
     0
174
     0
 93
       13
 44
0.0
173
     0
291
     0
 45
0.0
1001
ACAD
1000
AcDbSavedByObjectVersion
1070
     0
  0
DICTIONARYVAR
  5
755
102
{ACAD_REACTORS
330
751
102
}
330
751
100
DictionaryVariables
280
     0
  1
1:1
  0
DICTIONARYVAR
  5
753
102
{ACAD_REACTORS
330
751
102
}
330
751
100
DictionaryVariables
280
     0
  1
STANDARD
  0
DICTIONARYVAR
  5
752
102
{ACAD_REACTORS
330
751
102
}
330
751
100
DictionaryVariables
280
     0
  1
STANDARD
  0
DICTIONARYVAR
  5
75C
102
{ACAD_REACTORS
330
751
102
}
330
751
100
DictionaryVariables
280
     0
  1
1
  0
DICTIONARYVAR
  5
75B
102
{ACAD_REACTORS
330
751
102
}
330
751
100
DictionaryVariables
280
     0
  1
1
  0
DICTIONARYVAR
  5
75A
102
{ACAD_REACTORS
330
751
102
}
330
751
100
DictionaryVariables
280
     0
  1
0
  0
DICTIONARYVAR
  5
757
102
{ACAD_REACTORS
330
751
102
}
330
751
100
DictionaryVariables
280
     0
  1
0
  0
DICTIONARYVAR
  5
758
102
{ACAD_REACTORS
330
751
102
}
330
751
100
DictionaryVariables
280
     0
  1
0
  0
DICTIONARYVAR
  5
756
102
{ACAD_REACTORS
330
751
102
}
330
751
100
DictionaryVariables
280
     0
  1
2
  0
DICTIONARYVAR
  5
754
102
{ACAD_REACTORS
330
751
102
}
330
751
100
DictionaryVariables
280
     0
  1
1
  0
DICTIONARYVAR
  5
759
102
{ACAD_REACTORS
330
751
102
}
330
751
100
DictionaryVariables
280
     0
  1
127
  0
DICTIONARYVAR
  5
75D
102
{ACAD_REACTORS
330
751
102
}
330
751
100
DictionaryVariables
280
     0
  1
2
  0
DICTIONARY
  5
799
330
6B
100
AcDbDictionary
280
     1
281
     1
  3
ACAD_XREC_ROUNDTRIP
360
79A
  0
DICTIONARY
  5
79D
330
73
100
AcDbDictionary
280
     1
281
     1
  3
ACAD_XREC_ROUNDTRIP
360
79E
  0
DICTIONARY
  5
79B
330
6F
100
AcDbDictionary
280
     1
281
     1
  3
ACAD_XREC_ROUNDTRIP
360
79C
  0
DICTIONARY
  5
1A
330
19
100
AcDbDictionary
280
     1
281
     1
  3
ACAD_XREC_ROUNDTRIP
360
765
  3
BUMPTILE
360
1C
  3
DIFFUSETILE
360
1B
  3
OPACITYTILE
360
1F
  3
REFLECTIONTILE
360
1E
  3
REFRACTIONTILE
360
20
  3
SPECULARTILE
360
1D
  0
DICTIONARY
  5
12
330
11
100
AcDbDictionary
280
     1
281
     1
  3
ACAD_XREC_ROUNDTRIP
360
764
  3
BUMPTILE
360
14
  3
DIFFUSETILE
360
13
  3
FBXASSET
360
1B7
  3
OPACITYTILE
360
17
  3
REFLECTIONTILE
360
16
  3
REFRACTIONTILE
360
18
  3
SPECULARTILE
360
15
  0
DICTIONARY
  5
22
330
21
100
AcDbDictionary
280
     1
281
     1
  3
ACAD_XREC_ROUNDTRIP
360
766
  3
BUMPTILE
360
24
  3
DIFFUSETILE
360
23
  3
OPACITYTILE
360
27
  3
REFLECTIONTILE
360
26
  3
REFRACTIONTILE
360
28
  3
SPECULARTILE
360
25
  0
DICTIONARY
  5
760
330
67
100
AcDbDictionary
280
     1
281
     1
  3
ACAD_XREC_ROUNDTRIP
360
761
  0
DICTIONARY
  5
75E
330
65
100
AcDbDictionary
280
     1
281
     1
  3
ACAD_ROUNDTRIP_2008_TABLESTYLE_CELLSTYLEMAP
360
75F
  3
ACAD_XREC_ROUNDTRIP
360
797
  0
DICTIONARY
  5
771
330
2F
100
AcDbDictionary
280
     1
281
     1
  3
ACAD_XREC_ROUNDTRIP
360
772
  0
DICTIONARY
  5
76F
330
2E
100
AcDbDictionary
280
     1
281
     1
  3
ACAD_XREC_ROUNDTRIP
360
770
  0
DICTIONARY
  5
77D
330
35
100
AcDbDictionary
280
     1
281
     1
  3
ACAD_XREC_ROUNDTRIP
360
77E
  0
DICTIONARY
  5
785
330
39
100
AcDbDictionary
280
     1
281
     1
  3
ACAD_XREC_ROUNDTRIP
360
786
  0
DICTIONARY
  5
777
330
32
100
AcDbDictionary
280
     1
281
     1
  3
ACAD_XREC_ROUNDTRIP
360
778
  0
DICTIONARY
  5
77B
330
34
100
AcDbDictionary
280
     1
281
     1
  3
ACAD_XREC_ROUNDTRIP
360
77C
  0
DICTIONARY
  5
795
330
41
100
AcDbDictionary
280
     1
281
     1
  3
ACAD_XREC_ROUNDTRIP
360
796
  0
DICTIONARY
  5
783
330
38
100
AcDbDictionary
280
     1
281
     1
  3
ACAD_XREC_ROUNDTRIP
360
784
  0
DICTIONARY
  5
767
330
2A
100
AcDbDictionary
280
     1
281
     1
  3
ACAD_XREC_ROUNDTRIP
360
768
  0
DICTIONARY
  5
769
330
2B
100
AcDbDictionary
280
     1
281
     1
  3
ACAD_XREC_ROUNDTRIP
360
76A
  0
DICTIONARY
  5
76B
330
2C
100
AcDbDictionary
280
     1
281
     1
  3
ACAD_XREC_ROUNDTRIP
360
76C
  0
DICTIONARY
  5
76D
330
2D
100
AcDbDictionary
280
     1
281
     1
  3
ACAD_XREC_ROUNDTRIP
360
76E
  0
DICTIONARY
  5
775
330
31
100
AcDbDictionary
280
     1
281
     1
  3
ACAD_XREC_ROUNDTRIP
360
776
  0
DICTIONARY
  5
791
330
3F
100
AcDbDictionary
280
     1
281
     1
  3
ACAD_XREC_ROUNDTRIP
360
792
  0
DICTIONARY
  5
781
330
37
100
AcDbDictionary
280
     1
281
     1
  3
ACAD_XREC_ROUNDTRIP
360
782
  0
DICTIONARY
  5
793
330
40
100
AcDbDictionary
280
     1
281
     1
  3
ACAD_XREC_ROUNDTRIP
360
794
  0
DICTIONARY
  5
779
330
33
100
AcDbDictionary
280
     1
281
     1
  3
ACAD_XREC_ROUNDTRIP
360
77A
  0
DICTIONARY
  5
78F
330
3E
100
AcDbDictionary
280
     1
281
     1
  3
ACAD_XREC_ROUNDTRIP
360
790
  0
DICTIONARY
  5
78D
330
3D
100
AcDbDictionary
280
     1
281
     1
  3
ACAD_XREC_ROUNDTRIP
360
78E
  0
DICTIONARY
  5
787
330
3A
100
AcDbDictionary
280
     1
281
     1
  3
ACAD_XREC_ROUNDTRIP
360
788
  0
DICTIONARY
  5
789
330
3B
100
AcDbDictionary
280
     1
281
     1
  3
ACAD_XREC_ROUNDTRIP
360
78A
  0
DICTIONARY
  5
77F
330
36
100
AcDbDictionary
280
     1
281
     1
  3
ACAD_XREC_ROUNDTRIP
360
780
  0
DICTIONARY
  5
773
330
30
100
AcDbDictionary
280
     1
281
     1
  3
ACAD_XREC_ROUNDTRIP
360
774
  0
DICTIONARY
  5
78B
330
3C
100
AcDbDictionary
280
     1
281
     1
  3
ACAD_XREC_ROUNDTRIP
360
78C
  0
XRECORD
  5
79A
102
{ACAD_REACTORS
330
799
102
}
330
799
100
AcDbXrecord
280
     1
102
SHADEPLOT
 70
     0
102
SHADEPLOTRESLEVEL
 70
     2
102
SHADEPLOTCUSTOMDPI
 70
   300
  0
XRECORD
  5
79E
102
{ACAD_REACTORS
330
79D
102
}
330
79D
100
AcDbXrecord
280
     1
102
SHADEPLOT
 70
     0
102
SHADEPLOTRESLEVEL
 70
     2
102
SHADEPLOTCUSTOMDPI
 70
   300
  0
XRECORD
  5
79C
102
{ACAD_REACTORS
330
79B
102
}
330
79B
100
AcDbXrecord
280
     1
102
SHADEPLOT
 70
     0
102
SHADEPLOTRESLEVEL
 70
     2
102
SHADEPLOTCUSTOMDPI
 70
   300
  0
XRECORD
  5
765
102
{ACAD_REACTORS
330
1A
102
}
330
1A
100
AcDbXrecord
280
     1
102
MATERIAL
148
0.0
149
0.0
149
0.0
 93
        0
 94
      127
282
     0
 72
     0
 77
     0
171
     0
175
     0
179
     0
273
     0
  0
XRECORD
  5
1C
102
{ACAD_REACTORS
330
1A
102
}
330
1A
100
AcDbXrecord
280
     1
270
     1
271
     1
  0
XRECORD
  5
1B
102
{ACAD_REACTORS
330
1A
102
}
330
1A
100
AcDbXrecord
280
     1
270
     1
271
     1
  0
XRECORD
  5
1F
102
{ACAD_REACTORS
330
1A
102
}
330
1A
100
AcDbXrecord
280
     1
270
     1
271
     1
  0
XRECORD
  5
1E
102
{ACAD_REACTORS
330
1A
102
}
330
1A
100
AcDbXrecord
280
     1
270
     1
271
     1
  0
XRECORD
  5
20
102
{ACAD_REACTORS
330
1A
102
}
330
1A
100
AcDbXrecord
280
     1
270
     1
271
     1
  0
XRECORD
  5
1D
102
{ACAD_REACTORS
330
1A
102
}
330
1A
100
AcDbXrecord
280
     1
270
     1
271
     1
  0
XRECORD
  5
764
102
{ACAD_REACTORS
330
12
102
}
330
12
100
AcDbXrecord
280
     1
102
MATERIAL
148
0.0
149
0.0
149
0.0
 93
        0
 94
      127
282
     0
 72
     0
 77
     0
171
     0
175
     0
179
     0
273
     0
  0
XRECORD
  5
14
102
{ACAD_REACTORS
330
12
102
}
330
12
100
AcDbXrecord
280
     1
270
     1
271
     1
  0
XRECORD
  5
13
102
{ACAD_REACTORS
330
12
102
}
330
12
100
AcDbXrecord
280
     1
270
     1
271
     1
  0
XRECORD
  5
1B7
102
{ACAD_REACTORS
330
12
102
}
330
12
100
AcDbXrecord
280
     1
 70
     1
 90
1959938040
 71
     1
  1
E6286C92-1A9A-4FEA-ADC0-5CF1F1AA36BD
311
504B03040A00000800001A4D45423DEE336E79000000790000001B0000006175746F6465736B2D64657369676E2D7061636B6167652E786D6C3C3F786D6C2076657273696F6E3D22312E302220656E636F64696E673D227574662D3822203F3E3C666F726D6174733E3C666F726D61743E687474703A2F2F736368656D612E
311
6175746F6465736B2E636F6D2F64657369676E2D7061636B6167652F323030393C2F666F726D61743E3C2F666F726D6174733E504B03041400060808001A4D4542D486FD9CA0000000F4000000130000005B436F6E74656E745F54797065735D2E786D6C7D8EC10E82300C865F65E91D8A1E8C310C0EEA1BF002731658846E
311
D98AC1B77784ABF1D8FE5FBFBF75BBCE937A534CCEB38643598122B6FEE978D0B0485F9C41B54DDD7D022595594E1A469170414C76A4D9A4D207E29CF43ECE46F218070CC6BECC4078ACAA135ACF422C856C0E68EA1BF5669944DDD7BCDE7B1F8E415D77AECB980613C2E4AC91FC167A2B244592486606FC29C8FD7F045B9A
311
EF7053A7E60B504B03041400060808001A4D4542D4F95196EA0000007C01000008000000636F72652E786D6C8D904D6EC3201085AF82665B61030EB66361A2A6CD0D7A0184898B128365A0EAF10BF991DA5D57337AF3BE99D11387EFE58ABECC16AC7723D08A00324EFBC9BA798414CFB807749062F33EFEB201726A312314
311
19A498379FD687A4BD8BC6C5AC3A3F9987A842301190BEE66684A03FCDA22A956276844BB52A7D51B3A9E8B3CB704A7642F72376CAFBECD99A0D64DBD037DE911EF75D73C4BBB63DE257C6DFF1A96D79D3B19E9F3A2AEA024B11EDF2BCAF37A3A2994032421B4C1826FC83EC871D19387B21742044D4C5FE074AEBF44F2859
311
171BF678F78E0590E591DB408ABA6491CB2DA85C4B6EF207504B03041400060808001A4D454255019EA25F0000007C00000007000000636E782E786D6C4DCB3B0E80201045D1AD90E915ED2CF8AC45050C11660C8261F98AB1B07AC9C97D42D718D865D3E909258CFD00CCE24AC6E326A164D74DC0B4128928FF326038472B
311
A13128B1252AC747C6BAB984FC68F0B87FE8960A5C09FE86CFB69FBA01504B03041400060808001A4D45423C86C68067010000020300000C0000006662782F636F72652E786D6C8D525B6E833010BC8AE5DFCAD8408034328E9A3637E8051C70280AD8C8D828C7EFF28868AA288A908C35B3B33B3BC0F7D7B64183B27D6D74
311
8EC38061A47461CA5A5739F6EE4CB618ED05B7C6B83F651869D9AA1C8F3016BCB2C6770B5418ED9476806A53AA05947DAF1C464503971CF7C58F6A6520BD838AFE1274B2B8C84A05610034D409DE3B0B06D03C643CB1389FAE9CCEB8E0DED7E5C2D6254CABCFB5B258A471F899646C4BB6597C209B343D908F28F922C7344D
311
E22CDA26C72CE474140BEEEAF6E6AEB04A3A556211B130262C222CF966EFBB0DDB25D11B0B778C713A96DF897C57BE28F2B57671B4D89D653D16A39189F8B72D44E4502F07F04305A76388F09A12BE0F1A0281909D3C35B73D2E000DAA70C66E80298D5FA941365EC15486A687D39985CE5303D8EC619FE8499FE73DE0034A
311
5D8135E9E07AF26E9CCEE7A94B149DB2647057A48D6D65B39A9B2DAEE73AE8A1BC308DB1AFA8E9B22A5DC2A4E3DF2B7E01504B03041400060808001A4D4542DB3FB1DB7E0000009D0000000B0000006662782F636E782E786D6C4DCCD10E82201886E15B61FF394906191BE022F23E5CA263223482D6E5A7CD838EBEEDD9B7
311
57B49FC5A3B74D2F178384E38100B2E11107172609258FF802A85522C598FF6E8042BF58091B8312538AE5B9D360C7BEF8BCAA7761DE916B73A78476B866D733A69A9DB0E635C79498A6638C35C4DCA052A2FA95D6DDC2EA0B504B03041400060808001A4D454266F924E52D01000014020000310000006662782F39424445
311
343034462D323541362D344235332D423932392D3430443746353535373044432F636F72652E786D6C8D515B6EC32010BC8AC557AACAF6DA06278E3051D33427E8051C20294A0C168F2AC72FD48ED4FEE58745B333B3A35DBABB8FB7EC5B5AA78CEE515500CAA4E646287DE951F0E77C83B21DA3D618FF8786323D8CB24709
311
468C5EAC09D30271A3BDD43EA2DA08B9808373D2A38CDFE2A7478E7FC9712886E023C35D8B69E0D7E1228BAA88EDC863D4791B0364F390F422D6ED0F1F18F031AFC95B9BE33D69F27D57773986C3FA480859C3E19D96B390D1109458E44AC438EAACA47DD6248919F56A7CC4E7560E5E0AC46AA89A1CEA1CC827745B0C5B52
311
BF42B505A065A2FF1385493C290A4AFBA65EE2CE32875845CBB9C1A830E1747B8491F7C9589FA5792B27F90B6250405543DBAE1B5ACED4B880E8D9E2C5D37963E38257D753645764366E31A365BA512CBF078C35DD93FD00504B03041400060808001A4D45420BDD41A44E01000033030000300000006662782F3942444534
311
3034462D323541362D344235332D423932392D3430443746353535373044432F636E782E786D6CD593C16EC32010447F0571AD6CE3C489DA0813A9877E410FBD62D82434182CC055F3F75D1292E692438FBD206B7698593D61BEFD1E2DF982108D773D6D6B460938E5B571FB9ECE69573D53B2153C789FEE6C943839424FB3
311
4C05DF073F4F45D2B093B34DA85AE38E450C10FD1C144494F34D62BD921603C055338A300EA035687233E2D70E02AE82E27022E900E4EDF583F8E113548ABCC9298237B943F07C96A63B1325CACA187B1AD5014659CB39790DF1586B9964DDD6D7AE073BFD26917CE15A39074372794FF34945D9A8468EBCC1A1E03105A457
311
4CE9340115729AAC513221E4E66CBC78049F8D4BEBAE780D820FE86ED7CBAEC3B0F34CF06446280E154026D0542C58BBACD8A262AB77F6B2E9D866B57862ED8631DE64BBE083F7B65CC218087E22CABB042E51D1F2268F1FE12B3EA24D40D63E9CFE00120194D60B9D5BC67FE6D39CDF37E20AF817881F504B030414000608
311
08001A4D4542DDC334CF9B0500007B100000340000006662782F39424445343034462D323541362D344235332D423932392D3430443746353535373044432F6F626A656374732E786D6CAD575D6FA33814FD2B887D06429276DB156594264D15CD766634D18CF6A152E480A1DE9A0FD9A693EEAFDF63300432499B5DCD0B60
311
635FDF7BEEB91F0E3EEC326EBD50215991DFD8BE3BB22D9A4745CCF2F4C6AE54E25CD9D687301045A17ACB6C2B2719BDB1F5B41D06A928AAD24CC53421155707B3CBDBBF2C19D19CDA56C4899437B68C9E68465C52A922A6F2D98D89226E9AEC5CDF6D160EC5A682944F07424B2268AEA029E67348B11AA5FCE170647B61E0
311
E9FF61A09F66D5E4F42AAFB667783ECBA52279F4D361076226FE747137BEB8762EA6D38933BD1CFBCEEDF276E1F8BF4F46F3CBF9FC7A76778D83A5129064341134B1C37B6023581478CDAF30A858AE2663B3C438C813F485694FD9E1D8F203AF59D359678C3CA67E54E4398D6AAC80466D9F111DD392E6317CCEA884663D84
311
46C3A1AF71ECFD9EE8B139B23F7D1E02FD1D3D41ADEEEDBBAF69B1FD1B26C873182424D50C6CB03486365C1DED11DE160537FF98B432A2A860845B9C6D0511AF7688A57A49180CC468260B1D0DDA023B84179ADF43BA208CDEE7F9312D938A734D633BACA3608358A14AD69AB17FA8D86BDF47063AC1579A0D57C620F55A52
311
3BBC6E287275C0A606482BE12485CB61A6DE39191F183AD771BA5AD8E1C7E576B7D6B17BFCF0521425154AD307D46A1DD7BE354A4627FF2CCFE90DF6812A7B50BE02F94F08F5BD2AF09B60BBE96E6A4E5182E432294406DF5823CB19E131B2FCFAA9BF7B5F81D76D1E7AEF149E70B686EA17E039B4A1EFCB1E9C61F002C217
311
62624C5B4784236D3CB01C00699258BCC014F270B2DDD9E10A590E5919BB080F7D980C755FF01978460C12457D52EF9D03CB83B4784682066C3523A146437EA3E0DE4F3FA5B3FA60B3EC14BC17BF84AEB3C5FAE3BA120989E88389E9054D58CE144ADC9E377D8506980F2C7AA6AF3F0A11C3D09FF15EF7F1CECC5112686BCC
311
35F0699BD3F5607FF2E08008FBD242A79BE09D1360842EAC3DF90F4C46947392D3A26ACF7DB37EA06C3410EB60D74CEE0ACCBEB08034CD9F831844918E042B35885DB5EA92A67BC2BA6FAB4F60A41DDEBEFE495EFBD96BBBCFBD51C10BB1D9BE6E9AB47414EAEF436E1B0C3C2D0574AF83A48D7F03FA266649524924C123B8
311
7E5FCDFBBED3690129A295DA44CB14F623B88830A46DE5A25A0B824A5AE41B86BA89B83B7A405F3E20350CA8059ED258529E6C18E755B649184735DA64A43C01C7FFD77F5B65E586644595AB13B207AAA33A0C751FB057FE202A7AB2C375FD766E917B631A9F2083AE2547B01AB8F6EE727C7539BF1E3BFEEC7AE64C977733
311
67B6988F9C8BF9D25FFAB3D9E4F276D1FAA9D1240CDA52D38F687809A52DA80433EEFBB642FC982460870F44C9C7FB263CDBF7B7958B5E38F0B007F5B2DB388B5FD0F7D1F87D01FB954705ADB292D38CE68AE8187AD01FFC2B419F3150A6995F6524A56748F97CBF3E30063367ECFBA2E39DFE38D86B66E73A208F0A514F55
311
B6CD09E3071BD30649B7CC53835FEB93EEDD149A76A847C631E84C65C1598C3C185B292D32AA900DCF284222A312D4EBF7F4B1B97B9CB1FBA5E91015D972DA6AF244D0247389B000B5AA480DE7ADDFD0D4E9BEEAC646B9759FF13099C2B6C0991B1B4DBA621195EE16055AB742B57070A9DFC9A3F12779CAD16B379BBA71B7
311
4B633328C9DD9273FA27635793C28D01482325FA063444F04EAD4C18D4BA99FFD17F32BC55C7220A9FDB4A75B6EC273A63EA6310A28D51E6B68026E6D91CBD43A0BE6D96EFD66B06889C75CB7A93048D54471191D63705AD9F5169B6F8E2A143B1569FAD9257297C79BE24475090B9D2010E16811546664914A83AFFE3F18B
311
287093CDAC2503051EE7459615B919CCCC4DD85A3FE15E1B3F222D507D21918FE3913F7EAC2F02E66EB2D912495D12CB674CC0A78275100F1C0F4636B74554A0E647B7CED34E38E0E66A61999236855043947E56D5B0A0E5C8A985E8D197491D2BFD05E59B7701AF5E0A1504BAF8F05F504B03041400060800001A4D454200
311
0000000000000000000000350000006662782F39424445343034462D323541362D344235332D423932392D3430443746353535373044432F76657274696365732E62696E504B03041400060808001A4D4542F270F1330600000004000000360000006662782F39424445343034462D323541362D344235332D423932392D34
311
30443746353535373044432F747269616E676C65732E62696E636660600000504B03041400060800001A4D4542000000000000000000000000370000006662782F39424445343034462D323541362D344235332D423932392D3430443746353535373044432F617474726962757465732E62696E504B03041400060808001A
311
4D4542D5987DFC8F00000041010000360000006662782F39424445343034462D323541362D344235332D423932392D3430443746353535373044432F6469726563746F72792E786D6C858F410EC2201045AF4266AF15DDB800BA74E7C21B903225242D6328188F2FA5C4183471359997F9FF81E89FF3C41E1816475E02DF1F
311
80A11FC8386F25A438EECEC07A250251FC3803E6F58C12560C4AD840E95E91C151A72936F496F35732D860FE635F62C8F2DA16B505C545B74125BAA2FA9E05D7CC053D063734D5C7665FD55B6B8D15D5E9BFEAFD8490FFA45E504B03041400060808001A4D45422498C5E6FD000000A00100003B0000006662782F39424445
311
343034462D323541362D344235332D423932392D3430443746353535373044432F7265736F75726365732F636F72652E786D6C8D504B6E833010BD0A9A6D65B021408A8CA3A6CD0D7A01CB4CA89560237FAA1EBF76A052BBEB6666F43E9AA7C74F5FCBBDF844E7B53523B092428146D9499B798418AEE408C54970676DF825
311
83C2C80547C830083E3B1BD71D52D6043421A1C64EB883D27B0C50A87B3A46F0EA031759CA1892C2DFCA55AA9B9CB16465A2934E701F5C0A506C4FF204E1D0DBE8147A5E6DACE031EA69D7E829FDD4578D0E44D7B0D7B6A73D39F6CD991CBAEE4C5EEAF68D5CBAAE6DFAFAD85E7AC6AB6C163CE8E527A37228034E206ACA1A
311
426B42DB77FA3C1CE8D0D64F940D94F22ACBFF98E23AFDD314B5094DBDC7DD6C1E440EF22004AF725F693DCA4C3B772BBE01504B010214000A00000800001A4D45423DEE336E79000000790000001B00000000000000000000000000000000006175746F6465736B2D64657369676E2D7061636B6167652E786D6C504B0102
311
14001400060808001A4D4542D486FD9CA0000000F40000001300000000000000000000000000B20000005B436F6E74656E745F54797065735D2E786D6C504B010214001400060808001A4D4542D4F95196EA0000007C010000080000000000000000000000000083010000636F72652E786D6C504B01021400140006080800
311
1A4D454255019EA25F0000007C000000070000000000000000000000000093020000636E782E786D6C504B010214001400060808001A4D45423C86C68067010000020300000C00000000000000000000000000170300006662782F636F72652E786D6C504B010214001400060808001A4D4542DB3FB1DB7E0000009D000000
311
0B00000000000000000000000000A80400006662782F636E782E786D6C504B010214001400060808001A4D454266F924E52D0100001402000031000000000000000000000000004F0500006662782F39424445343034462D323541362D344235332D423932392D3430443746353535373044432F636F72652E786D6C504B01
311
0214001400060808001A4D45420BDD41A44E010000330300003000000000000000000000000000CB0600006662782F39424445343034462D323541362D344235332D423932392D3430443746353535373044432F636E782E786D6C504B010214001400060808001A4D4542DDC334CF9B0500007B1000003400000000000000
311
000000000000670800006662782F39424445343034462D323541362D344235332D423932392D3430443746353535373044432F6F626A656374732E786D6C504B010214001400060800001A4D45420000000000000000000000003500000000000000000000000000540E00006662782F39424445343034462D323541362D34
311
4235332D423932392D3430443746353535373044432F76657274696365732E62696E504B010214001400060808001A4D4542F270F13306000000040000003600000000000000000000000000A70E00006662782F39424445343034462D323541362D344235332D423932392D3430443746353535373044432F747269616E67
311
6C65732E62696E504B010214001400060800001A4D45420000000000000000000000003700000000000000000000000000010F00006662782F39424445343034462D323541362D344235332D423932392D3430443746353535373044432F617474726962757465732E62696E504B010214001400060808001A4D4542D5987D
311
FC8F000000410100003600000000000000000000000000560F00006662782F39424445343034462D323541362D344235332D423932392D3430443746353535373044432F6469726563746F72792E786D6C504B010214001400060808001A4D45422498C5E6FD000000A00100003B0000000000000000000000000039100000
311
6662782F39424445343034462D323541362D344235332D423932392D3430443746353535373044432F7265736F75726365732F636F72652E786D6C504B0506000000000E000E00800400008F1100000000
310
504B03040A00000800001A4D45423DEE336E79000000790000001B0000006175746F6465736B2D64657369676E2D7061636B6167652E786D6C3C3F786D6C2076657273696F6E3D22312E302220656E636F64696E673D227574662D3822203F3E3C666F726D6174733E3C666F726D61743E687474703A2F2F736368656D612E
310
6175746F6465736B2E636F6D2F64657369676E2D7061636B6167652F323030393C2F666F726D61743E3C2F666F726D6174733E504B03041400060808001A4D4542D486FD9CA0000000F4000000130000005B436F6E74656E745F54797065735D2E786D6C7D8EC10E82300C865F65E91D8A1E8C310C0EEA1BF002731658846E
310
D98AC1B77784ABF1D8FE5FBFBF75BBCE937A534CCEB38643598122B6FEE978D0B0485F9C41B54DDD7D022595594E1A469170414C76A4D9A4D207E29CF43ECE46F218070CC6BECC4078ACAA135ACF422C856C0E68EA1BF5669944DDD7BCDE7B1F8E415D77AECB980613C2E4AC91FC167A2B244592486606FC29C8FD7F045B9A
310
EF7053A7E60B504B03041400060808001A4D45425EDBDBFEE80000007C01000008000000636F72652E786D6C8D90416EC3201045AF82665BE10031AE6D61B288DC13F402088883128365A0EAF18B13476A776533A3CF7F33A32F4EDFF31D7DD935BAE007A0150164BD0EC6F969809C2EB8057492620D21FDB201F26AB6036C
310
324831AD212FBBA4834FD6A7A2FA60EC2EAA186D02A4EFA51920EAAB9D55A5722A8E78AB16A56F6AB2157D7505CED919F45CE24C99E72ECEAE20C7F268DD9DF1C8DB16D77464B8639CE28FEEBDA1E786378C1371D86029929B5FFBF56A55B2062423F48809C3847F92AEAF49CFD91BA13D29D066FF03E5C5FC13CACEA723DB
310
CF7D6211242D873C3EA4386C5994F208AAD42D37F903504B03041400060808001A4D454255019EA25F0000007C00000007000000636E782E786D6C4DCB3B0E80201045D1AD90E915ED2CF8AC45050C11660C8261F98AB1B07AC9C97D42D718D865D3E909258CFD00CCE24AC6E326A164D74DC0B4128928FF326038472BA131
310
28B1252AC747C6BAB984FC68F0B87FE8960A5C09FE86CFB69FBA01504B03041400060808001A4D45429B58F84564010000020300000C0000006662782F636F72652E786D6C8D525B6E833010BC8AE5DF0A6C134843649C8F283D412FE0804351C0467EA01CBFCB23A2A9A228208135B3B33B3BC00FB7AE4583B2AE31BAC02C
310
A618295D9AAAD1758183BF443B8C0E825B63FC9F328CB4EC548147180B5E5B13FA052A8DF64A7B40B5A9D4024AE794C7A86CE1506057FEA84EC63278A870D7B897E555D62A6631D05027B8F3160CA079C8F8C4E272BE7132E38287D0540BDB5430ADB934CA6271828BA5F9313A65BB5D94B25312E549C6A2AFFC73CB8EDB6C
310
9B649493512CB86FBABBBBD22AE955854542D926A24944B36F9AEF53BACF920FCAF6144463F98328F4D59BA2D068BF4916BBB3CC61C1C0C844FCDB1622F2C8C901FC10C1C91822BCA6841F83864020642FCFED7D8F2B40832ABDB1293095092B35C83628984AD1747332B3D0796A009B3DED93BCE8F3BA077C40A96BB0263D
310
1CCFC18FD3F93C7589A257361AFC0D69633BD9AEE6668BEB731DF4545E9AD6D877D46459952C6192F1EF15BF504B03041400060808001A4D454216575EEA7E0000009D0000000B0000006662782F636E782E786D6C4DCCDD0A832018C6F15B91F7DCF54EEC0BD4B0A2FB886511330DA76397BF1A1DECE8811F0F7FD17C364B
310
DE26BC56EF24DC6F08C4B8879F56B7484871A615904689E07DFCBB0171E366249C0C4A2CC1A7FDA2C9CC63B2F150BBBAE785381458733D5064ACA75C771DD53AAF695B62D5F2128B9EE5902991FD4AC79E61F505504B03041400060808001A4D4542DACE106D2B01000014020000310000006662782F30463630393441462D
310
303232442D344143432D414135392D4237303842343730364432352F636F72652E786D6C8D515B6EC32010BC0AE22B55651BDBD8790813398972825EC00592A2C460F1A872FC2EB523B57FF961D1ECCCECC0B2FD63BCA36FE5BCB6A6C3654E30524658A9CDB5C3315CB20D467BCE9CB5E10F0D23338CAAC309C69C5D9D8DD3
310
02096B8232015063A55AC0C17B15301277B874D88B2F350EF9100330FC2D9F06711BAE2A2F7368038F331F1C0440F39074624ECE2DD9D2FE9C91AA3A65B43F1EB3BE6FB6D9614D3607BA26EDA96A58310B398B51CB45AE25C4D117ADDCAB2649CC59D0E333BE706A084A625E91B2860019693EC87647C9AEA9DE49B9238415
310
89FE4F1427F9A2286A13EA6A893BCB3CE6252BE60667D2C6CFFB338C7A4CD60594E6ADBC126FF0AA1C62ADEB9A5256CC54F800F06CE9E2E98375F0C1ABDB27B0EBC5B8A59C156947507E170835ED93FF00504B03041400060808001A4D45426D7A8EB35601000033030000300000006662782F30463630393441462D303232
310
442D344143432D414135392D4237303842343730364432352F636E782E786D6CBD93C16EC32010447F0571AD6C63C789D20813A9877E410FBD62D82434365880ABE6EFBB2424CD25874A552FC89A1D66564F986FBFC6817C820FC6D98ED625A304AC72DAD87D47E7B82BD6946C05F7CEC53B1B25568ED0D12453C1F7DECD53
310
9634ECE43C445407638F59F410DCEC150494D34D323825070C005BCC28C2D883D6A0C9CD885F3BF0B80A8AFD89C40390D79777E2FA0F5031F02AA5085EA50EC1D3999BEE4C94A84186D0D1A00E30CA52CED16908C752CB28CBBABC763DD8E92789A40BD7CAD91B92CA3B9A4E2AF2462572E4150E050FD123BD6C8AA709A890
310
D33418252342AECEC68B47F0D9D8B86AB3D720788FEE45B35AAF31EC3C133C9A11B24379901134150DAB17056B0AB67C63CF9B966D96CD13AB378CF12AD905EF9D1BF2258C01EF26A29C8D60231535AFD2F811BEEC23DA7864EDFCE9172011406EBDD0B965FC259F7AB568DB7FE4539DDF37E2F2F817886F504B0304140006
310
0808001A4D45423AA1217B5A070000941B0000340000006662782F30463630393441462D303232442D344143432D414135392D4237303842343730364432352F6F626A656374732E786D6CED59DD739B3810FF5718EED9D8D84EAEB921741CBBE978EED276EA6BE71E32C3C820135D84602491C4F7D7DFEA030CC424F89A7B
310
EB830D0869B5FBDB4F2DC1FBA78C3A0F980B92B34BD7F726AE83599C2784A5976E2977A377AEF33E0C789ECBC634D76128C397AE1A76C320E57959D8A104EF50496567F4FAEA2F47C49861D7892912E2D215F11DCE90874A992758DC7B0992C84B774F9EEF99896DB22947C55D87688138661238857106541CC394DF7E9CB8
310
E33018ABF761A0FEEDACD9A059F3FE59632D759B4BC284442C7EC65287CC6C104B337FBEFA303DBB189DCDE7B3D1FC7CEA8FAEAEAF5623FFD7D96479BE5C5E2C3E5C007BDB3CA756A604179825A0BFBD1BFAC158BDA945B7081CE33ACE19C3B10612A0D2627509122C60AB067C93F6A3AF246ABCD612369EE7EABD65A1313C
310
6B53E99B350C88165D10C46E57495C5D9BF2E5DBBF417031C428B9C012B8159283762D3C1CBCC20D27C1D88C86C1F6A00B229C0C49CC09A20E255B8E382805A6AA296160165832CA3938907294045A73E675DBB6C0335F779D635CEE4A4A9567B8A176AC08DC0F4BA13923FF607EE0BE890CF004D29684C977964BB92FB01B
310
5E04633D1806EA329BDA9706486747512A3422E66D47D0A572FDF5CA0D7FBFDE3E6D543838BE79C1F30273A98C4EE951F305866CAF0A25BBAD3F48736A01086340B52B0FA07C05E43F41F438B0027AE3E469FE34B77325474CEC729E816E9C89339AC0DFC4F1F5BFBA6FDC05E37A715B7B7D78829B2AA8DEFD389E6D193456
310
96FF069C61F000069FF3997DB58911057BBE210C005246E2D01C8620B4EFB64F6EB886C009811E56211AFA2032B0FB00B7C1D8923968A5722FEB750C10B57BCC86280960D316096CF4E8E923640F4EE2839A9A22F6C17BF626E6BA586D7EDF947C87627C637D7A857784110959F338432DCC5B12DDE3FD63CE1310F439DE9B
310
26DE99DD4A00DA0A73057C5A81A01E0E3BB73688615D9AAB7013BCB20308A1727583FE0D1131A614319C97D5BE757453865A7BBCAD19DC706A209E4D3B26CCF10351550538CD61468B51C8FB31278502D10D3F1AC9EAA0E9F548F76DFD092CB29EDF336BCD20F43244FFD441EB080E2DCBAE90B640D4026F0FE13CCE69CEA3
310
ED3E3291CE855A02D8687BCBF7165188F546498A0A7890F6BB2AA4A446DA2821BB5D2920AE1E61F1FB7AD934878937F3CF9CE67FC719E7106DC17711B77ED7D92322194A71B44349DF76CDDD6ADA4293EC21CDF18E825CE481C87D84643449707A0A342711BF7853EA29CD85200C0BC85747C16FA231F12090186D562C2BAD
310
76802622CAB044F4140414991E7075DAD1356E0CA5C3EB3CD6D6FB92C69A44FF278BE0086AC99C45044A51C821AF32EE7B671043DAE81A943BF882B555B4B518B4841222DE478F98A477F214D40DF91EDC6338929432CA0B1483590F20FBCC5794523BBC6F517CAFF2471497F4AD0C4460BA8B08A56516C18F3038790C71ED
310
3A30BD884283B8897D126750942159F2219B9C9F4D9EED636A866E086C6CB42314C27694A1A207F55640D4F58853836FA9F728755B664584B2BC64830CC59B75BDC992EFAA55911DC8AF2A15A16CAC085B82614098ACB36A15B3C1D475600537D2816A1F099415D49CC25E493C7EED4D9A72EF06DCFAE9DB6E9041E1D7A3BD
310
66449D5730581E5B8581784432BE73C38DBE8EAEA0FE4E707248F555ADD9AC00013115C94B4EAC8ABEADA1BCB1359A1BDE20296E3F9AAC5B5DBFAD3DE87E04635803B54BBD70AD80CE309348552637EA867E4510825B34CCF85AE5D453A82C9244578D885E933E75B6CA88D6A619F18A3BCCF20C7EEC96B0989609BE4589B8
310
8F6E248D3644B16EA5F4325261FCA2809F3F6E3AF0C0C80091BEA8020F3F76D6DAD1A52A978E12917765B6658840106C89961ADD78054BAD462A2DD75775A680BA0B0CCCAA78FEF364D16C47FC3C59A4D6307EE86471B5FF03ED9B7D91463A8F955D9F740CA8F393A2F216C700DD76A8A9D659C424732BBF75A608826215E5
310
07576355D03004FB38FECF59BB2F0B9AED3AFC9F96B5FD6715C74959A5355975A98E54AEEB660EFB703E7D77BEBC988EFCC5C56234BFFEB0182D56CBC9E86C79ED5FFB8BC5ECFC6A55A3A91D350CEA60A673173C9BA0560DAB278B017465454E4902A7F9C44931C47C0967FA01ED739E6101C9B3D9EC4E6C537EC0EA07D3E7
310
94684B71C5C91D8206311590D601A33296ED71E717684D4A38685FBAD034F2EEE1CF5AA5EB40E6B974A15520498C85B78536936AE869E2907275EEB7C4001FC4529512CDA2FAB95EA5B06985FF7ACA903460E56AF530A0702BA0FBD5EA5068DE2C4FF1498257EC3848C2EDB69450AD19590E03B5307A9B83FA8D6C94B07BBB
310
F513B8EECB62F99E9ED34264D02783178DC0501D49C453DDEF568C599616AB2F63E8B339EBCF4E41CB1474399CD2886330E6521554604560159666812498EAF2B7DB2F3C874F3C99A3ABA2DB659E6539B30F0B388F25F089C8D9DCC1079FE416CA06ACDAEAE2763AF1A7B7BA9D6D3BECD11609ECA97A0806AA324289D03136
310
B0C867AD29DBB81C2B2574A6AF578E0D9FD0063016F4ACBB6B3E6F39E03DEA438AF215EDE1959C2F76B4C77A2A5803875E74F82F504B03041400060800001A4D4542000000000000000000000000350000006662782F30463630393441462D303232442D344143432D414135392D4237303842343730364432352F76657274
310
696365732E62696E504B03041400060808001A4D4542F270F1330600000004000000360000006662782F30463630393441462D303232442D344143432D414135392D4237303842343730364432352F747269616E676C65732E62696E636660600000504B03041400060800001A4D4542000000000000000000000000370000
310
006662782F30463630393441462D303232442D344143432D414135392D4237303842343730364432352F617474726962757465732E62696E504B03041400060808001A4D4542D5987DFC8F00000041010000360000006662782F30463630393441462D303232442D344143432D414135392D4237303842343730364432352F
310
6469726563746F72792E786D6C858F410EC2201045AF4266AF15DDB800BA74E7C21B903225242D6328188F2FA5C4183471359997F9FF81E89FF3C41E1816475E02DF1F80A11FC8386F25A438EECEC07A250251FC3803E6F58C12560C4AD840E95E91C151A72936F496F35732D860FE635F62C8F2DA16B505C545B74125BAA2
310
FA9E05D7CC053D063734D5C7665FD55B6B8D15D5E9BFEAFD8490FFA45E504B03041400060808001A4D45424D70F566FB000000A00100003B0000006662782F30463630393441462D303232442D344143432D414135392D4237303842343730364432352F7265736F75726365732F636F72652E786D6C8D50DB6A843010FD15
310
99D7124DB26A57895968B15FD01F0871D6865D13C9A5F4F31B570BED5BF39019CE85391C71F95AEEC527FA609C1D8095140AB4DA4DC6CE03A4782567282E5278E7E22F1914562D38C0068314B377693D20ED6C441B336ADD8407A842C00885BEE76580A03F7051A54A312BC2AD5C95BEA9194B56663AEBA408D1E700C57E64
310
FB417A0C2E798D41543B2B454A663A3466CA37CDD5A00739E6C7EAEE858CCDF94C6A3672D2F18691B7EEB965AF6DD3F2868A6A334B11CDF293517B541127909CB213A19CD0E69D767D4DFB863F51D6D36CDAE47F4C699DFE694AC6C6133FE2EEB60092E5200F428A6AEB2B8F4799796EDDCA6F504B010214000A0000080000
310
1A4D45423DEE336E79000000790000001B00000000000000000000000000000000006175746F6465736B2D64657369676E2D7061636B6167652E786D6C504B010214001400060808001A4D4542D486FD9CA0000000F40000001300000000000000000000000000B20000005B436F6E74656E745F54797065735D2E786D6C50
310
4B010214001400060808001A4D45425EDBDBFEE80000007C010000080000000000000000000000000083010000636F72652E786D6C504B010214001400060808001A4D454255019EA25F0000007C000000070000000000000000000000000091020000636E782E786D6C504B010214001400060808001A4D45429B58F84564
310
010000020300000C00000000000000000000000000150300006662782F636F72652E786D6C504B010214001400060808001A4D454216575EEA7E0000009D0000000B00000000000000000000000000A30400006662782F636E782E786D6C504B010214001400060808001A4D4542DACE106D2B010000140200003100000000
310
0000000000000000004A0500006662782F30463630393441462D303232442D344143432D414135392D4237303842343730364432352F636F72652E786D6C504B010214001400060808001A4D45426D7A8EB356010000330300003000000000000000000000000000C40600006662782F30463630393441462D303232442D34
310
4143432D414135392D4237303842343730364432352F636E782E786D6C504B010214001400060808001A4D45423AA1217B5A070000941B00003400000000000000000000000000680800006662782F30463630393441462D303232442D344143432D414135392D4237303842343730364432352F6F626A656374732E786D6C
310
504B010214001400060800001A4D45420000000000000000000000003500000000000000000000000000141000006662782F30463630393441462D303232442D344143432D414135392D4237303842343730364432352F76657274696365732E62696E504B010214001400060808001A4D4542F270F1330600000004000000
310
3600000000000000000000000000671000006662782F30463630393441462D303232442D344143432D414135392D4237303842343730364432352F747269616E676C65732E62696E504B010214001400060800001A4D45420000000000000000000000003700000000000000000000000000C11000006662782F3046363039
310
3441462D303232442D344143432D414135392D4237303842343730364432352F617474726962757465732E62696E504B010214001400060808001A4D4542D5987DFC8F000000410100003600000000000000000000000000161100006662782F30463630393441462D303232442D344143432D414135392D42373038423437
310
30364432352F6469726563746F72792E786D6C504B010214001400060808001A4D45424D70F566FB000000A00100003B00000000000000000000000000F91100006662782F30463630393441462D303232442D344143432D414135392D4237303842343730364432352F7265736F75726365732F636F72652E786D6C504B05
310
06000000000E000E00800400004D1300000000
  0
XRECORD
  5
17
102
{ACAD_REACTORS
330
12
102
}
330
12
100
AcDbXrecord
280
     1
270
     1
271
     1
  0
XRECORD
  5
16
102
{ACAD_REACTORS
330
12
102
}
330
12
100
AcDbXrecord
280
     1
270
     1
271
     1
  0
XRECORD
  5
18
102
{ACAD_REACTORS
330
12
102
}
330
12
100
AcDbXrecord
280
     1
270
     1
271
     1
  0
XRECORD
  5
15
102
{ACAD_REACTORS
330
12
102
}
330
12
100
AcDbXrecord
280
     1
270
     1
271
     1
  0
XRECORD
  5
766
102
{ACAD_REACTORS
330
22
102
}
330
22
100
AcDbXrecord
280
     1
102
MATERIAL
148
0.0
149
0.0
149
0.0
 93
        0
 94
      127
282
     0
 72
     0
 77
     0
171
     0
175
     0
179
     0
273
     0
  0
XRECORD
  5
24
102
{ACAD_REACTORS
330
22
102
}
330
22
100
AcDbXrecord
280
     1
270
     1
271
     1
  0
XRECORD
  5
23
102
{ACAD_REACTORS
330
22
102
}
330
22
100
AcDbXrecord
280
     1
270
     1
271
     1
  0
XRECORD
  5
27
102
{ACAD_REACTORS
330
22
102
}
330
22
100
AcDbXrecord
280
     1
270
     1
271
     1
  0
XRECORD
  5
26
102
{ACAD_REACTORS
330
22
102
}
330
22
100
AcDbXrecord
280
     1
270
     1
271
     1
  0
XRECORD
  5
28
102
{ACAD_REACTORS
330
22
102
}
330
22
100
AcDbXrecord
280
     1
270
     1
271
     1
  0
XRECORD
  5
25
102
{ACAD_REACTORS
330
22
102
}
330
22
100
AcDbXrecord
280
     1
270
     1
271
     1
  0
XRECORD
  5
761
102
{ACAD_REACTORS
330
760
102
}
330
760
100
AcDbXrecord
280
     1
102
ACAD_ROUNDTRIP_2012_MLEADER_STYLE
298
     1
  0
CELLSTYLEMAP
  5
75F
102
{ACAD_REACTORS
330
75E
102
}
330
75E
100
AcDbCellStyleMap
 90
        3
300
CELLSTYLE
  1
TABLEFORMAT_BEGIN
 90
        5
170
     1
 91
        0
 92
    32768
 62
   257
 93
        1
300
CONTENTFORMAT
  1
CONTENTFORMAT_BEGIN
 90
        0
 91
        0
 92
      512
 93
        0
300

 40
0.0
140
1.0
 94
        5
 62
     0
340
55
144
0.25
309
CONTENTFORMAT_END
171
     0
 94
        0
309
TABLEFORMAT_END
  1
CELLSTYLE_BEGIN
 90
        1
 91
        1
300
_TITLE
309
CELLSTYLE_END
300
CELLSTYLE
  1
TABLEFORMAT_BEGIN
 90
        5
170
     1
 91
        0
 92
        0
 62
   257
 93
        1
300
CONTENTFORMAT
  1
CONTENTFORMAT_BEGIN
 90
        0
 91
        0
 92
      512
 93
        0
300

 40
0.0
140
1.0
 94
        5
 62
     0
340
55
144
0.18
309
CONTENTFORMAT_END
171
     0
 94
        0
309
TABLEFORMAT_END
  1
CELLSTYLE_BEGIN
 90
        2
 91
        1
300
_HEADER
309
CELLSTYLE_END
300
CELLSTYLE
  1
TABLEFORMAT_BEGIN
 90
        5
170
     1
 91
        0
 92
        0
 62
   257
 93
        1
300
CONTENTFORMAT
  1
CONTENTFORMAT_BEGIN
 90
        0
 91
        0
 92
      512
 93
        0
300

 40
0.0
140
1.0
 94
        2
 62
     0
340
55
144
0.18
309
CONTENTFORMAT_END
171
     0
 94
        0
309
TABLEFORMAT_END
  1
CELLSTYLE_BEGIN
 90
        3
 91
        2
300
_DATA
309
CELLSTYLE_END
  0
XRECORD
  5
797
102
{ACAD_REACTORS
330
75E
102
}
330
75E
100
AcDbXrecord
280
     1
102
ACAD_ROUNDTRIP_PRE2007_TABLESTYLE
 90
      512
 91
        0
  1

 92
      512
 93
        0
  2

 94
      512
 95
        0
  3

  0
XRECORD
  5
772
102
{ACAD_REACTORS
330
771
102
}
330
771
100
AcDbXrecord
280
     1
102
RTVSPropertyOp0
 70
     1
102
RTVSPropertyOp1
 70
     1
102
RTVSPropertyOp2
 70
     1
102
RTVSPropertyOp3
 70
     1
102
RTVSPropertyOp4
 70
     1
102
RTVSPropertyOp5
 70
     1
102
RTVSPropertyOp6
 70
     1
102
RTVSPropertyOp7
 70
     1
102
RTVSPropertyOp8
 70
     1
102
RTVSPropertyOp9
 70
     1
102
RTVSPropertyOp10
 70
     1
102
RTVSPropertyOp11
 70
     1
102
RTVSPropertyOp12
 70
     1
102
RTVSPropertyOp13
 70
     1
102
RTVSPropertyOp14
 70
     1
102
RTVSPropertyOp15
 70
     1
102
RTVSPropertyOp16
 70
     1
102
RTVSPropertyOp17
 70
     1
102
RTVSPropertyOp18
 70
     1
102
RTVSPropertyOp19
 70
     1
102
RTVSPropertyOp20
 70
     1
102
RTVSPropertyOp21
 70
     1
102
RTVSPropertyOp22
 70
     1
102
RTVSPropertyOp23
 70
     1
102
RTVSPropertyOp24
 70
     1
102
RTVSPropertyOp25
 70
     1
102
RTVSPropertyOp26
 70
     1
102
RTVSPropertyOp27
 70
     1
102
RTVSPropertyOp28
 70
     1
102
RTVSPropertyOp29
 70
     1
102
RTVSPropertyOp30
 70
     1
102
RTVSPropertyOp31
 70
     1
102
RTVSPropertyOp32
 70
     1
  0
XRECORD
  5
770
102
{ACAD_REACTORS
330
76F
102
}
330
76F
100
AcDbXrecord
280
     1
102
RTVSPropertyOp0
 70
     1
102
RTVSPropertyOp1
 70
     1
102
RTVSPropertyOp2
 70
     1
102
RTVSPropertyOp3
 70
     1
102
RTVSPropertyOp4
 70
     1
102
RTVSPropertyOp5
 70
     1
102
RTVSPropertyOp6
 70
     1
102
RTVSPropertyOp7
 70
     1
102
RTVSPropertyOp8
 70
     1
102
RTVSPropertyOp9
 70
     1
102
RTVSPropertyOp10
 70
     1
102
RTVSPropertyOp11
 70
     1
102
RTVSPropertyOp12
 70
     1
102
RTVSPropertyOp13
 70
     1
102
RTVSPropertyOp14
 70
     1
102
RTVSPropertyOp15
 70
     1
102
RTVSPropertyOp16
 70
     1
102
RTVSPropertyOp17
 70
     1
102
RTVSPropertyOp18
 70
     1
102
RTVSPropertyOp19
 70
     1
102
RTVSPropertyOp20
 70
     1
102
RTVSPropertyOp21
 70
     1
102
RTVSPropertyOp22
 70
     1
102
RTVSPropertyOp23
 70
     1
102
RTVSPropertyOp24
 70
     1
102
RTVSPropertyOp25
 70
     1
102
RTVSPropertyOp26
 70
     1
102
RTVSPropertyOp27
 70
     1
102
RTVSPropertyOp28
 70
     1
102
RTVSPropertyOp29
 70
     1
102
RTVSPropertyOp30
 70
     1
102
RTVSPropertyOp31
 70
     1
102
RTVSPropertyOp32
 70
     1
  0
XRECORD
  5
77E
102
{ACAD_REACTORS
330
77D
102
}
330
77D
100
AcDbXrecord
280
     1
102
RTVSPropertyOp0
 70
     1
102
RTVSPropertyOp1
 70
     1
102
RTVSPropertyOp2
 70
     1
102
RTVSPropertyOp3
 70
     1
102
RTVSPropertyOp4
 70
     1
102
RTVSPropertyOp5
 70
     1
102
RTVSPropertyOp6
 70
     1
102
RTVSPropertyOp7
 70
     1
102
RTVSPropertyOp8
 70
     1
102
RTVSPropertyOp9
 70
     1
102
RTVSPropertyOp10
 70
     1
102
RTVSPropertyOp11
 70
     1
102
RTVSPropertyOp12
 70
     1
102
RTVSPropertyOp13
 70
     1
102
RTVSPropertyOp14
 70
     1
102
RTVSPropertyOp15
 70
     1
102
RTVSPropertyOp16
 70
     1
102
RTVSPropertyOp17
 70
     1
102
RTVSPropertyOp18
 70
     1
102
RTVSPropertyOp19
 70
     1
102
RTVSPropertyOp20
 70
     1
102
RTVSPropertyOp21
 70
     1
102
RTVSPropertyOp22
 70
     1
102
RTVSPropertyOp23
 70
     1
102
RTVSPropertyOp24
 70
     1
102
RTVSPropertyOp25
 70
     1
102
RTVSPropertyOp26
 70
     1
102
RTVSPropertyOp27
 70
     1
102
RTVSPropertyOp28
 70
     1
102
RTVSPropertyOp29
 70
     1
102
RTVSPropertyOp30
 70
     1
102
RTVSPropertyOp31
 70
     1
102
RTVSPropertyOp32
 70
     1
  0
XRECORD
  5
786
102
{ACAD_REACTORS
330
785
102
}
330
785
100
AcDbXrecord
280
     1
102
RTVSPropertyOp0
 70
     1
102
RTVSPropertyOp1
 70
     1
102
RTVSPropertyOp2
 70
     1
102
RTVSPropertyOp3
 70
     1
102
RTVSPropertyOp4
 70
     1
102
RTVSPropertyOp5
 70
     1
102
RTVSPropertyOp6
 70
     1
102
RTVSPropertyOp7
 70
     1
102
RTVSPropertyOp8
 70
     1
102
RTVSPropertyOp9
 70
     1
102
RTVSPropertyOp10
 70
     1
102
RTVSPropertyOp11
 70
     1
102
RTVSPropertyOp12
 70
     1
102
RTVSPropertyOp13
 70
     1
102
RTVSPropertyOp14
 70
     1
102
RTVSPropertyOp15
 70
     1
102
RTVSPropertyOp16
 70
     1
102
RTVSPropertyOp17
 70
     1
102
RTVSPropertyOp18
 70
     1
102
RTVSPropertyOp19
 70
     1
102
RTVSPropertyOp20
 70
     1
102
RTVSPropertyOp21
 70
     1
102
RTVSPropertyOp22
 70
     1
102
RTVSPropertyOp23
 70
     1
102
RTVSPropertyOp24
 70
     1
102
RTVSPropertyOp25
 70
     1
102
RTVSPropertyOp26
 70
     1
102
RTVSPropertyOp27
 70
     1
102
RTVSPropertyOp28
 70
     1
102
RTVSPropertyOp29
 70
     1
102
RTVSPropertyOp30
 70
     1
102
RTVSPropertyOp31
 70
     1
102
RTVSPropertyOp32
 70
     1
  0
XRECORD
  5
778
102
{ACAD_REACTORS
330
777
102
}
330
777
100
AcDbXrecord
280
     1
102
RTVSPropertyOp0
 70
     1
102
RTVSPropertyOp1
 70
     1
102
RTVSPropertyOp2
 70
     1
102
RTVSPropertyOp3
 70
     1
102
RTVSPropertyOp4
 70
     1
102
RTVSPropertyOp5
 70
     1
102
RTVSPropertyOp6
 70
     1
102
RTVSPropertyOp7
 70
     1
102
RTVSPropertyOp8
 70
     1
102
RTVSPropertyOp9
 70
     1
102
RTVSPropertyOp10
 70
     1
102
RTVSPropertyOp11
 70
     1
102
RTVSPropertyOp12
 70
     1
102
RTVSPropertyOp13
 70
     1
102
RTVSPropertyOp14
 70
     1
102
RTVSPropertyOp15
 70
     1
102
RTVSPropertyOp16
 70
     1
102
RTVSPropertyOp17
 70
     1
102
RTVSPropertyOp18
 70
     1
102
RTVSPropertyOp19
 70
     1
102
RTVSPropertyOp20
 70
     1
102
RTVSPropertyOp21
 70
     1
102
RTVSPropertyOp22
 70
     1
102
RTVSPropertyOp23
 70
     1
102
RTVSPropertyOp24
 70
     1
102
RTVSPropertyOp25
 70
     1
102
RTVSPropertyOp26
 70
     1
102
RTVSPropertyOp27
 70
     1
102
RTVSPropertyOp28
 70
     1
102
RTVSPropertyOp29
 70
     1
102
RTVSPropertyOp30
 70
     1
102
RTVSPropertyOp31
 70
     1
102
RTVSPropertyOp32
 70
     1
  0
XRECORD
  5
77C
102
{ACAD_REACTORS
330
77B
102
}
330
77B
100
AcDbXrecord
280
     1
102
RTVSPropertyOp0
 70
     1
102
RTVSPropertyOp1
 70
     1
102
RTVSPropertyOp2
 70
     1
102
RTVSPropertyOp3
 70
     1
102
RTVSPropertyOp4
 70
     1
102
RTVSPropertyOp5
 70
     1
102
RTVSPropertyOp6
 70
     1
102
RTVSPropertyOp7
 70
     1
102
RTVSPropertyOp8
 70
     1
102
RTVSPropertyOp9
 70
     1
102
RTVSPropertyOp10
 70
     1
102
RTVSPropertyOp11
 70
     1
102
RTVSPropertyOp12
 70
     1
102
RTVSPropertyOp13
 70
     1
102
RTVSPropertyOp14
 70
     1
102
RTVSPropertyOp15
 70
     1
102
RTVSPropertyOp16
 70
     1
102
RTVSPropertyOp17
 70
     1
102
RTVSPropertyOp18
 70
     1
102
RTVSPropertyOp19
 70
     1
102
RTVSPropertyOp20
 70
     1
102
RTVSPropertyOp21
 70
     1
102
RTVSPropertyOp22
 70
     1
102
RTVSPropertyOp23
 70
     1
102
RTVSPropertyOp24
 70
     1
102
RTVSPropertyOp25
 70
     1
102
RTVSPropertyOp26
 70
     1
102
RTVSPropertyOp27
 70
     1
102
RTVSPropertyOp28
 70
     1
102
RTVSPropertyOp29
 70
     1
102
RTVSPropertyOp30
 70
     1
102
RTVSPropertyOp31
 70
     1
102
RTVSPropertyOp32
 70
     1
  0
XRECORD
  5
796
102
{ACAD_REACTORS
330
795
102
}
330
795
100
AcDbXrecord
280
     1
102
RTVSPropertyOp0
 70
     0
102
RTVSPropertyOp1
 70
     0
102
RTVSPropertyOp2
 70
     0
102
RTVSPropertyOp3
 70
     0
102
RTVSPropertyOp4
 70
     0
102
RTVSPropertyOp5
 70
     0
102
RTVSPropertyOp6
 70
     0
102
RTVSPropertyOp7
 70
     0
102
RTVSPropertyOp8
 70
     0
102
RTVSPropertyOp9
 70
     0
102
RTVSPropertyOp10
 70
     0
102
RTVSPropertyOp11
 70
     0
102
RTVSPropertyOp12
 70
     0
102
RTVSPropertyOp13
 70
     0
102
RTVSPropertyOp14
 70
     2
102
RTVSPropertyOp15
 70
     0
102
RTVSPropertyOp16
 70
     0
102
RTVSPropertyOp17
 70
     0
102
RTVSPropertyOp18
 70
     0
102
RTVSPropertyOp19
 70
     0
102
RTVSPropertyOp20
 70
     0
102
RTVSPropertyOp21
 70
     0
102
RTVSPropertyOp22
 70
     0
102
RTVSPropertyOp23
 70
     0
102
RTVSPropertyOp24
 70
     0
102
RTVSPropertyOp25
 70
     0
102
RTVSPropertyOp26
 70
     0
102
RTVSPropertyOp27
 70
     0
102
RTVSPropertyOp28
 70
     0
102
RTVSPropertyOp29
 70
     0
102
RTVSPropertyOp30
 70
     0
102
RTVSPropertyOp31
 70
     0
102
RTVSPropertyOp32
 70
     0
  0
XRECORD
  5
784
102
{ACAD_REACTORS
330
783
102
}
330
783
100
AcDbXrecord
280
     1
102
RTVSPropertyOp0
 70
     1
102
RTVSPropertyOp1
 70
     1
102
RTVSPropertyOp2
 70
     1
102
RTVSPropertyOp3
 70
     1
102
RTVSPropertyOp4
 70
     1
102
RTVSPropertyOp5
 70
     1
102
RTVSPropertyOp6
 70
     1
102
RTVSPropertyOp7
 70
     1
102
RTVSPropertyOp8
 70
     1
102
RTVSPropertyOp9
 70
     1
102
RTVSPropertyOp10
 70
     1
102
RTVSPropertyOp11
 70
     1
102
RTVSPropertyOp12
 70
     1
102
RTVSPropertyOp13
 70
     1
102
RTVSPropertyOp14
 70
     1
102
RTVSPropertyOp15
 70
     1
102
RTVSPropertyOp16
 70
     1
102
RTVSPropertyOp17
 70
     1
102
RTVSPropertyOp18
 70
     1
102
RTVSPropertyOp19
 70
     1
102
RTVSPropertyOp20
 70
     1
102
RTVSPropertyOp21
 70
     1
102
RTVSPropertyOp22
 70
     1
102
RTVSPropertyOp23
 70
     1
102
RTVSPropertyOp24
 70
     1
102
RTVSPropertyOp25
 70
     1
102
RTVSPropertyOp26
 70
     1
102
RTVSPropertyOp27
 70
     1
102
RTVSPropertyOp28
 70
     1
102
RTVSPropertyOp29
 70
     1
102
RTVSPropertyOp30
 70
     1
102
RTVSPropertyOp31
 70
     1
102
RTVSPropertyOp32
 70
     1
  0
XRECORD
  5
768
102
{ACAD_REACTORS
330
767
102
}
330
767
100
AcDbXrecord
280
     1
102
RTVSPropertyOp0
 70
     1
102
RTVSPropertyOp1
 70
     1
102
RTVSPropertyOp2
 70
     1
102
RTVSPropertyOp3
 70
     1
102
RTVSPropertyOp4
 70
     1
102
RTVSPropertyOp5
 70
     1
102
RTVSPropertyOp6
 70
     1
102
RTVSPropertyOp7
 70
     1
102
RTVSPropertyOp8
 70
     1
102
RTVSPropertyOp9
 70
     1
102
RTVSPropertyOp10
 70
     1
102
RTVSPropertyOp11
 70
     1
102
RTVSPropertyOp12
 70
     1
102
RTVSPropertyOp13
 70
     1
102
RTVSPropertyOp14
 70
     1
102
RTVSPropertyOp15
 70
     1
102
RTVSPropertyOp16
 70
     1
102
RTVSPropertyOp17
 70
     1
102
RTVSPropertyOp18
 70
     1
102
RTVSPropertyOp19
 70
     1
102
RTVSPropertyOp20
 70
     1
102
RTVSPropertyOp21
 70
     1
102
RTVSPropertyOp22
 70
     1
102
RTVSPropertyOp23
 70
     1
102
RTVSPropertyOp24
 70
     1
102
RTVSPropertyOp25
 70
     1
102
RTVSPropertyOp26
 70
     1
102
RTVSPropertyOp27
 70
     1
102
RTVSPropertyOp28
 70
     1
102
RTVSPropertyOp29
 70
     1
102
RTVSPropertyOp30
 70
     1
102
RTVSPropertyOp31
 70
     1
102
RTVSPropertyOp32
 70
     1
  0
XRECORD
  5
76A
102
{ACAD_REACTORS
330
769
102
}
330
769
100
AcDbXrecord
280
     1
102
RTVSPropertyOp0
 70
     1
102
RTVSPropertyOp1
 70
     1
102
RTVSPropertyOp2
 70
     1
102
RTVSPropertyOp3
 70
     1
102
RTVSPropertyOp4
 70
     1
102
RTVSPropertyOp5
 70
     1
102
RTVSPropertyOp6
 70
     1
102
RTVSPropertyOp7
 70
     1
102
RTVSPropertyOp8
 70
     1
102
RTVSPropertyOp9
 70
     1
102
RTVSPropertyOp10
 70
     1
102
RTVSPropertyOp11
 70
     1
102
RTVSPropertyOp12
 70
     1
102
RTVSPropertyOp13
 70
     1
102
RTVSPropertyOp14
 70
     1
102
RTVSPropertyOp15
 70
     1
102
RTVSPropertyOp16
 70
     1
102
RTVSPropertyOp17
 70
     1
102
RTVSPropertyOp18
 70
     1
102
RTVSPropertyOp19
 70
     1
102
RTVSPropertyOp20
 70
     1
102
RTVSPropertyOp21
 70
     1
102
RTVSPropertyOp22
 70
     1
102
RTVSPropertyOp23
 70
     1
102
RTVSPropertyOp24
 70
     1
102
RTVSPropertyOp25
 70
     1
102
RTVSPropertyOp26
 70
     1
102
RTVSPropertyOp27
 70
     1
102
RTVSPropertyOp28
 70
     1
102
RTVSPropertyOp29
 70
     1
102
RTVSPropertyOp30
 70
     1
102
RTVSPropertyOp31
 70
     1
102
RTVSPropertyOp32
 70
     1
  0
XRECORD
  5
76C
102
{ACAD_REACTORS
330
76B
102
}
330
76B
100
AcDbXrecord
280
     1
102
RTVSPropertyOp0
 70
     1
102
RTVSPropertyOp1
 70
     1
102
RTVSPropertyOp2
 70
     1
102
RTVSPropertyOp3
 70
     1
102
RTVSPropertyOp4
 70
     1
102
RTVSPropertyOp5
 70
     1
102
RTVSPropertyOp6
 70
     1
102
RTVSPropertyOp7
 70
     1
102
RTVSPropertyOp8
 70
     1
102
RTVSPropertyOp9
 70
     1
102
RTVSPropertyOp10
 70
     1
102
RTVSPropertyOp11
 70
     1
102
RTVSPropertyOp12
 70
     1
102
RTVSPropertyOp13
 70
     1
102
RTVSPropertyOp14
 70
     1
102
RTVSPropertyOp15
 70
     1
102
RTVSPropertyOp16
 70
     1
102
RTVSPropertyOp17
 70
     1
102
RTVSPropertyOp18
 70
     1
102
RTVSPropertyOp19
 70
     1
102
RTVSPropertyOp20
 70
     1
102
RTVSPropertyOp21
 70
     1
102
RTVSPropertyOp22
 70
     1
102
RTVSPropertyOp23
 70
     1
102
RTVSPropertyOp24
 70
     1
102
RTVSPropertyOp25
 70
     1
102
RTVSPropertyOp26
 70
     1
102
RTVSPropertyOp27
 70
     1
102
RTVSPropertyOp28
 70
     1
102
RTVSPropertyOp29
 70
     1
102
RTVSPropertyOp30
 70
     1
102
RTVSPropertyOp31
 70
     1
102
RTVSPropertyOp32
 70
     1
  0
XRECORD
  5
76E
102
{ACAD_REACTORS
330
76D
102
}
330
76D
100
AcDbXrecord
280
     1
102
RTVSPropertyOp0
 70
     1
102
RTVSPropertyOp1
 70
     1
102
RTVSPropertyOp2
 70
     1
102
RTVSPropertyOp3
 70
     1
102
RTVSPropertyOp4
 70
     1
102
RTVSPropertyOp5
 70
     1
102
RTVSPropertyOp6
 70
     1
102
RTVSPropertyOp7
 70
     1
102
RTVSPropertyOp8
 70
     1
102
RTVSPropertyOp9
 70
     1
102
RTVSPropertyOp10
 70
     1
102
RTVSPropertyOp11
 70
     1
102
RTVSPropertyOp12
 70
     1
102
RTVSPropertyOp13
 70
     1
102
RTVSPropertyOp14
 70
     1
102
RTVSPropertyOp15
 70
     1
102
RTVSPropertyOp16
 70
     1
102
RTVSPropertyOp17
 70
     1
102
RTVSPropertyOp18
 70
     1
102
RTVSPropertyOp19
 70
     1
102
RTVSPropertyOp20
 70
     1
102
RTVSPropertyOp21
 70
     1
102
RTVSPropertyOp22
 70
     1
102
RTVSPropertyOp23
 70
     1
102
RTVSPropertyOp24
 70
     1
102
RTVSPropertyOp25
 70
     1
102
RTVSPropertyOp26
 70
     1
102
RTVSPropertyOp27
 70
     1
102
RTVSPropertyOp28
 70
     1
102
RTVSPropertyOp29
 70
     1
102
RTVSPropertyOp30
 70
     1
102
RTVSPropertyOp31
 70
     1
102
RTVSPropertyOp32
 70
     1
  0
XRECORD
  5
776
102
{ACAD_REACTORS
330
775
102
}
330
775
100
AcDbXrecord
280
     1
102
RTVSPropertyOp0
 70
     1
102
RTVSPropertyOp1
 70
     1
102
RTVSPropertyOp2
 70
     1
102
RTVSPropertyOp3
 70
     1
102
RTVSPropertyOp4
 70
     1
102
RTVSPropertyOp5
 70
     1
102
RTVSPropertyOp6
 70
     1
102
RTVSPropertyOp7
 70
     1
102
RTVSPropertyOp8
 70
     1
102
RTVSPropertyOp9
 70
     1
102
RTVSPropertyOp10
 70
     1
102
RTVSPropertyOp11
 70
     1
102
RTVSPropertyOp12
 70
     1
102
RTVSPropertyOp13
 70
     1
102
RTVSPropertyOp14
 70
     1
102
RTVSPropertyOp15
 70
     1
102
RTVSPropertyOp16
 70
     1
102
RTVSPropertyOp17
 70
     1
102
RTVSPropertyOp18
 70
     1
102
RTVSPropertyOp19
 70
     1
102
RTVSPropertyOp20
 70
     1
102
RTVSPropertyOp21
 70
     1
102
RTVSPropertyOp22
 70
     1
102
RTVSPropertyOp23
 70
     1
102
RTVSPropertyOp24
 70
     1
102
RTVSPropertyOp25
 70
     1
102
RTVSPropertyOp26
 70
     1
102
RTVSPropertyOp27
 70
     1
102
RTVSPropertyOp28
 70
     1
102
RTVSPropertyOp29
 70
     1
102
RTVSPropertyOp30
 70
     1
102
RTVSPropertyOp31
 70
     1
102
RTVSPropertyOp32
 70
     1
  0
XRECORD
  5
792
102
{ACAD_REACTORS
330
791
102
}
330
791
100
AcDbXrecord
280
     1
102
RTVSPropertyOp0
 70
     0
102
RTVSPropertyOp1
 70
     0
102
RTVSPropertyOp2
 70
     0
102
RTVSPropertyOp3
 70
     0
102
RTVSPropertyOp4
 70
     0
102
RTVSPropertyOp5
 70
     0
102
RTVSPropertyOp6
 70
     0
102
RTVSPropertyOp7
 70
     0
102
RTVSPropertyOp8
 70
     0
102
RTVSPropertyOp9
 70
     0
102
RTVSPropertyOp10
 70
     0
102
RTVSPropertyOp11
 70
     0
102
RTVSPropertyOp12
 70
     0
102
RTVSPropertyOp13
 70
     0
102
RTVSPropertyOp14
 70
     2
102
RTVSPropertyOp15
 70
     0
102
RTVSPropertyOp16
 70
     0
102
RTVSPropertyOp17
 70
     0
102
RTVSPropertyOp18
 70
     0
102
RTVSPropertyOp19
 70
     0
102
RTVSPropertyOp20
 70
     0
102
RTVSPropertyOp21
 70
     0
102
RTVSPropertyOp22
 70
     0
102
RTVSPropertyOp23
 70
     0
102
RTVSPropertyOp24
 70
     0
102
RTVSPropertyOp25
 70
     0
102
RTVSPropertyOp26
 70
     0
102
RTVSPropertyOp27
 70
     0
102
RTVSPropertyOp28
 70
     0
102
RTVSPropertyOp29
 70
     0
102
RTVSPropertyOp30
 70
     0
102
RTVSPropertyOp31
 70
     0
102
RTVSPropertyOp32
 70
     0
  0
XRECORD
  5
782
102
{ACAD_REACTORS
330
781
102
}
330
781
100
AcDbXrecord
280
     1
102
RTVSPropertyOp0
 70
     1
102
RTVSPropertyOp1
 70
     1
102
RTVSPropertyOp2
 70
     1
102
RTVSPropertyOp3
 70
     1
102
RTVSPropertyOp4
 70
     1
102
RTVSPropertyOp5
 70
     1
102
RTVSPropertyOp6
 70
     1
102
RTVSPropertyOp7
 70
     1
102
RTVSPropertyOp8
 70
     1
102
RTVSPropertyOp9
 70
     1
102
RTVSPropertyOp10
 70
     1
102
RTVSPropertyOp11
 70
     1
102
RTVSPropertyOp12
 70
     1
102
RTVSPropertyOp13
 70
     1
102
RTVSPropertyOp14
 70
     1
102
RTVSPropertyOp15
 70
     1
102
RTVSPropertyOp16
 70
     1
102
RTVSPropertyOp17
 70
     1
102
RTVSPropertyOp18
 70
     1
102
RTVSPropertyOp19
 70
     1
102
RTVSPropertyOp20
 70
     1
102
RTVSPropertyOp21
 70
     1
102
RTVSPropertyOp22
 70
     1
102
RTVSPropertyOp23
 70
     1
102
RTVSPropertyOp24
 70
     1
102
RTVSPropertyOp25
 70
     1
102
RTVSPropertyOp26
 70
     1
102
RTVSPropertyOp27
 70
     1
102
RTVSPropertyOp28
 70
     1
102
RTVSPropertyOp29
 70
     1
102
RTVSPropertyOp30
 70
     1
102
RTVSPropertyOp31
 70
     1
102
RTVSPropertyOp32
 70
     1
  0
XRECORD
  5
794
102
{ACAD_REACTORS
330
793
102
}
330
793
100
AcDbXrecord
280
     1
102
RTVSPropertyOp0
 70
     0
102
RTVSPropertyOp1
 70
     0
102
RTVSPropertyOp2
 70
     0
102
RTVSPropertyOp3
 70
     0
102
RTVSPropertyOp4
 70
     0
102
RTVSPropertyOp5
 70
     0
102
RTVSPropertyOp6
 70
     0
102
RTVSPropertyOp7
 70
     0
102
RTVSPropertyOp8
 70
     0
102
RTVSPropertyOp9
 70
     0
102
RTVSPropertyOp10
 70
     0
102
RTVSPropertyOp11
 70
     0
102
RTVSPropertyOp12
 70
     0
102
RTVSPropertyOp13
 70
     0
102
RTVSPropertyOp14
 70
     2
102
RTVSPropertyOp15
 70
     0
102
RTVSPropertyOp16
 70
     0
102
RTVSPropertyOp17
 70
     0
102
RTVSPropertyOp18
 70
     0
102
RTVSPropertyOp19
 70
     0
102
RTVSPropertyOp20
 70
     0
102
RTVSPropertyOp21
 70
     0
102
RTVSPropertyOp22
 70
     0
102
RTVSPropertyOp23
 70
     0
102
RTVSPropertyOp24
 70
     0
102
RTVSPropertyOp25
 70
     0
102
RTVSPropertyOp26
 70
     0
102
RTVSPropertyOp27
 70
     0
102
RTVSPropertyOp28
 70
     0
102
RTVSPropertyOp29
 70
     0
102
RTVSPropertyOp30
 70
     0
102
RTVSPropertyOp31
 70
     0
102
RTVSPropertyOp32
 70
     0
  0
XRECORD
  5
77A
102
{ACAD_REACTORS
330
779
102
}
330
779
100
AcDbXrecord
280
     1
102
RTVSPropertyOp0
 70
     1
102
RTVSPropertyOp1
 70
     1
102
RTVSPropertyOp2
 70
     1
102
RTVSPropertyOp3
 70
     1
102
RTVSPropertyOp4
 70
     1
102
RTVSPropertyOp5
 70
     1
102
RTVSPropertyOp6
 70
     1
102
RTVSPropertyOp7
 70
     1
102
RTVSPropertyOp8
 70
     1
102
RTVSPropertyOp9
 70
     1
102
RTVSPropertyOp10
 70
     1
102
RTVSPropertyOp11
 70
     1
102
RTVSPropertyOp12
 70
     1
102
RTVSPropertyOp13
 70
     1
102
RTVSPropertyOp14
 70
     1
102
RTVSPropertyOp15
 70
     1
102
RTVSPropertyOp16
 70
     1
102
RTVSPropertyOp17
 70
     1
102
RTVSPropertyOp18
 70
     1
102
RTVSPropertyOp19
 70
     1
102
RTVSPropertyOp20
 70
     1
102
RTVSPropertyOp21
 70
     1
102
RTVSPropertyOp22
 70
     1
102
RTVSPropertyOp23
 70
     1
102
RTVSPropertyOp24
 70
     1
102
RTVSPropertyOp25
 70
     1
102
RTVSPropertyOp26
 70
     1
102
RTVSPropertyOp27
 70
     1
102
RTVSPropertyOp28
 70
     1
102
RTVSPropertyOp29
 70
     1
102
RTVSPropertyOp30
 70
     1
102
RTVSPropertyOp31
 70
     1
102
RTVSPropertyOp32
 70
     1
  0
XRECORD
  5
790
102
{ACAD_REACTORS
330
78F
102
}
330
78F
100
AcDbXrecord
280
     1
102
RTVSPropertyOp0
 70
     1
102
RTVSPropertyOp1
 70
     1
102
RTVSPropertyOp2
 70
     1
102
RTVSPropertyOp3
 70
     1
102
RTVSPropertyOp4
 70
     1
102
RTVSPropertyOp5
 70
     1
102
RTVSPropertyOp6
 70
     1
102
RTVSPropertyOp7
 70
     1
102
RTVSPropertyOp8
 70
     1
102
RTVSPropertyOp9
 70
     1
102
RTVSPropertyOp10
 70
     1
102
RTVSPropertyOp11
 70
     1
102
RTVSPropertyOp12
 70
     1
102
RTVSPropertyOp13
 70
     1
102
RTVSPropertyOp14
 70
     1
102
RTVSPropertyOp15
 70
     1
102
RTVSPropertyOp16
 70
     1
102
RTVSPropertyOp17
 70
     1
102
RTVSPropertyOp18
 70
     1
102
RTVSPropertyOp19
 70
     1
102
RTVSPropertyOp20
 70
     1
102
RTVSPropertyOp21
 70
     1
102
RTVSPropertyOp22
 70
     1
102
RTVSPropertyOp23
 70
     1
102
RTVSPropertyOp24
 70
     1
102
RTVSPropertyOp25
 70
     1
102
RTVSPropertyOp26
 70
     1
102
RTVSPropertyOp27
 70
     1
102
RTVSPropertyOp28
 70
     1
102
RTVSPropertyOp29
 70
     1
102
RTVSPropertyOp30
 70
     1
102
RTVSPropertyOp31
 70
     1
102
RTVSPropertyOp32
 70
     1
  0
XRECORD
  5
78E
102
{ACAD_REACTORS
330
78D
102
}
330
78D
100
AcDbXrecord
280
     1
102
RTVSPropertyOp0
 70
     1
102
RTVSPropertyOp1
 70
     1
102
RTVSPropertyOp2
 70
     1
102
RTVSPropertyOp3
 70
     1
102
RTVSPropertyOp4
 70
     1
102
RTVSPropertyOp5
 70
     1
102
RTVSPropertyOp6
 70
     1
102
RTVSPropertyOp7
 70
     1
102
RTVSPropertyOp8
 70
     1
102
RTVSPropertyOp9
 70
     1
102
RTVSPropertyOp10
 70
     1
102
RTVSPropertyOp11
 70
     1
102
RTVSPropertyOp12
 70
     1
102
RTVSPropertyOp13
 70
     1
102
RTVSPropertyOp14
 70
     1
102
RTVSPropertyOp15
 70
     1
102
RTVSPropertyOp16
 70
     1
102
RTVSPropertyOp17
 70
     1
102
RTVSPropertyOp18
 70
     1
102
RTVSPropertyOp19
 70
     1
102
RTVSPropertyOp20
 70
     1
102
RTVSPropertyOp21
 70
     1
102
RTVSPropertyOp22
 70
     1
102
RTVSPropertyOp23
 70
     1
102
RTVSPropertyOp24
 70
     1
102
RTVSPropertyOp25
 70
     1
102
RTVSPropertyOp26
 70
     1
102
RTVSPropertyOp27
 70
     1
102
RTVSPropertyOp28
 70
     1
102
RTVSPropertyOp29
 70
     1
102
RTVSPropertyOp30
 70
     1
102
RTVSPropertyOp31
 70
     1
102
RTVSPropertyOp32
 70
     1
  0
XRECORD
  5
788
102
{ACAD_REACTORS
330
787
102
}
330
787
100
AcDbXrecord
280
     1
102
RTVSPropertyOp0
 70
     1
102
RTVSPropertyOp1
 70
     1
102
RTVSPropertyOp2
 70
     1
102
RTVSPropertyOp3
 70
     1
102
RTVSPropertyOp4
 70
     1
102
RTVSPropertyOp5
 70
     1
102
RTVSPropertyOp6
 70
     1
102
RTVSPropertyOp7
 70
     1
102
RTVSPropertyOp8
 70
     1
102
RTVSPropertyOp9
 70
     1
102
RTVSPropertyOp10
 70
     1
102
RTVSPropertyOp11
 70
     1
102
RTVSPropertyOp12
 70
     1
102
RTVSPropertyOp13
 70
     1
102
RTVSPropertyOp14
 70
     1
102
RTVSPropertyOp15
 70
     1
102
RTVSPropertyOp16
 70
     1
102
RTVSPropertyOp17
 70
     1
102
RTVSPropertyOp18
 70
     1
102
RTVSPropertyOp19
 70
     1
102
RTVSPropertyOp20
 70
     1
102
RTVSPropertyOp21
 70
     1
102
RTVSPropertyOp22
 70
     1
102
RTVSPropertyOp23
 70
     1
102
RTVSPropertyOp24
 70
     1
102
RTVSPropertyOp25
 70
     1
102
RTVSPropertyOp26
 70
     1
102
RTVSPropertyOp27
 70
     1
102
RTVSPropertyOp28
 70
     1
102
RTVSPropertyOp29
 70
     1
102
RTVSPropertyOp30
 70
     1
102
RTVSPropertyOp31
 70
     1
102
RTVSPropertyOp32
 70
     1
  0
XRECORD
  5
78A
102
{ACAD_REACTORS
330
789
102
}
330
789
100
AcDbXrecord
280
     1
102
RTVSPropertyOp0
 70
     1
102
RTVSPropertyOp1
 70
     1
102
RTVSPropertyOp2
 70
     1
102
RTVSPropertyOp3
 70
     1
102
RTVSPropertyOp4
 70
     1
102
RTVSPropertyOp5
 70
     1
102
RTVSPropertyOp6
 70
     1
102
RTVSPropertyOp7
 70
     1
102
RTVSPropertyOp8
 70
     1
102
RTVSPropertyOp9
 70
     1
102
RTVSPropertyOp10
 70
     1
102
RTVSPropertyOp11
 70
     1
102
RTVSPropertyOp12
 70
     1
102
RTVSPropertyOp13
 70
     1
102
RTVSPropertyOp14
 70
     1
102
RTVSPropertyOp15
 70
     1
102
RTVSPropertyOp16
 70
     1
102
RTVSPropertyOp17
 70
     1
102
RTVSPropertyOp18
 70
     1
102
RTVSPropertyOp19
 70
     1
102
RTVSPropertyOp20
 70
     1
102
RTVSPropertyOp21
 70
     1
102
RTVSPropertyOp22
 70
     1
102
RTVSPropertyOp23
 70
     1
102
RTVSPropertyOp24
 70
     1
102
RTVSPropertyOp25
 70
     1
102
RTVSPropertyOp26
 70
     1
102
RTVSPropertyOp27
 70
     1
102
RTVSPropertyOp28
 70
     1
102
RTVSPropertyOp29
 70
     1
102
RTVSPropertyOp30
 70
     1
102
RTVSPropertyOp31
 70
     1
102
RTVSPropertyOp32
 70
     1
  0
XRECORD
  5
780
102
{ACAD_REACTORS
330
77F
102
}
330
77F
100
AcDbXrecord
280
     1
102
RTVSPropertyOp0
 70
     1
102
RTVSPropertyOp1
 70
     1
102
RTVSPropertyOp2
 70
     1
102
RTVSPropertyOp3
 70
     1
102
RTVSPropertyOp4
 70
     1
102
RTVSPropertyOp5
 70
     1
102
RTVSPropertyOp6
 70
     1
102
RTVSPropertyOp7
 70
     1
102
RTVSPropertyOp8
 70
     1
102
RTVSPropertyOp9
 70
     1
102
RTVSPropertyOp10
 70
     1
102
RTVSPropertyOp11
 70
     1
102
RTVSPropertyOp12
 70
     1
102
RTVSPropertyOp13
 70
     1
102
RTVSPropertyOp14
 70
     1
102
RTVSPropertyOp15
 70
     1
102
RTVSPropertyOp16
 70
     1
102
RTVSPropertyOp17
 70
     1
102
RTVSPropertyOp18
 70
     1
102
RTVSPropertyOp19
 70
     1
102
RTVSPropertyOp20
 70
     1
102
RTVSPropertyOp21
 70
     1
102
RTVSPropertyOp22
 70
     1
102
RTVSPropertyOp23
 70
     1
102
RTVSPropertyOp24
 70
     1
102
RTVSPropertyOp25
 70
     1
102
RTVSPropertyOp26
 70
     1
102
RTVSPropertyOp27
 70
     1
102
RTVSPropertyOp28
 70
     1
102
RTVSPropertyOp29
 70
     1
102
RTVSPropertyOp30
 70
     1
102
RTVSPropertyOp31
 70
     1
102
RTVSPropertyOp32
 70
     1
  0
XRECORD
  5
774
102
{ACAD_REACTORS
330
773
102
}
330
773
100
AcDbXrecord
280
     1
102
RTVSPropertyOp0
 70
     1
102
RTVSPropertyOp1
 70
     1
102
RTVSPropertyOp2
 70
     1
102
RTVSPropertyOp3
 70
     1
102
RTVSPropertyOp4
 70
     1
102
RTVSPropertyOp5
 70
     1
102
RTVSPropertyOp6
 70
     1
102
RTVSPropertyOp7
 70
     1
102
RTVSPropertyOp8
 70
     1
102
RTVSPropertyOp9
 70
     1
102
RTVSPropertyOp10
 70
     1
102
RTVSPropertyOp11
 70
     1
102
RTVSPropertyOp12
 70
     1
102
RTVSPropertyOp13
 70
     1
102
RTVSPropertyOp14
 70
     1
102
RTVSPropertyOp15
 70
     1
102
RTVSPropertyOp16
 70
     1
102
RTVSPropertyOp17
 70
     1
102
RTVSPropertyOp18
 70
     1
102
RTVSPropertyOp19
 70
     1
102
RTVSPropertyOp20
 70
     1
102
RTVSPropertyOp21
 70
     1
102
RTVSPropertyOp22
 70
     1
102
RTVSPropertyOp23
 70
     1
102
RTVSPropertyOp24
 70
     1
102
RTVSPropertyOp25
 70
     1
102
RTVSPropertyOp26
 70
     1
102
RTVSPropertyOp27
 70
     1
102
RTVSPropertyOp28
 70
     1
102
RTVSPropertyOp29
 70
     1
102
RTVSPropertyOp30
 70
     1
102
RTVSPropertyOp31
 70
     1
102
RTVSPropertyOp32
 70
     1
  0
XRECORD
  5
78C
102
{ACAD_REACTORS
330
78B
102
}
330
78B
100
AcDbXrecord
280
     1
102
RTVSPropertyOp0
 70
     1
102
RTVSPropertyOp1
 70
     1
102
RTVSPropertyOp2
 70
     1
102
RTVSPropertyOp3
 70
     1
102
RTVSPropertyOp4
 70
     1
102
RTVSPropertyOp5
 70
     1
102
RTVSPropertyOp6
 70
     1
102
RTVSPropertyOp7
 70
     1
102
RTVSPropertyOp8
 70
     1
102
RTVSPropertyOp9
 70
     1
102
RTVSPropertyOp10
 70
     1
102
RTVSPropertyOp11
 70
     1
102
RTVSPropertyOp12
 70
     1
102
RTVSPropertyOp13
 70
     1
102
RTVSPropertyOp14
 70
     1
102
RTVSPropertyOp15
 70
     1
102
RTVSPropertyOp16
 70
     1
102
RTVSPropertyOp17
 70
     1
102
RTVSPropertyOp18
 70
     1
102
RTVSPropertyOp19
 70
     1
102
RTVSPropertyOp20
 70
     1
102
RTVSPropertyOp21
 70
     1
102
RTVSPropertyOp22
 70
     1
102
RTVSPropertyOp23
 70
     1
102
RTVSPropertyOp24
 70
     1
102
RTVSPropertyOp25
 70
     1
102
RTVSPropertyOp26
 70
     1
102
RTVSPropertyOp27
 70
     1
102
RTVSPropertyOp28
 70
     1
102
RTVSPropertyOp29
 70
     1
102
RTVSPropertyOp30
 70
     1
102
RTVSPropertyOp31
 70
     1
102
RTVSPropertyOp32
 70
     1
  0
ENDSEC
  0
EOF
