  0
SECTION
  2
HEADER
  9
$ACADVER
  1
AC1015
  9
$ACADMAINTVER
 70
    18
  9
$DWGCODEPAGE
  3
ANSI_1252
  9
$INSBASE
 10
0.0
 20
0.0
 30
0.0
  9
$EXTMIN
 10
0.0
 20
0.0
 30
0.0
  9
$EXTMAX
 10
210.0
 20
297.0
 30
0.0
  9
$LIMMIN
 10
0.0
 20
0.0
  9
$LIMMAX
 10
210.0
 20
297.0
  9
$ORTHOMODE
 70
     0
  9
$REGENMODE
 70
     1
  9
$FILLMODE
 70
     1
  9
$QTEXTMODE
 70
     0
  9
$MIRRTEXT
 70
     0
  9
$LTSCALE
 40
1.0
  9
$ATTMODE
 70
     1
  9
$TEXTSIZE
 40
0.2
  9
$TRACEWID
 40
0.05
  9
$TEXTSTYLE
  7
Standard
  9
$CLAYER
  8
0
  9
$CELTYPE
  6
ByLayer
  9
$CECOLOR
 62
   256
  9
$CELTSCALE
 40
1.0
  9
$DISPSILH
 70
     0
  9
$DIMSCALE
 40
1.0
  9
$DIMASZ
 40
1.799999999999999
  9
$DIMEXO
 40
0.0625
  9
$DIMDLI
 40
0.38
  9
$DIMRND
 40
0.0
  9
$DIMDLE
 40
0.0
  9
$DIMEXE
 40
0.18
  9
$DIMTP
 40
0.0
  9
$DIMTM
 40
0.0
  9
$DIMTXT
 40
0.5
  9
$DIMCEN
 40
0.09
  9
$DIMTSZ
 40
0.0
  9
$DIMTOL
 70
     0
  9
$DIMLIM
 70
     0
  9
$DIMTIH
 70
     1
  9
$DIMTOH
 70
     1
  9
$DIMSE1
 70
     0
  9
$DIMSE2
 70
     0
  9
$DIMTAD
 70
     0
  9
$DIMZIN
 70
     0
  9
$DIMBLK
  1

  9
$DIMASO
 70
     1
  9
$DIMSHO
 70
     1
  9
$DIMPOST
  1

  9
$DIMAPOST
  1

  9
$DIMALT
 70
     0
  9
$DIMALTD
 70
     2
  9
$DIMALTF
 40
25.4
  9
$DIMLFAC
 40
1.0
  9
$DIMTOFL
 70
     0
  9
$DIMTVP
 40
0.0
  9
$DIMTIX
 70
     0
  9
$DIMSOXD
 70
     0
  9
$DIMSAH
 70
     0
  9
$DIMBLK1
  1

  9
$DIMBLK2
  1

  9
$DIMSTYLE
  2
Standard
  9
$DIMCLRD
 70
     0
  9
$DIMCLRE
 70
     0
  9
$DIMCLRT
 70
     0
  9
$DIMTFAC
 40
1.0
  9
$DIMGAP
 40
0.09
  9
$DIMJUST
 70
     0
  9
$DIMSD1
 70
     0
  9
$DIMSD2
 70
     0
  9
$DIMTOLJ
 70
     1
  9
$DIMTZIN
 70
     0
  9
$DIMALTZ
 70
     0
  9
$DIMALTTZ
 70
     0
  9
$DIMUPT
 70
     0
  9
$DIMDEC
 70
     4
  9
$DIMTDEC
 70
     4
  9
$DIMALTU
 70
     2
  9
$DIMALTTD
 70
     2
  9
$DIMTXSTY
  7
Standard
  9
$DIMAUNIT
 70
     0
  9
$DIMADEC
 70
     0
  9
$DIMALTRND
 40
0.0
  9
$DIMAZIN
 70
     0
  9
$DIMDSEP
 70
    46
  9
$DIMATFIT
 70
     3
  9
$DIMFRAC
 70
     0
  9
$DIMLDRBLK
  1

  9
$DIMLUNIT
 70
     2
  9
$DIMLWD
 70
    -2
  9
$DIMLWE
 70
    -2
  9
$DIMTMOVE
 70
     0
  9
$LUNITS
 70
     2
  9
$LUPREC
 70
     4
  9
$SKETCHINC
 40
0.1
  9
$FILLETRAD
 40
0.0
  9
$AUNITS
 70
     0
  9
$AUPREC
 70
     0
  9
$MENU
  1
.
  9
$ELEVATION
 40
0.0
  9
$PELEVATION
 40
0.0
  9
$THICKNESS
 40
0.0
  9
$LIMCHECK
 70
     0
  9
$CHAMFERA
 40
0.0
  9
$CHAMFERB
 40
0.0
  9
$CHAMFERC
 40
0.0
  9
$CHAMFERD
 40
0.0
  9
$SKPOLY
 70
     0
  9
$TDCREATE
 40
2456345.384367396
  9
$TDUCREATE
 40
2456345.342700729
  9
$TDUPDATE
 40
2456345.384367396
  9
$TDUUPDATE
 40
2456345.342700729
  9
$TDINDWG
 40
0.0000410532
  9
$TDUSRTIMER
 40
0.0000410532
  9
$USRTIMER
 70
     1
  9
$ANGBASE
 50
0.0
  9
$ANGDIR
 70
     0
  9
$PDMODE
 70
     0
  9
$PDSIZE
 40
0.0
  9
$PLINEWID
 40
0.0
  9
$SPLFRAME
 70
     0
  9
$SPLINETYPE
 70
     6
  9
$SPLINESEGS
 70
     8
  9
$HANDSEED
  5
ADA
  9
$SURFTAB1
 70
     6
  9
$SURFTAB2
 70
     6
  9
$SURFTYPE
 70
     6
  9
$SURFU
 70
     6
  9
$SURFV
 70
     6
  9
$UCSBASE
  2

  9
$UCSNAME
  2

  9
$UCSORG
 10
0.0
 20
0.0
 30
0.0
  9
$UCSXDIR
 10
1.0
 20
0.0
 30
0.0
  9
$UCSYDIR
 10
0.0
 20
1.0
 30
0.0
  9
$UCSORTHOREF
  2

  9
$UCSORTHOVIEW
 70
     0
  9
$UCSORGTOP
 10
0.0
 20
0.0
 30
0.0
  9
$UCSORGBOTTOM
 10
0.0
 20
0.0
 30
0.0
  9
$UCSORGLEFT
 10
0.0
 20
0.0
 30
0.0
  9
$UCSORGRIGHT
 10
0.0
 20
0.0
 30
0.0
  9
$UCSORGFRONT
 10
0.0
 20
0.0
 30
0.0
  9
$UCSORGBACK
 10
0.0
 20
0.0
 30
0.0
  9
$PUCSBASE
  2

  9
$PUCSNAME
  2

  9
$PUCSORG
 10
0.0
 20
0.0
 30
0.0
  9
$PUCSXDIR
 10
1.0
 20
0.0
 30
0.0
  9
$PUCSYDIR
 10
0.0
 20
1.0
 30
0.0
  9
$PUCSORTHOREF
  2

  9
$PUCSORTHOVIEW
 70
     0
  9
$PUCSORGTOP
 10
0.0
 20
0.0
 30
0.0
  9
$PUCSORGBOTTOM
 10
0.0
 20
0.0
 30
0.0
  9
$PUCSORGLEFT
 10
0.0
 20
0.0
 30
0.0
  9
$PUCSORGRIGHT
 10
0.0
 20
0.0
 30
0.0
  9
$PUCSORGFRONT
 10
0.0
 20
0.0
 30
0.0
  9
$PUCSORGBACK
 10
0.0
 20
0.0
 30
0.0
  9
$USERI1
 70
     0
  9
$USERI2
 70
     0
  9
$USERI3
 70
     0
  9
$USERI4
 70
     0
  9
$USERI5
 70
     0
  9
$USERR1
 40
0.0
  9
$USERR2
 40
0.0
  9
$USERR3
 40
0.0
  9
$USERR4
 40
0.0
  9
$USERR5
 40
0.0
  9
$WORLDVIEW
 70
     1
  9
$SHADEDGE
 70
     3
  9
$SHADEDIF
 70
    70
  9
$TILEMODE
 70
     1
  9
$MAXACTVP
 70
    64
  9
$PINSBASE
 10
0.0
 20
0.0
 30
0.0
  9
$PLIMCHECK
 70
     0
  9
$PEXTMIN
 10
0.0
 20
0.0
 30
0.0
  9
$PEXTMAX
 10
210.0
 20
297.0
 30
0.0
  9
$PLIMMIN
 10
0.0
 20
0.0
  9
$PLIMMAX
 10
210.0
 20
297.0
  9
$UNITMODE
 70
     0
  9
$VISRETAIN
 70
     1
  9
$PLINEGEN
 70
     0
  9
$PSLTSCALE
 70
     1
  9
$TREEDEPTH
 70
  3020
  9
$CMLSTYLE
  2
Standard
  9
$CMLJUST
 70
     0
  9
$CMLSCALE
 40
1.0
  9
$PROXYGRAPHICS
 70
     1
  9
$MEASUREMENT
 70
     1
  9
$CELWEIGHT
370
    -1
  9
$ENDCAPS
280
     0
  9
$JOINSTYLE
280
     0
  9
$LWDISPLAY
290
     0
  9
$INSUNITS
 70
     4
  9
$HYPERLINKBASE
  1

  9
$STYLESHEET
  1

  9
$XEDIT
290
     1
  9
$CEPSNTYPE
380
     0
  9
$PSTYLEMODE
290
     1
  9
$FINGERPRINTGUID
  2
{57099C3D-198A-4D5E-BBBE-3578157FB6CC}
  9
$VERSIONGUID
  2
{7BCFBCC8-70C2-4A1D-A13E-9374E51A2505}
  9
$EXTNAMES
290
     1
  9
$PSVPSCALE
 40
0.0
  9
$OLESTARTUP
290
     0
  0
ENDSEC
  0
SECTION
  2
CLASSES
  0
CLASS
  1
ACDBDICTIONARYWDFLT
  2
AcDbDictionaryWithDefault
  3
ObjectDBX Classes
 90
        0
280
     0
281
     0
  0
CLASS
  1
MATERIAL
  2
AcDbMaterial
  3
ObjectDBX Classes
 90
     1153
280
     0
281
     0
  0
CLASS
  1
VISUALSTYLE
  2
AcDbVisualStyle
  3
ObjectDBX Classes
 90
     4095
280
     0
281
     0
  0
CLASS
  1
SCALE
  2
AcDbScale
  3
ObjectDBX Classes
 90
     1153
280
     0
281
     0
  0
CLASS
  1
TABLESTYLE
  2
AcDbTableStyle
  3
ObjectDBX Classes
 90
     4095
280
     0
281
     0
  0
CLASS
  1
MLEADERSTYLE
  2
AcDbMLeaderStyle
  3
ACDB_MLEADERSTYLE_CLASS
 90
     4095
280
     0
281
     0
  0
CLASS
  1
DICTIONARYVAR
  2
AcDbDictionaryVar
  3
ObjectDBX Classes
 90
        0
280
     0
281
     0
  0
CLASS
  1
CELLSTYLEMAP
  2
AcDbCellStyleMap
  3
ObjectDBX Classes
 90
     1152
280
     0
281
     0
  0
CLASS
  1
ACDBPLACEHOLDER
  2
AcDbPlaceHolder
  3
ObjectDBX Classes
 90
        0
280
     0
281
     0
  0
CLASS
  1
LAYOUT
  2
AcDbLayout
  3
ObjectDBX Classes
 90
        0
280
     0
281
     0
  0
ENDSEC
  0
SECTION
  2
TABLES
  0
TABLE
  2
VPORT
  5
8
330
0
100
AcDbSymbolTable
 70
     1
  0
VPORT
  5
57
330
8
100
AcDbSymbolTableRecord
100
AcDbViewportTableRecord
  2
*Active
 70
     0
 10
0.0
 20
0.0
 11
1.0
 21
1.0
 12
105.0
 22
148.5
 13
0.0
 23
0.0
 14
1.0
 24
1.0
 15
0.0
 25
0.0
 16
0.0
 26
0.0
 36
1.0
 17
0.0
 27
0.0
 37
0.0
 40
297.0
 41
0.7070707070707071
 42
50.0
 43
0.0
 44
0.0
 50
0.0
 51
0.0
 71
     0
 72
   100
 73
     1
 74
     1
 75
     0
 76
     0
 77
     0
 78
     0
281
     0
 65
     1
110
0.0
120
0.0
130
0.0
111
1.0
121
0.0
131
0.0
112
0.0
122
1.0
132
0.0
 79
     0
146
0.0
  0
ENDTAB
  0
TABLE
  2
LTYPE
  5
5
330
0
100
AcDbSymbolTable
 70
    60
  0
LTYPE
  5
5B
330
5
100
AcDbSymbolTableRecord
100
AcDbLinetypeTableRecord
  2
ByBlock
 70
     0
  3

 72
    65
 73
     0
 40
0.0
  0
LTYPE
  5
5C
330
5
100
AcDbSymbolTableRecord
100
AcDbLinetypeTableRecord
  2
ByLayer
 70
     0
  3

 72
    65
 73
     0
 40
0.0
  0
LTYPE
  5
5D
330
5
100
AcDbSymbolTableRecord
100
AcDbLinetypeTableRecord
  2
Continuous
 70
     0
  3
Solid line
 72
    65
 73
     0
 40
0.0
  0
LTYPE
  5
74
330
5
100
AcDbSymbolTableRecord
100
AcDbLinetypeTableRecord
  2
Section_View_Lines
 70
     0
  3
Section View Lines
 72
    65
 73
     4
 40
0.8406
 49
0.6614
 74
     0
 49
-0.0827
 74
     0
 49
0.0138
 74
     0
 49
-0.0827
 74
     0
  0
LTYPE
  5
75
330
5
100
AcDbSymbolTableRecord
100
AcDbLinetypeTableRecord
  2
CHAIN
 70
     0
  3
Chain ____ _ ____ _ ____ _ ____ _ ____ _ ____
 72
    65
 73
     4
 40
0.3543
 49
0.2362
 74
     0
 49
-0.0295
 74
     0
 49
0.0591
 74
     0
 49
-0.0295
 74
     0
  0
LTYPE
  5
76
330
5
100
AcDbSymbolTableRecord
100
AcDbLinetypeTableRecord
  2
DASH_DOT
 70
     0
  3
Dash dot _._._._._._._._._._._._._._._.
 72
    65
 73
     4
 40
0.182
 49
0.1181
 74
     0
 49
-0.0295
 74
     0
 49
0.0049
 74
     0
 49
-0.0295
 74
     0
  0
LTYPE
  5
77
330
5
100
AcDbSymbolTableRecord
100
AcDbLinetypeTableRecord
  2
DASH_DOUBLE_DOT
 70
     0
  3
Dash Double Dot __ __ . __ __ . __ __ . __ _
 72
    65
 73
     6
 40
0.2164
 49
0.1181
 74
     0
 49
-0.0295
 74
     0
 49
0.0049
 74
     0
 49
-0.0295
 74
     0
 49
0.0049
 74
     0
 49
-0.0295
 74
     0
  0
LTYPE
  5
78
330
5
100
AcDbSymbolTableRecord
100
AcDbLinetypeTableRecord
  2
DASH_TRIPLE_DOT
 70
     0
  3
Dash Triple-Dot _ . . . _ . . . _ . . . _
 72
    65
 73
     8
 40
0.2508
 49
0.1181
 74
     0
 49
-0.0295
 74
     0
 49
0.0049
 74
     0
 49
-0.0295
 74
     0
 49
0.0049
 74
     0
 49
-0.0295
 74
     0
 49
0.0049
 74
     0
 49
-0.0295
 74
     0
  0
LTYPE
  5
79
330
5
100
AcDbSymbolTableRecord
100
AcDbLinetypeTableRecord
  2
DASHED
 70
     0
  3
Dashed __ __ __ __ __ __ __ __ __ __ __ __ __ _
 72
    65
 73
     2
 40
0.2068
 49
0.1655
 74
     0
 49
-0.0413
 74
     0
  0
LTYPE
  5
7A
330
5
100
AcDbSymbolTableRecord
100
AcDbLinetypeTableRecord
  2
DASHED_SPACE
 70
     0
  3
Dashed Space __ __ __ __ __ __ __ __ __ __ __ _
 72
    65
 73
     2
 40
0.2067
 49
0.1654
 74
     0
 49
-0.0413
 74
     0
  0
LTYPE
  5
7B
330
5
100
AcDbSymbolTableRecord
100
AcDbLinetypeTableRecord
  2
DOTTED
 70
     0
  3
Dotted . . . . . . . . . . . . . . . . . . . . 
 72
    65
 73
     2
 40
0.0481
 49
0.0068
 74
     0
 49
-0.0413
 74
     0
  0
LTYPE
  5
7C
330
5
100
AcDbSymbolTableRecord
100
AcDbLinetypeTableRecord
  2
DOUBLE_DASH_CHAIN
 70
     0
  3
Double Dash Chain ___ _ _ ___ _ _ ___ _ _ ___ _
 72
    65
 73
     6
 40
1.240299999999999
 49
0.6614
 74
     0
 49
-0.0827
 74
     0
 49
0.1654
 74
     0
 49
-0.0827
 74
     0
 49
0.1654
 74
     0
 49
-0.0827
 74
     0
  0
LTYPE
  5
7D
330
5
100
AcDbSymbolTableRecord
100
AcDbLinetypeTableRecord
  2
DOUBLE_DASH_DOT
 70
     0
  3
Double Dash Dot __ __ . __ __ . __ __ . __ _
 72
    65
 73
     6
 40
0.3296
 49
0.1181
 74
     0
 49
-0.0295
 74
     0
 49
0.1181
 74
     0
 49
-0.0295
 74
     0
 49
0.0049
 74
     0
 49
-0.0295
 74
     0
  0
LTYPE
  5
7E
330
5
100
AcDbSymbolTableRecord
100
AcDbLinetypeTableRecord
  2
DOUBLE_DASH_DOUBLE_DOT
 70
     0
  3
Double Dash Double Dot _ _ . . _ _ . . _ _
 72
    65
 73
     8
 40
0.364
 49
0.1181
 74
     0
 49
-0.0295
 74
     0
 49
0.1181
 74
     0
 49
-0.0295
 74
     0
 49
0.0049
 74
     0
 49
-0.0295
 74
     0
 49
0.0049
 74
     0
 49
-0.0295
 74
     0
  0
LTYPE
  5
7F
330
5
100
AcDbSymbolTableRecord
100
AcDbLinetypeTableRecord
  2
DOUBLE_DASH_TRIPLE_DOT
 70
     0
  3
Double Dash Triple Dot __ __ . . . __ __ . . .
 72
    65
 73
    10
 40
0.3984
 49
0.1181
 74
     0
 49
-0.0295
 74
     0
 49
0.1181
 74
     0
 49
-0.0295
 74
     0
 49
0.0049
 74
     0
 49
-0.0295
 74
     0
 49
0.0049
 74
     0
 49
-0.0295
 74
     0
 49
0.0049
 74
     0
 49
-0.0295
 74
     0
  0
LTYPE
  5
80
330
5
100
AcDbSymbolTableRecord
100
AcDbLinetypeTableRecord
  2
LONG_DASH_DOTTED
 70
     0
  3
Long Dash Dotted ____ . ____ . ____ . ____ . _
 72
    65
 73
     4
 40
0.3001
 49
0.2362
 74
     0
 49
-0.0295
 74
     0
 49
0.0049
 74
     0
 49
-0.0295
 74
     0
  0
LTYPE
  5
81
330
5
100
AcDbSymbolTableRecord
100
AcDbLinetypeTableRecord
  2
LONG_DASH_DOUBLE_DOT
 70
     0
  3
Long Dash Double Dot ____ . . ____ . . ____ . .
 72
    65
 73
     6
 40
0.3345
 49
0.2362
 74
     0
 49
-0.0295
 74
     0
 49
0.0049
 74
     0
 49
-0.0295
 74
     0
 49
0.0049
 74
     0
 49
-0.0295
 74
     0
  0
LTYPE
  5
82
330
5
100
AcDbSymbolTableRecord
100
AcDbLinetypeTableRecord
  2
LONG_DASH_TRIPLE_DOT
 70
     0
  3
Long Dash Triple Dot ____ ... ____ ... ____
 72
    65
 73
     8
 40
0.3689
 49
0.2362
 74
     0
 49
-0.0295
 74
     0
 49
0.0049
 74
     0
 49
-0.0295
 74
     0
 49
0.0049
 74
     0
 49
-0.0295
 74
     0
 49
0.0049
 74
     0
 49
-0.0295
 74
     0
  0
LTYPE
  5
83
330
5
100
AcDbSymbolTableRecord
100
AcDbLinetypeTableRecord
  2
BORDER
 70
     0
  3
Border __ __ . __ __ . __ __ . __ __ . __ __ .
 72
    65
 73
     6
 40
44.45
 49
12.7
 74
     0
 49
-6.349999999999999
 74
     0
 49
12.7
 74
     0
 49
-6.349999999999999
 74
     0
 49
0.0
 74
     0
 49
-6.349999999999999
 74
     0
  0
LTYPE
  5
84
330
5
100
AcDbSymbolTableRecord
100
AcDbLinetypeTableRecord
  2
BORDER2
 70
     0
  3
Border (.5x) __.__.__.__.__.__.__.__.__.__.__.
 72
    65
 73
     6
 40
22.225
 49
6.349999999999999
 74
     0
 49
-3.174999999999999
 74
     0
 49
6.349999999999999
 74
     0
 49
-3.174999999999999
 74
     0
 49
0.0
 74
     0
 49
-3.174999999999999
 74
     0
  0
LTYPE
  5
85
330
5
100
AcDbSymbolTableRecord
100
AcDbLinetypeTableRecord
  2
BORDERX2
 70
     0
  3
Border (2x) ____  ____  .  ____  ____  .  ___
 72
    65
 73
     6
 40
88.9
 49
25.4
 74
     0
 49
-12.7
 74
     0
 49
25.4
 74
     0
 49
-12.7
 74
     0
 49
0.0
 74
     0
 49
-12.7
 74
     0
  0
LTYPE
  5
86
330
5
100
AcDbSymbolTableRecord
100
AcDbLinetypeTableRecord
  2
CENTER
 70
     0
  3
Center ____ _ ____ _ ____ _ ____ _ ____ _ ____
 72
    65
 73
     4
 40
50.8
 49
31.75
 74
     0
 49
-6.349999999999999
 74
     0
 49
6.349999999999999
 74
     0
 49
-6.349999999999999
 74
     0
  0
LTYPE
  5
87
330
5
100
AcDbSymbolTableRecord
100
AcDbLinetypeTableRecord
  2
CENTER2
 70
     0
  3
Center (.5x) ___ _ ___ _ ___ _ ___ _ ___ _ ___
 72
    65
 73
     4
 40
28.575
 49
19.05
 74
     0
 49
-3.174999999999999
 74
     0
 49
3.174999999999999
 74
     0
 49
-3.174999999999999
 74
     0
  0
LTYPE
  5
88
330
5
100
AcDbSymbolTableRecord
100
AcDbLinetypeTableRecord
  2
CENTERX2
 70
     0
  3
Center (2x) ________  __  ________  __  _____
 72
    65
 73
     4
 40
101.6
 49
63.5
 74
     0
 49
-12.7
 74
     0
 49
12.7
 74
     0
 49
-12.7
 74
     0
  0
LTYPE
  5
89
330
5
100
AcDbSymbolTableRecord
100
AcDbLinetypeTableRecord
  2
DASHDOT2
 70
     0
  3
Dash dot (.5x) _._._._._._._._._._._._._._._.
 72
    65
 73
     4
 40
12.7
 49
6.349999999999999
 74
     0
 49
-3.174999999999999
 74
     0
 49
0.0
 74
     0
 49
-3.174999999999999
 74
     0
  0
LTYPE
  5
8A
330
5
100
AcDbSymbolTableRecord
100
AcDbLinetypeTableRecord
  2
DASHDOTX2
 70
     0
  3
Dash dot (2x) ____  .  ____  .  ____  .  ___
 72
    65
 73
     4
 40
50.8
 49
25.4
 74
     0
 49
-12.7
 74
     0
 49
0.0
 74
     0
 49
-12.7
 74
     0
  0
LTYPE
  5
8B
330
5
100
AcDbSymbolTableRecord
100
AcDbLinetypeTableRecord
  2
DASHED2
 70
     0
  3
Dashed (.5x) _ _ _ _ _ _ _ _ _ _ _ _ _ _ _ _ _
 72
    65
 73
     2
 40
9.524999999999998
 49
6.349999999999999
 74
     0
 49
-3.174999999999999
 74
     0
  0
LTYPE
  5
8C
330
5
100
AcDbSymbolTableRecord
100
AcDbLinetypeTableRecord
  2
DASHEDX2
 70
     0
  3
Dashed (2x) ____  ____  ____  ____  ____  ___
 72
    65
 73
     2
 40
38.1
 49
25.4
 74
     0
 49
-12.7
 74
     0
  0
LTYPE
  5
8D
330
5
100
AcDbSymbolTableRecord
100
AcDbLinetypeTableRecord
  2
DIVIDE
 70
     0
  3
Divide ____ . . ____ . . ____ . . ____ . . ____
 72
    65
 73
     6
 40
31.75
 49
12.7
 74
     0
 49
-6.349999999999999
 74
     0
 49
0.0
 74
     0
 49
-6.349999999999999
 74
     0
 49
0.0
 74
     0
 49
-6.349999999999999
 74
     0
  0
LTYPE
  5
8E
330
5
100
AcDbSymbolTableRecord
100
AcDbLinetypeTableRecord
  2
DIVIDE2
 70
     0
  3
Divide (.5x) __..__..__..__..__..__..__..__.._
 72
    65
 73
     6
 40
15.875
 49
6.349999999999999
 74
     0
 49
-3.174999999999999
 74
     0
 49
0.0
 74
     0
 49
-3.174999999999999
 74
     0
 49
0.0
 74
     0
 49
-3.174999999999999
 74
     0
  0
LTYPE
  5
8F
330
5
100
AcDbSymbolTableRecord
100
AcDbLinetypeTableRecord
  2
DIVIDEX2
 70
     0
  3
Divide (2x) ________  .  .  ________  .  .  _
 72
    65
 73
     6
 40
63.49999999999999
 49
25.4
 74
     0
 49
-12.7
 74
     0
 49
0.0
 74
     0
 49
-12.7
 74
     0
 49
0.0
 74
     0
 49
-12.7
 74
     0
  0
LTYPE
  5
90
330
5
100
AcDbSymbolTableRecord
100
AcDbLinetypeTableRecord
  2
DOT
 70
     0
  3
Dot . . . . . . . . . . . . . . . . . . . . . .
 72
    65
 73
     2
 40
6.349999999999999
 49
0.0
 74
     0
 49
-6.349999999999999
 74
     0
  0
LTYPE
  5
91
330
5
100
AcDbSymbolTableRecord
100
AcDbLinetypeTableRecord
  2
DOT2
 70
     0
  3
Dot (.5x) .....................................
 72
    65
 73
     2
 40
3.174999999999999
 49
0.0
 74
     0
 49
-3.174999999999999
 74
     0
  0
LTYPE
  5
92
330
5
100
AcDbSymbolTableRecord
100
AcDbLinetypeTableRecord
  2
DOTX2
 70
     0
  3
Dot (2x) .  .  .  .  .  .  .  .  .  .  .  .  . 
 72
    65
 73
     2
 40
12.7
 49
0.0
 74
     0
 49
-12.7
 74
     0
  0
LTYPE
  5
93
330
5
100
AcDbSymbolTableRecord
100
AcDbLinetypeTableRecord
  2
HIDDEN
 70
     0
  3
Hidden __ __ __ __ __ __ __ __ __ __ __ __ __ _
 72
    65
 73
     2
 40
9.524999999999998
 49
6.349999999999999
 74
     0
 49
-3.174999999999999
 74
     0
  0
LTYPE
  5
94
330
5
100
AcDbSymbolTableRecord
100
AcDbLinetypeTableRecord
  2
HIDDEN2
 70
     0
  3
Hidden (.5x) _ _ _ _ _ _ _ _ _ _ _ _ _ _ _ _ _
 72
    65
 73
     2
 40
4.762499999999999
 49
3.174999999999999
 74
     0
 49
-1.587499999999999
 74
     0
  0
LTYPE
  5
95
330
5
100
AcDbSymbolTableRecord
100
AcDbLinetypeTableRecord
  2
HIDDENX2
 70
     0
  3
Hidden (2x) ____ ____ ____ ____ ____ ____ ____
 72
    65
 73
     2
 40
19.05
 49
12.7
 74
     0
 49
-6.349999999999999
 74
     0
  0
LTYPE
  5
96
330
5
100
AcDbSymbolTableRecord
100
AcDbLinetypeTableRecord
  2
PHANTOM
 70
     0
  3
Phantom ______  __  __  ______  __  __  ______
 72
    65
 73
     6
 40
63.5
 49
31.75
 74
     0
 49
-6.349999999999999
 74
     0
 49
6.349999999999999
 74
     0
 49
-6.349999999999999
 74
     0
 49
6.349999999999999
 74
     0
 49
-6.349999999999999
 74
     0
  0
LTYPE
  5
97
330
5
100
AcDbSymbolTableRecord
100
AcDbLinetypeTableRecord
  2
PHANTOM2
 70
     0
  3
Phantom (.5x) ___ _ _ ___ _ _ ___ _ _ ___ _ _
 72
    65
 73
     6
 40
31.75
 49
15.875
 74
     0
 49
-3.174999999999999
 74
     0
 49
3.174999999999999
 74
     0
 49
-3.174999999999999
 74
     0
 49
3.174999999999999
 74
     0
 49
-3.174999999999999
 74
     0
  0
LTYPE
  5
98
330
5
100
AcDbSymbolTableRecord
100
AcDbLinetypeTableRecord
  2
PHANTOMX2
 70
     0
  3
Phantom (2x) ____________    ____    ____   _
 72
    65
 73
     6
 40
127.0
 49
63.5
 74
     0
 49
-12.7
 74
     0
 49
12.7
 74
     0
 49
-12.7
 74
     0
 49
12.7
 74
     0
 49
-12.7
 74
     0
  0
LTYPE
  5
99
330
5
100
AcDbSymbolTableRecord
100
AcDbLinetypeTableRecord
  2
ACAD_ISO02W100
 70
     0
  3
ISO dash __ __ __ __ __ __ __ __ __ __ __ __ __
 72
    65
 73
     2
 40
15.0
 49
12.0
 74
     0
 49
-3.0
 74
     0
  0
LTYPE
  5
9A
330
5
100
AcDbSymbolTableRecord
100
AcDbLinetypeTableRecord
  2
ACAD_ISO03W100
 70
     0
  3
ISO dash space __    __    __    __    __    __
 72
    65
 73
     2
 40
30.0
 49
12.0
 74
     0
 49
-18.0
 74
     0
  0
LTYPE
  5
9B
330
5
100
AcDbSymbolTableRecord
100
AcDbLinetypeTableRecord
  2
ACAD_ISO04W100
 70
     0
  3
ISO long-dash dot ____ . ____ . ____ . ____ . _
 72
    65
 73
     4
 40
30.0
 49
24.0
 74
     0
 49
-3.0
 74
     0
 49
0.0
 74
     0
 49
-3.0
 74
     0
  0
LTYPE
  5
9C
330
5
100
AcDbSymbolTableRecord
100
AcDbLinetypeTableRecord
  2
ACAD_ISO05W100
 70
     0
  3
ISO long-dash double-dot ____ .. ____ .. ____ .
 72
    65
 73
     6
 40
33.0
 49
24.0
 74
     0
 49
-3.0
 74
     0
 49
0.0
 74
     0
 49
-3.0
 74
     0
 49
0.0
 74
     0
 49
-3.0
 74
     0
  0
LTYPE
  5
9D
330
5
100
AcDbSymbolTableRecord
100
AcDbLinetypeTableRecord
  2
ACAD_ISO06W100
 70
     0
  3
ISO long-dash triple-dot ____ ... ____ ... ____
 72
    65
 73
     8
 40
36.0
 49
24.0
 74
     0
 49
-3.0
 74
     0
 49
0.0
 74
     0
 49
-3.0
 74
     0
 49
0.0
 74
     0
 49
-3.0
 74
     0
 49
0.0
 74
     0
 49
-3.0
 74
     0
  0
LTYPE
  5
9E
330
5
100
AcDbSymbolTableRecord
100
AcDbLinetypeTableRecord
  2
ACAD_ISO07W100
 70
     0
  3
ISO dot . . . . . . . . . . . . . . . . . . . .
 72
    65
 73
     2
 40
3.0
 49
0.0
 74
     0
 49
-3.0
 74
     0
  0
LTYPE
  5
9F
330
5
100
AcDbSymbolTableRecord
100
AcDbLinetypeTableRecord
  2
ACAD_ISO08W100
 70
     0
  3
ISO long-dash short-dash ____ __ ____ __ ____ _
 72
    65
 73
     4
 40
36.0
 49
24.0
 74
     0
 49
-3.0
 74
     0
 49
6.0
 74
     0
 49
-3.0
 74
     0
  0
LTYPE
  5
A0
330
5
100
AcDbSymbolTableRecord
100
AcDbLinetypeTableRecord
  2
ACAD_ISO09W100
 70
     0
  3
ISO long-dash double-short-dash ____ __ __ ____
 72
    65
 73
     6
 40
45.0
 49
24.0
 74
     0
 49
-3.0
 74
     0
 49
6.0
 74
     0
 49
-3.0
 74
     0
 49
6.0
 74
     0
 49
-3.0
 74
     0
  0
LTYPE
  5
A1
330
5
100
AcDbSymbolTableRecord
100
AcDbLinetypeTableRecord
  2
ACAD_ISO10W100
 70
     0
  3
ISO dash dot __ . __ . __ . __ . __ . __ . __ .
 72
    65
 73
     4
 40
18.0
 49
12.0
 74
     0
 49
-3.0
 74
     0
 49
0.0
 74
     0
 49
-3.0
 74
     0
  0
LTYPE
  5
A2
330
5
100
AcDbSymbolTableRecord
100
AcDbLinetypeTableRecord
  2
ACAD_ISO11W100
 70
     0
  3
ISO double-dash dot __ __ . __ __ . __ __ . __ 
 72
    65
 73
     6
 40
33.0
 49
12.0
 74
     0
 49
-3.0
 74
     0
 49
12.0
 74
     0
 49
-3.0
 74
     0
 49
0.0
 74
     0
 49
-3.0
 74
     0
  0
LTYPE
  5
A3
330
5
100
AcDbSymbolTableRecord
100
AcDbLinetypeTableRecord
  2
ACAD_ISO12W100
 70
     0
  3
ISO dash double-dot __ . . __ . . __ . . __ . .
 72
    65
 73
     6
 40
21.0
 49
12.0
 74
     0
 49
-3.0
 74
     0
 49
0.0
 74
     0
 49
-3.0
 74
     0
 49
0.0
 74
     0
 49
-3.0
 74
     0
  0
LTYPE
  5
A4
330
5
100
AcDbSymbolTableRecord
100
AcDbLinetypeTableRecord
  2
ACAD_ISO13W100
 70
     0
  3
ISO double-dash double-dot __ __ . . __ __ . . 
 72
    65
 73
     8
 40
36.0
 49
12.0
 74
     0
 49
-3.0
 74
     0
 49
12.0
 74
     0
 49
-3.0
 74
     0
 49
0.0
 74
     0
 49
-3.0
 74
     0
 49
0.0
 74
     0
 49
-3.0
 74
     0
  0
LTYPE
  5
A5
330
5
100
AcDbSymbolTableRecord
100
AcDbLinetypeTableRecord
  2
ACAD_ISO14W100
 70
     0
  3
ISO dash triple-dot __ . . . __ . . . __ . . . 
 72
    65
 73
     8
 40
24.0
 49
12.0
 74
     0
 49
-3.0
 74
     0
 49
0.0
 74
     0
 49
-3.0
 74
     0
 49
0.0
 74
     0
 49
-3.0
 74
     0
 49
0.0
 74
     0
 49
-3.0
 74
     0
  0
LTYPE
  5
A6
330
5
100
AcDbSymbolTableRecord
100
AcDbLinetypeTableRecord
  2
ACAD_ISO15W100
 70
     0
  3
ISO double-dash triple-dot __ __ . . . __ __ . 
 72
    65
 73
    10
 40
39.0
 49
12.0
 74
     0
 49
-3.0
 74
     0
 49
12.0
 74
     0
 49
-3.0
 74
     0
 49
0.0
 74
     0
 49
-3.0
 74
     0
 49
0.0
 74
     0
 49
-3.0
 74
     0
 49
0.0
 74
     0
 49
-3.0
 74
     0
  0
LTYPE
  5
A9
330
5
100
AcDbSymbolTableRecord
100
AcDbLinetypeTableRecord
  2
FENCELINE1
 70
     0
  3
Fenceline circle ----0-----0----0-----0----0---
 72
    65
 73
     4
 40
36.83
 49
6.349999999999999
 74
     0
 49
-2.54
 74
     4
 75
   133
340
A8
 46
2.54
 50
0.0
 44
-2.54
 45
0.0
 49
-2.54
 74
     0
 49
25.4
 74
     0
  0
LTYPE
  5
AA
330
5
100
AcDbSymbolTableRecord
100
AcDbLinetypeTableRecord
  2
FENCELINE2
 70
     0
  3
Fenceline square ----[]-----[]----[]-----[]----
 72
    65
 73
     4
 40
36.83
 49
6.349999999999999
 74
     0
 49
-2.54
 74
     4
 75
   132
340
A8
 46
2.54
 50
0.0
 44
-2.54
 45
0.0
 49
-2.54
 74
     0
 49
25.4
 74
     0
  0
LTYPE
  5
AB
330
5
100
AcDbSymbolTableRecord
100
AcDbLinetypeTableRecord
  2
TRACKS
 70
     0
  3
Tracks -|-|-|-|-|-|-|-|-|-|-|-|-|-|-|-|-|-|-|-|
 72
    65
 73
     2
 40
7.62
 49
3.81
 74
     4
 75
   130
340
A8
 46
6.349999999999999
 50
0.0
 44
0.0
 45
0.0
 49
3.81
 74
     0
  0
LTYPE
  5
AC
330
5
100
AcDbSymbolTableRecord
100
AcDbLinetypeTableRecord
  2
BATTING
 70
     0
  3
Batting SSSSSSSSSSSSSSSSSSSSSSSSSSSSSSSSSSSSSSS
 72
    65
 73
     4
 40
10.16254
 49
0.00254
 74
     0
 49
-2.54
 74
     4
 75
   134
340
A8
 46
2.54
 50
0.0
 44
-2.54
 45
0.0
 49
-5.08
 74
     4
 75
   134
340
A8
 46
2.54
 50
180.0
 44
2.54
 45
0.0
 49
-2.54
 74
     0
  0
LTYPE
  5
AD
330
5
100
AcDbSymbolTableRecord
100
AcDbLinetypeTableRecord
  2
HOT_WATER_SUPPLY
 70
     0
  3
Hot water supply ---- HW ---- HW ---- HW ----
 72
    65
 73
     3
 40
22.86
 49
12.7
 74
     0
 49
-5.08
 74
     2
 75
     0
340
55
 46
2.54
 50
0.0
 44
-2.54
 45
-1.27
  9
HW
 49
-5.08
 74
     0
  0
LTYPE
  5
AE
330
5
100
AcDbSymbolTableRecord
100
AcDbLinetypeTableRecord
  2
GAS_LINE
 70
     0
  3
Gas line ----GAS----GAS----GAS----GAS----GAS---
 72
    65
 73
     3
 40
24.13
 49
12.7
 74
     0
 49
-5.08
 74
     2
 75
     0
340
55
 46
2.54
 50
0.0
 44
-2.54
 45
-1.27
  9
GAS
 49
-6.349999999999999
 74
     0
  0
LTYPE
  5
AF
330
5
100
AcDbSymbolTableRecord
100
AcDbLinetypeTableRecord
  2
ZIGZAG
 70
     0
  3
Zig zag /\/\/\/\/\/\/\/\/\/\/\/\/\/\/\/\/\/\/\/
 72
    65
 73
     4
 40
20.32254
 49
0.00254
 74
     0
 49
-5.08
 74
     4
 75
   131
340
A8
 46
5.08
 50
0.0
 44
-5.08
 45
0.0
 49
-10.16
 74
     4
 75
   131
340
A8
 46
5.08
 50
180.0
 44
5.08
 45
0.0
 49
-5.08
 74
     0
  0
LTYPE
  5
185
330
5
100
AcDbSymbolTableRecord
100
AcDbLinetypeTableRecord
  2
CONTINUOUS_ACAD
 70
     0
  3

 72
    65
 73
     0
 40
0.0
  0
ENDTAB
  0
TABLE
  2
LAYER
  5
2
330
0
100
AcDbSymbolTable
 70
   215
  0
LAYER
  5
54
330
2
100
AcDbSymbolTableRecord
100
AcDbLayerTableRecord
  2
0
 70
     0
 62
     7
  6
Continuous
370
    -3
390
F
  0
LAYER
  5
FF
330
2
100
AcDbSymbolTableRecord
100
AcDbLayerTableRecord
  2
Dimensions(ISO)
 70
     0
 62
     7
  6
Continuous
370
    25
390
F
  0
LAYER
  5
101
330
2
100
AcDbSymbolTableRecord
100
AcDbLayerTableRecord
  2
Hatch
 70
     0
 62
   179
  6
Continuous
370
     9
390
F
  0
LAYER
  5
133
330
2
100
AcDbSymbolTableRecord
100
AcDbLayerTableRecord
  2
Sketch Geometry(ISO)
 70
     0
 62
     7
  6
Continuous
370
    50
390
F
  0
LAYER
  5
154
330
2
100
AcDbSymbolTableRecord
100
AcDbLayerTableRecord
  2
Symbols(ISO)
 70
     0
 62
     7
  6
Continuous
370
    25
390
F
  0
LAYER
  5
16B
330
2
100
AcDbSymbolTableRecord
100
AcDbLayerTableRecord
  2
Visible Edges(ISO)
 70
     0
 62
     7
  6
Continuous
370
    18
390
F
  0
LAYER
  5
496
330
2
100
AcDbSymbolTableRecord
100
AcDbLayerTableRecord
  2
Defpoints
 70
     0
 62
     7
  6
Continuous
290
     0
370
    -3
390
F
  0
ENDTAB
  0
TABLE
  2
STYLE
  5
3
330
0
100
AcDbSymbolTable
 70
    48
  0
STYLE
  5
55
330
3
100
AcDbSymbolTableRecord
100
AcDbTextStyleTableRecord
  2
Standard
 70
     0
 40
0.0
 41
1.0
 50
0.0
 71
     0
 42
0.2
  3
monotxt.shx
  4

  0
STYLE
  5
5A
330
3
100
AcDbSymbolTableRecord
100
AcDbTextStyleTableRecord
  2
Annotative
 70
     0
 40
0.0
 41
1.0
 50
0.0
 71
     0
 42
0.2
  3
txt
  4

1001
AcadAnnotative
1000
AnnotativeData
1002
{
1070
     1
1070
     1
1002
}
  0
STYLE
  5
A8
330
3
100
AcDbSymbolTableRecord
100
AcDbTextStyleTableRecord
  2

 70
     1
 40
0.0
 41
1.0
 50
0.0
 71
     0
 42
0.2
  3
ltypeshp.shx
  4

  0
STYLE
  5
186
330
3
100
AcDbSymbolTableRecord
100
AcDbTextStyleTableRecord
  2
Current-BSI
 70
     0
 40
0.0
 41
1.0
 50
0.0
 71
     0
 42
0.2
  3
ARIAL.TTF
  4

1001
ACAD
1000
Arial
1071
      256
  0
STYLE
  5
187
330
3
100
AcDbSymbolTableRecord
100
AcDbTextStyleTableRecord
  2
Current-ISO
 70
     0
 40
0.0
 41
1.0
 50
0.0
 71
     0
 42
0.2
  3
ARIAL.TTF
  4

1001
ACAD
1000
Arial
1071
      256
  0
STYLE
  5
188
330
3
100
AcDbSymbolTableRecord
100
AcDbTextStyleTableRecord
  2
Current-JIS
 70
     0
 40
0.0
 41
1.0
 50
0.0
 71
     0
 42
0.2
  3
ARIAL.TTF
  4

1001
ACAD
1000
Arial
1071
      256
  0
STYLE
  5
189
330
3
100
AcDbSymbolTableRecord
100
AcDbTextStyleTableRecord
  2
DEFAULT-ANSI
 70
     0
 40
0.0
 41
1.0
 50
0.0
 71
     0
 42
0.2
  3
ARIAL.TTF
  4

1001
ACAD
1000
Arial
1071
      256
  0
STYLE
  5
18A
330
3
100
AcDbSymbolTableRecord
100
AcDbTextStyleTableRecord
  2
DEFAULT-ANSIBigText
 70
     0
 40
0.0
 41
1.0
 50
0.0
 71
     0
 42
0.2
  3
ARIAL.TTF
  4

1001
ACAD
1000
Arial
1071
      256
  0
STYLE
  5
18B
330
3
100
AcDbSymbolTableRecord
100
AcDbTextStyleTableRecord
  2
DEFAULT-ANSIByLayer
 70
     0
 40
0.0
 41
1.0
 50
0.0
 71
     0
 42
0.2
  3
ARIAL.TTF
  4

1001
ACAD
1000
Arial
1071
      256
  0
STYLE
  5
18C
330
3
100
AcDbSymbolTableRecord
100
AcDbTextStyleTableRecord
  2
DEFAULT-BSI
 70
     0
 40
0.0
 41
1.0
 50
0.0
 71
     0
 42
0.2
  3
ARIAL.TTF
  4

1001
ACAD
1000
Arial
1071
      256
  0
STYLE
  5
18D
330
3
100
AcDbSymbolTableRecord
100
AcDbTextStyleTableRecord
  2
DEFAULT-BSIBigText
 70
     0
 40
0.0
 41
1.0
 50
0.0
 71
     0
 42
0.2
  3
ARIAL.TTF
  4

1001
ACAD
1000
Arial
1071
      256
  0
STYLE
  5
18E
330
3
100
AcDbSymbolTableRecord
100
AcDbTextStyleTableRecord
  2
DEFAULT-BSIByLayer
 70
     0
 40
0.0
 41
1.0
 50
0.0
 71
     0
 42
0.2
  3
ARIAL.TTF
  4

1001
ACAD
1000
Arial
1071
      256
  0
STYLE
  5
18F
330
3
100
AcDbSymbolTableRecord
100
AcDbTextStyleTableRecord
  2
DEFAULT-DIN
 70
     0
 40
0.0
 41
1.0
 50
0.0
 71
     0
 42
0.2
  3
ARIAL.TTF
  4

1001
ACAD
1000
Arial
1071
      256
  0
STYLE
  5
190
330
3
100
AcDbSymbolTableRecord
100
AcDbTextStyleTableRecord
  2
DEFAULT-DINBigText
 70
     0
 40
0.0
 41
1.0
 50
0.0
 71
     0
 42
0.2
  3
ARIAL.TTF
  4

1001
ACAD
1000
Arial
1071
      256
  0
STYLE
  5
191
330
3
100
AcDbSymbolTableRecord
100
AcDbTextStyleTableRecord
  2
DEFAULT-DINByLayer
 70
     0
 40
0.0
 41
1.0
 50
0.0
 71
     0
 42
0.2
  3
ARIAL.TTF
  4

1001
ACAD
1000
Arial
1071
      256
  0
STYLE
  5
192
330
3
100
AcDbSymbolTableRecord
100
AcDbTextStyleTableRecord
  2
DEFAULT-GB
 70
     0
 40
0.0
 41
1.0
 50
0.0
 71
     0
 42
0.2
  3
ARIAL.TTF
  4

1001
ACAD
1000
Arial
1071
      256
  0
STYLE
  5
193
330
3
100
AcDbSymbolTableRecord
100
AcDbTextStyleTableRecord
  2
DEFAULT-GBBigText
 70
     0
 40
0.0
 41
1.0
 50
0.0
 71
     0
 42
0.2
  3
ARIAL.TTF
  4

1001
ACAD
1000
Arial
1071
      256
  0
STYLE
  5
194
330
3
100
AcDbSymbolTableRecord
100
AcDbTextStyleTableRecord
  2
DEFAULT-GBByLayer
 70
     0
 40
0.0
 41
1.0
 50
0.0
 71
     0
 42
0.2
  3
ARIAL.TTF
  4

1001
ACAD
1000
Arial
1071
      256
  0
STYLE
  5
195
330
3
100
AcDbSymbolTableRecord
100
AcDbTextStyleTableRecord
  2
DEFAULT-ISO
 70
     0
 40
0.0
 41
1.0
 50
0.0
 71
     0
 42
0.2
  3
ARIAL.TTF
  4

1001
ACAD
1000
Arial
1071
      256
  0
STYLE
  5
196
330
3
100
AcDbSymbolTableRecord
100
AcDbTextStyleTableRecord
  2
DEFAULT-ISOByLayer
 70
     0
 40
0.0
 41
1.0
 50
0.0
 71
     0
 42
0.2
  3
ARIAL.TTF
  4

1001
ACAD
1000
Arial
1071
      256
  0
STYLE
  5
197
330
3
100
AcDbSymbolTableRecord
100
AcDbTextStyleTableRecord
  2
DEFAULT-JIS
 70
     0
 40
0.0
 41
1.0
 50
0.0
 71
     0
 42
0.2
  3
ARIAL.TTF
  4

1001
ACAD
1000
Arial
1071
      256
  0
STYLE
  5
198
330
3
100
AcDbSymbolTableRecord
100
AcDbTextStyleTableRecord
  2
DEFAULT-JISBigText
 70
     0
 40
0.0
 41
1.0
 50
0.0
 71
     0
 42
0.2
  3
ARIAL.TTF
  4

1001
ACAD
1000
Arial
1071
      256
  0
STYLE
  5
199
330
3
100
AcDbSymbolTableRecord
100
AcDbTextStyleTableRecord
  2
DEFAULT-JISByLayer
 70
     0
 40
0.0
 41
1.0
 50
0.0
 71
     0
 42
0.2
  3
ARIAL.TTF
  4

1001
ACAD
1000
Arial
1071
      256
  0
STYLE
  5
19A
330
3
100
AcDbSymbolTableRecord
100
AcDbTextStyleTableRecord
  2
Label Text (ANSI)
 70
     0
 40
0.0
 41
1.0
 50
0.0
 71
     0
 42
0.2
  3
TAHOMA.TTF
  4

1001
ACAD
1000
Tahoma
1071
      256
  0
STYLE
  5
19B
330
3
100
AcDbSymbolTableRecord
100
AcDbTextStyleTableRecord
  2
Label Text (DIN)
 70
     0
 40
0.0
 41
1.0
 50
0.0
 71
     0
 42
0.2
  3
isocpeur.ttf
  4

1001
ACAD
1000
ISOCPEUR
1071
      256
  0
STYLE
  5
19C
330
3
100
AcDbSymbolTableRecord
100
AcDbTextStyleTableRecord
  2
Label Text (ISO)
 70
     0
 40
0.0
 41
1.0
 50
0.0
 71
     0
 42
0.2
  3
TAHOMA.TTF
  4

1001
ACAD
1000
Tahoma
1071
      256
  0
STYLE
  5
19D
330
3
100
AcDbSymbolTableRecord
100
AcDbTextStyleTableRecord
  2
Label Text (JIS)
 70
     0
 40
0.0
 41
1.0
 50
0.0
 71
     0
 42
0.2
  3
TAHOMA.TTF
  4

1001
ACAD
1000
Tahoma
1071
      256
  0
STYLE
  5
19E
330
3
100
AcDbSymbolTableRecord
100
AcDbTextStyleTableRecord
  2
MM-ANSI
 70
     0
 40
0.0
 41
1.0
 50
0.0
 71
     0
 42
0.2
  3
ARIAL.TTF
  4

1001
ACAD
1000
Arial
1071
      256
  0
STYLE
  5
19F
330
3
100
AcDbSymbolTableRecord
100
AcDbTextStyleTableRecord
  2
PANROMAN_51
 70
     0
 40
0.0
 41
1.0
 50
0.0
 71
     0
 42
0.2
  3

  4

  0
STYLE
  5
1A0
330
3
100
AcDbSymbolTableRecord
100
AcDbTextStyleTableRecord
  2
PANROMAN_54
 70
     0
 40
0.0
 41
2.5
 50
0.0
 71
     0
 42
0.2
  3

  4

  0
STYLE
  5
1A1
330
3
100
AcDbSymbolTableRecord
100
AcDbTextStyleTableRecord
  2
ROMANS
 70
     0
 40
0.0
 41
1.0
 50
0.0
 71
     0
 42
0.2
  3
romans.shx
  4

  0
STYLE
  5
1A2
330
3
100
AcDbSymbolTableRecord
100
AcDbTextStyleTableRecord
  2
ROMANSDIMSTYLE
 70
     0
 40
0.0
 41
1.0
 50
0.0
 71
     0
 42
0.2
  3
romans.shx
  4

  0
STYLE
  5
1A3
330
3
100
AcDbSymbolTableRecord
100
AcDbTextStyleTableRecord
  2
STANDARD_33
 70
     0
 40
0.0
 41
0.8000000119209289
 50
0.0
 71
     0
 42
0.2
  3
monotxt.shx
  4

  0
STYLE
  5
1A4
330
3
100
AcDbSymbolTableRecord
100
AcDbTextStyleTableRecord
  2
STANDARD_36
 70
     0
 40
0.0
 41
1.0
 50
0.0
 71
     0
 42
0.2
  3
monotxt.shx
  4

  0
STYLE
  5
1A5
330
3
100
AcDbSymbolTableRecord
100
AcDbTextStyleTableRecord
  2
STANDARD_60
 70
     0
 40
0.0
 41
1.0
 50
0.0
 71
     0
 42
0.2
  3
monotxt.shx
  4

  0
STYLE
  5
1A6
330
3
100
AcDbSymbolTableRecord
100
AcDbTextStyleTableRecord
  2
STANDARD_61
 70
     0
 40
0.0
 41
1.0
 50
0.0
 71
     0
 42
0.2
  3
monotxt.shx
  4

  0
STYLE
  5
1A7
330
3
100
AcDbSymbolTableRecord
100
AcDbTextStyleTableRecord
  2
STANDARDBigText
 70
     0
 40
0.0
 41
1.0
 50
0.0
 71
     0
 42
0.2
  3
monotxt.shx
  4

  0
STYLE
  5
1A8
330
3
100
AcDbSymbolTableRecord
100
AcDbTextStyleTableRecord
  2
STANDARDByLayer
 70
     0
 40
0.0
 41
1.0
 50
0.0
 71
     0
 42
0.2
  3
monotxt.shx
  4

  0
STYLE
  5
1A9
330
3
100
AcDbSymbolTableRecord
100
AcDbTextStyleTableRecord
  2
STANDARDDIA1
 70
     0
 40
0.0
 41
1.0
 50
0.0
 71
     0
 42
0.2
  3
monotxt.shx
  4

  0
STYLE
  5
1AA
330
3
100
AcDbSymbolTableRecord
100
AcDbTextStyleTableRecord
  2
STANDARDDIM0
 70
     0
 40
0.0
 41
1.0
 50
0.0
 71
     0
 42
0.2
  3
monotxt.shx
  4

  0
STYLE
  5
1AB
330
3
100
AcDbSymbolTableRecord
100
AcDbTextStyleTableRecord
  2
STANDARDDIM1
 70
     0
 40
0.0
 41
1.0
 50
0.0
 71
     0
 42
0.2
  3
monotxt.shx
  4

  0
STYLE
  5
1AC
330
3
100
AcDbSymbolTableRecord
100
AcDbTextStyleTableRecord
  2
STANDARDDIM2
 70
     0
 40
0.0
 41
1.0
 50
0.0
 71
     0
 42
0.2
  3
monotxt.shx
  4

  0
STYLE
  5
1AD
330
3
100
AcDbSymbolTableRecord
100
AcDbTextStyleTableRecord
  2
STANDARDSTANDARD
 70
     0
 40
0.0
 41
1.0
 50
0.0
 71
     0
 42
0.2
  3
monotxt.shx
  4

  0
STYLE
  5
1AE
330
3
100
AcDbSymbolTableRecord
100
AcDbTextStyleTableRecord
  2
X.X big gap & text
 70
     0
 40
0.0
 41
1.0
 50
0.0
 71
     0
 42
0.2
  3
ARIAL.TTF
  4

1001
ACAD
1000
Arial
1071
      256
  0
STYLE
  5
456
330
3
100
AcDbSymbolTableRecord
100
AcDbTextStyleTableRecord
  2
Text Style171
 70
     0
 40
0.0
 41
1.0
 50
0.0
 71
     0
 42
0.2
  3
romans.shx
  4

  0
STYLE
  5
45A
330
3
100
AcDbSymbolTableRecord
100
AcDbTextStyleTableRecord
  2
Text Style168
 70
     0
 40
0.0
 41
1.0
 50
0.0
 71
     0
 42
0.2
  3
romans.shx
  4

  0
STYLE
  5
45C
330
3
100
AcDbSymbolTableRecord
100
AcDbTextStyleTableRecord
  2
Text Style169
 70
     0
 40
0.0
 41
1.0
 50
0.0
 71
     0
 42
0.2
  3
romans.shx
  4

  0
STYLE
  5
45E
330
3
100
AcDbSymbolTableRecord
100
AcDbTextStyleTableRecord
  2
Text Style175
 70
     0
 40
0.0
 41
1.0
 50
0.0
 71
     0
 42
0.2
  3
RomanS.shx
  4

  0
ENDTAB
  0
TABLE
  2
VIEW
  5
6
330
0
100
AcDbSymbolTable
 70
     0
  0
ENDTAB
  0
TABLE
  2
UCS
  5
7
330
0
100
AcDbSymbolTable
 70
     0
  0
ENDTAB
  0
TABLE
  2
APPID
  5
9
330
0
100
AcDbSymbolTable
 70
     4
  0
APPID
  5
56
330
9
100
AcDbSymbolTableRecord
100
AcDbRegAppTableRecord
  2
ACAD
 70
     0
  0
APPID
  5
5E
330
9
100
AcDbSymbolTableRecord
100
AcDbRegAppTableRecord
  2
AcadAnnotative
 70
     0
  0
APPID
  5
9D1
330
9
100
AcDbSymbolTableRecord
100
AcDbRegAppTableRecord
  2
ACAD_DSTYLE_DIMRADIAL_EXTENSION
 70
     0
  0
APPID
  5
ACF
330
9
100
AcDbSymbolTableRecord
100
AcDbRegAppTableRecord
  2
ACAD_MLEADERVER
 70
     0
  0
ENDTAB
  0
TABLE
  2
DIMSTYLE
  5
A
330
0
100
AcDbSymbolTable
 70
    82
100
AcDbDimStyleTable
 71
     2
340
1C6
340
58
  0
DIMSTYLE
105
58
330
A
100
AcDbSymbolTableRecord
100
AcDbDimStyleTableRecord
  2
Standard
 70
     0
 41
2.5
340
55
342
1DD
  0
DIMSTYLE
105
59
330
A
100
AcDbSymbolTableRecord
100
AcDbDimStyleTableRecord
  2
Annotative
 70
     0
340
55
1001
AcadAnnotative
1000
AnnotativeData
1002
{
1070
     1
1070
     1
1002
}
  0
DIMSTYLE
105
1AF
330
A
100
AcDbSymbolTableRecord
100
AcDbDimStyleTableRecord
  2
BSI - Method 2
 70
     0
 41
2.5
 42
0.5
 43
5.999999999999999
 44
2.999999999999999
 45
0.00000001
 46
10.0
 73
     0
 77
     1
 78
     8
 79
     2
140
3.5
143
0.03937
147
0.75
171
     3
172
     1
176
     7
177
     7
178
     7
179
     2
271
     2
272
     2
274
     3
278
    44
284
     8
285
     8
286
     8
340
186
371
    25
372
    25
  0
DIMSTYLE
105
1B0
330
A
100
AcDbSymbolTableRecord
100
AcDbDimStyleTableRecord
  2
BSI - Method 2$7
 70
     0
 41
2.5
 42
0.5
 43
5.999999999999999
 44
2.999999999999999
 45
0.00000001
 46
10.0
 73
     0
 77
     1
 78
     8
 79
     2
140
3.5
143
0.03937
147
0.75
171
     3
172
     1
176
     7
177
     7
178
     7
179
     2
271
     2
272
     2
274
     3
278
    44
284
     8
285
     8
286
     8
340
186
371
    25
372
    25
  0
DIMSTYLE
105
1B1
330
A
100
AcDbSymbolTableRecord
100
AcDbDimStyleTableRecord
  2
BSI - Method 2BigText
 70
     0
 41
5.0
 42
0.5
 43
5.999999999999999
 44
2.999999999999999
 45
0.00000001
 46
10.0
 73
     0
 77
     1
 78
     8
 79
     2
140
5.25
143
0.03937
146
0.6666666666666666
147
0.75
171
     3
172
     1
176
     7
177
     7
178
     7
179
     2
271
     2
272
     2
274
     3
278
    44
284
     8
285
     8
286
     8
340
18D
371
    25
372
    25
  0
DIMSTYLE
105
1B2
330
A
100
AcDbSymbolTableRecord
100
AcDbDimStyleTableRecord
  2
BSI - Method 2BigText$7
 70
     0
 41
5.0
 42
0.5
 43
5.999999999999999
 44
2.999999999999999
 45
0.00000001
 46
10.0
 73
     0
 77
     1
 78
     8
 79
     2
140
5.25
143
0.03937
146
0.6666666666666666
147
0.75
171
     3
172
     1
176
     7
177
     7
178
     7
179
     2
271
     2
272
     2
274
     3
278
    44
284
     8
285
     8
286
     8
340
18D
371
    25
372
    25
  0
DIMSTYLE
105
1C2
330
A
100
AcDbSymbolTableRecord
100
AcDbDimStyleTableRecord
  2
DEFAULT-GB
 70
     0
 41
4.0
 42
0.0
 43
5.999999999999999
 44
5.0
 45
0.00000001
 46
10.0
 73
     0
 74
     0
 77
     1
 78
     8
 79
     2
140
3.5
143
0.03937
147
0.75
171
     3
172
     1
176
     7
177
     7
178
     7
179
     3
271
     2
272
     2
274
     3
275
     1
285
     8
340
186
341
1B3
342
1B3
371
    25
372
    25
  0
DIMSTYLE
105
1C3
330
A
100
AcDbSymbolTableRecord
100
AcDbDimStyleTableRecord
  2
DEFAULT-GB$7
 70
     0
 41
4.0
 42
0.0
 43
5.999999999999999
 44
5.0
 45
0.00000001
 46
10.0
 73
     0
 74
     0
 77
     1
 78
     8
 79
     2
140
3.5
143
0.03937
147
0.75
171
     3
172
     1
176
     7
177
     7
178
     7
179
     3
271
     2
272
     2
274
     3
275
     1
285
     8
340
186
341
1B3
342
1B3
371
    25
372
    25
  0
DIMSTYLE
105
1C4
330
A
100
AcDbSymbolTableRecord
100
AcDbDimStyleTableRecord
  2
DEFAULT-GBBigText
 70
     0
 41
8.0
 42
0.0
 43
5.999999999999999
 44
5.0
 45
0.00000001
 46
10.0
 73
     0
 74
     0
 77
     1
 78
     8
 79
     2
140
5.25
143
0.03937
146
0.6666666666666666
147
0.75
171
     3
172
     1
176
     7
177
     7
178
     7
179
     3
271
     2
272
     2
274
     3
275
     1
285
     8
340
193
341
1B3
342
1B3
371
    25
372
    25
  0
DIMSTYLE
105
1C5
330
A
100
AcDbSymbolTableRecord
100
AcDbDimStyleTableRecord
  2
DEFAULT-GBBigText$7
 70
     0
 41
8.0
 42
0.0
 43
5.999999999999999
 44
5.0
 45
0.00000001
 46
10.0
 73
     0
 74
     0
 77
     1
 78
     8
 79
     2
140
5.25
143
0.03937
146
0.6666666666666666
147
0.75
171
     3
172
     1
176
     7
177
     7
178
     7
179
     3
271
     2
272
     2
274
     3
275
     1
285
     8
340
193
341
1B3
342
1B3
371
    25
372
    25
  0
DIMSTYLE
105
1C6
102
{ACAD_REACTORS
330
495
330
595
330
677
330
759
330
857
330
93A
330
9E2
102
}
330
A
100
AcDbSymbolTableRecord
100
AcDbDimStyleTableRecord
  2
DEFAULT-ISO
 70
     0
 41
2.5
 42
0.0
 43
5.999999999999999
 44
3.174999999999999
 45
0.00000001
 46
10.0
 73
     0
 74
     0
 77
     1
140
3.5
143
0.03937
147
0.762
171
     3
172
     1
176
     7
177
     7
178
     7
179
     2
271
     2
272
     2
274
     3
278
    44
340
186
371
    25
372
    25
  0
DIMSTYLE
105
1C7
330
A
100
AcDbSymbolTableRecord
100
AcDbDimStyleTableRecord
  2
DEFAULT-ISO$7
 70
     0
 41
2.5
 42
0.0
 43
5.999999999999999
 44
3.174999999999999
 45
0.00000001
 46
10.0
 73
     0
 74
     0
 77
     1
140
3.5
143
0.03937
147
0.762
171
     3
172
     1
176
     7
177
     7
178
     7
179
     2
271
     2
272
     2
274
     3
278
    44
340
186
371
    25
372
    25
  0
DIMSTYLE
105
1C8
330
A
100
AcDbSymbolTableRecord
100
AcDbDimStyleTableRecord
  2
DEFAULT-ISOBigText
 70
     0
 41
5.0
 42
0.0
 43
5.999999999999999
 44
3.174999999999999
 45
0.00000001
 46
10.0
 73
     0
 74
     0
 77
     1
140
7.5
143
0.03937
146
0.4666666666666667
147
0.762
171
     3
172
     1
176
     7
177
     7
178
     7
179
     2
271
     2
272
     2
274
     3
278
    44
340
1A7
371
    25
372
    25
  0
DIMSTYLE
105
1C9
330
A
100
AcDbSymbolTableRecord
100
AcDbDimStyleTableRecord
  2
DEFAULT-ISOBigText$7
 70
     0
 41
5.0
 42
0.0
 43
5.999999999999999
 44
3.174999999999999
 45
0.00000001
 46
10.0
 73
     0
 74
     0
 77
     1
140
7.5
143
0.03937
146
0.4666666666666667
147
0.762
171
     3
172
     1
176
     7
177
     7
178
     7
179
     2
271
     2
272
     2
274
     3
278
    44
340
1A7
371
    25
372
    25
  0
DIMSTYLE
105
1CA
330
A
100
AcDbSymbolTableRecord
100
AcDbDimStyleTableRecord
  2
DEFAULT-JIS - Method 2
 70
     0
 41
2.5
 42
0.0
 43
5.999999999999999
 44
3.174999999999999
 45
0.00000001
 46
10.0
 77
     1
 78
     8
 79
     2
140
4.5
143
0.03937
147
0.8
171
     3
172
     1
176
     7
177
     7
178
     7
271
     2
272
     2
274
     3
284
     8
286
     8
340
188
341
1CB
342
1CB
371
    25
372
    25
  0
DIMSTYLE
105
1D1
330
A
100
AcDbSymbolTableRecord
100
AcDbDimStyleTableRecord
  2
DEFAULT-JIS - Method 2$7
 70
     0
 41
2.5
 42
0.0
 43
5.999999999999999
 44
3.174999999999999
 45
0.00000001
 46
10.0
 77
     1
 78
     8
 79
     2
140
4.5
143
0.03937
147
0.8
171
     3
172
     1
176
     7
177
     7
178
     7
271
     2
272
     2
274
     3
284
     8
286
     8
340
188
341
1CB
342
1CB
371
    25
372
    25
  0
DIMSTYLE
105
1D2
330
A
100
AcDbSymbolTableRecord
100
AcDbDimStyleTableRecord
  2
DEFAULT-JIS - Method 2BigText
 70
     0
 41
5.0
 42
0.0
 43
5.999999999999999
 44
3.174999999999999
 45
0.00000001
 46
10.0
 77
     1
 78
     8
 79
     2
140
6.749999523162841
143
0.03937
146
0.666666713761698
147
0.8
171
     3
172
     1
176
     7
177
     7
178
     7
271
     2
272
     2
274
     3
284
     8
286
     8
340
198
341
1CB
342
1CB
371
    25
372
    25
  0
DIMSTYLE
105
1D3
330
A
100
AcDbSymbolTableRecord
100
AcDbDimStyleTableRecord
  2
DEFAULT-JIS - Method 2BigText$7
 70
     0
 41
5.0
 42
0.0
 43
5.999999999999999
 44
3.174999999999999
 45
0.00000001
 46
10.0
 77
     1
 78
     8
 79
     2
140
6.749999523162841
143
0.03937
146
0.666666713761698
147
0.8
171
     3
172
     1
176
     7
177
     7
178
     7
271
     2
272
     2
274
     3
284
     8
286
     8
340
198
341
1CB
342
1CB
371
    25
372
    25
  0
DIMSTYLE
105
1D4
330
A
100
AcDbSymbolTableRecord
100
AcDbDimStyleTableRecord
  2
DIN - Other
 70
     0
 41
2.5
 42
0.0
 43
5.999999999999999
 44
3.174999999999999
 45
0.00000001
 46
10.0
 77
     1
 78
     8
 79
     2
140
3.5
143
0.03937
147
0.8
171
     3
172
     1
176
     7
177
     7
178
     7
271
     2
272
     2
274
     3
278
    44
284
     8
286
     8
340
186
371
    25
372
    25
  0
DIMSTYLE
105
1D5
330
A
100
AcDbSymbolTableRecord
100
AcDbDimStyleTableRecord
  2
DIN - Other$7
 70
     0
 41
2.5
 42
0.0
 43
5.999999999999999
 44
3.174999999999999
 45
0.00000001
 46
10.0
 77
     1
 78
     8
 79
     2
140
3.5
143
0.03937
147
0.8
171
     3
172
     1
176
     7
177
     7
178
     7
271
     2
272
     2
274
     3
278
    44
284
     8
286
     8
340
186
371
    25
372
    25
  0
DIMSTYLE
105
1D6
330
A
100
AcDbSymbolTableRecord
100
AcDbDimStyleTableRecord
  2
DIN - OtherBigText
 70
     0
 41
5.0
 42
0.0
 43
5.999999999999999
 44
3.174999999999999
 45
0.00000001
 46
10.0
 77
     1
 78
     8
 79
     2
140
5.25
143
0.03937
146
0.6666666666666666
147
0.8
171
     3
172
     1
176
     7
177
     7
178
     7
271
     2
272
     2
274
     3
278
    44
284
     8
286
     8
340
190
371
    25
372
    25
  0
DIMSTYLE
105
1D7
330
A
100
AcDbSymbolTableRecord
100
AcDbDimStyleTableRecord
  2
DIN - OtherBigText$7
 70
     0
 41
5.0
 42
0.0
 43
5.999999999999999
 44
3.174999999999999
 45
0.00000001
 46
10.0
 77
     1
 78
     8
 79
     2
140
5.25
143
0.03937
146
0.6666666666666666
147
0.8
171
     3
172
     1
176
     7
177
     7
178
     7
271
     2
272
     2
274
     3
278
    44
284
     8
286
     8
340
190
371
    25
372
    25
  0
DIMSTYLE
105
1D8
330
A
100
AcDbSymbolTableRecord
100
AcDbDimStyleTableRecord
  2
X . XXX in [mm]
 70
     0
  4
 mm
 41
2.5
 42
2.387599999999999
 43
6.349999999999999
 44
3.174999999999999
 45
0.00000001
 46
10.0
 73
     0
 78
     4
 79
     1
140
3.04800009727478
144
0.0393700787401575
147
1.600199999999999
170
     1
176
     7
177
     7
178
     7
179
     1
271
     3
272
     2
284
     4
285
     8
286
     4
340
19E
371
    25
372
    25
  0
DIMSTYLE
105
1D9
330
A
100
AcDbSymbolTableRecord
100
AcDbDimStyleTableRecord
  2
X . XXX in [mm]$7
 70
     0
  4
 mm
 41
2.5
 42
2.387599999999999
 43
6.349999999999999
 44
3.174999999999999
 45
0.00000001
 46
10.0
 73
     0
 78
     4
 79
     1
140
3.04800009727478
144
0.0393700787401575
147
1.600199999999999
170
     1
176
     7
177
     7
178
     7
179
     1
271
     3
272
     2
284
     4
285
     8
286
     4
340
19E
371
    25
372
    25
  0
DIMSTYLE
105
1DA
330
A
100
AcDbSymbolTableRecord
100
AcDbDimStyleTableRecord
  2
X . XXX in [mm]BigText
 70
     0
  4
 mm
 41
5.0
 42
2.387599999999999
 43
6.349999999999999
 44
3.174999999999999
 45
0.00000001
 46
10.0
 73
     0
 78
     4
 79
     1
140
4.57200002670288
144
0.0393700787401575
146
0.6666666840491819
147
1.600199999999999
170
     1
176
     7
177
     7
178
     7
179
     1
271
     3
272
     2
284
     4
285
     8
286
     4
340
18A
371
    25
372
    25
  0
DIMSTYLE
105
1DB
330
A
100
AcDbSymbolTableRecord
100
AcDbDimStyleTableRecord
  2
X . XXX in [mm]BigText$7
 70
     0
  4
 mm
 41
5.0
 42
2.387599999999999
 43
6.349999999999999
 44
3.174999999999999
 45
0.00000001
 46
10.0
 73
     0
 78
     4
 79
     1
140
4.57200002670288
144
0.0393700787401575
146
0.6666666840491819
147
1.600199999999999
170
     1
176
     7
177
     7
178
     7
179
     1
271
     3
272
     2
284
     4
285
     8
286
     4
340
18A
371
    25
372
    25
  0
DIMSTYLE
105
1DC
330
A
100
AcDbSymbolTableRecord
100
AcDbDimStyleTableRecord
  2
1_32 - FRACTION
 70
     0
 41
2.5
340
55
342
1DD
  0
DIMSTYLE
105
1E4
330
A
100
AcDbSymbolTableRecord
100
AcDbDimStyleTableRecord
  2
1_64 - FRACTION
 70
     0
 41
2.5
340
55
342
1DD
  0
DIMSTYLE
105
1E5
330
A
100
AcDbSymbolTableRecord
100
AcDbDimStyleTableRecord
  2
ANSI - ALIGNED
 70
     0
 41
2.5
340
55
342
1DD
  0
DIMSTYLE
105
1E6
330
A
100
AcDbSymbolTableRecord
100
AcDbDimStyleTableRecord
  2
ANSI FRACTION - ALIGNED
 70
     0
 41
2.5
340
55
342
1DD
  0
DIMSTYLE
105
1E7
330
A
100
AcDbSymbolTableRecord
100
AcDbDimStyleTableRecord
  2
DEFAULT-ANSI
 70
     0
 41
2.5
340
55
342
1DD
  0
DIMSTYLE
105
1E8
330
A
100
AcDbSymbolTableRecord
100
AcDbDimStyleTableRecord
  2
DEFAULT-ANSI FRACTION
 70
     0
 41
2.5
340
55
342
1DD
  0
DIMSTYLE
105
1E9
330
A
100
AcDbSymbolTableRecord
100
AcDbDimStyleTableRecord
  2
DEFAULT-BSI
 70
     0
 41
2.5
340
55
342
1DD
  0
DIMSTYLE
105
1EA
330
A
100
AcDbSymbolTableRecord
100
AcDbDimStyleTableRecord
  2
DEFAULT-DIN
 70
     0
 41
2.5
340
55
342
1DD
  0
DIMSTYLE
105
1EB
330
A
100
AcDbSymbolTableRecord
100
AcDbDimStyleTableRecord
  2
DEFAULT-DIN - Method 2a
 70
     0
 41
2.5
340
55
342
1DD
  0
DIMSTYLE
105
1EC
330
A
100
AcDbSymbolTableRecord
100
AcDbDimStyleTableRecord
  2
DEFAULT-DIN - Method 2b
 70
     0
 41
2.5
340
55
342
1DD
  0
DIMSTYLE
105
1ED
330
A
100
AcDbSymbolTableRecord
100
AcDbDimStyleTableRecord
  2
DEFAULT-ISO-Method 1b
 70
     0
 41
2.5
340
55
342
1DD
  0
DIMSTYLE
105
1EE
330
A
100
AcDbSymbolTableRecord
100
AcDbDimStyleTableRecord
  2
DEFAULT-ISO-Method 2a
 70
     0
 41
2.5
340
55
342
1DD
  0
DIMSTYLE
105
1EF
330
A
100
AcDbSymbolTableRecord
100
AcDbDimStyleTableRecord
  2
DEFAULT-ISO-Method 2b
 70
     0
 41
2.5
340
55
342
1DD
  0
DIMSTYLE
105
1F0
330
A
100
AcDbSymbolTableRecord
100
AcDbDimStyleTableRecord
  2
DEFAULT-JIS
 70
     0
 41
2.5
340
55
342
1DD
  0
DIMSTYLE
105
1F1
330
A
100
AcDbSymbolTableRecord
100
AcDbDimStyleTableRecord
  2
DEFAULT-JIS - Method 1b
 70
     0
 41
2.5
340
55
342
1DD
  0
DIMSTYLE
105
1F2
330
A
100
AcDbSymbolTableRecord
100
AcDbDimStyleTableRecord
  2
DIA1
 70
     0
 41
2.5
340
55
342
1DD
  0
DIMSTYLE
105
1F3
330
A
100
AcDbSymbolTableRecord
100
AcDbDimStyleTableRecord
  2
DIM0
 70
     0
 41
2.5
340
55
342
1DD
  0
DIMSTYLE
105
1F4
330
A
100
AcDbSymbolTableRecord
100
AcDbDimStyleTableRecord
  2
DIM1
 70
     0
 41
2.5
340
55
342
1DD
  0
DIMSTYLE
105
1F5
330
A
100
AcDbSymbolTableRecord
100
AcDbDimStyleTableRecord
  2
DIM2
 70
     0
 41
2.5
340
55
342
1DD
  0
DIMSTYLE
105
1F6
330
A
100
AcDbSymbolTableRecord
100
AcDbDimStyleTableRecord
  2
DIMSTYLE
 70
     0
 41
2.5
340
55
342
1DD
  0
DIMSTYLE
105
201
330
A
100
AcDbSymbolTableRecord
100
AcDbDimStyleTableRecord
  2
Leader-Datum(ANSI)
 70
     0
 41
2.5
340
55
342
1DD
  0
DIMSTYLE
105
202
330
A
100
AcDbSymbolTableRecord
100
AcDbDimStyleTableRecord
  2
Leader-Datum(BSI)
 70
     0
 41
2.5
340
55
342
1DD
  0
DIMSTYLE
105
203
330
A
100
AcDbSymbolTableRecord
100
AcDbDimStyleTableRecord
  2
Leader-Datum(DIN)
 70
     0
 41
2.5
340
55
342
1DD
  0
DIMSTYLE
105
225
330
A
100
AcDbSymbolTableRecord
100
AcDbDimStyleTableRecord
  2
Leader-Datum(GB)
 70
     0
 41
4.0
340
55
342
1DD
  0
DIMSTYLE
105
226
330
A
100
AcDbSymbolTableRecord
100
AcDbDimStyleTableRecord
  2
Leader-Datum(ISO)
 70
     0
 41
2.5
340
55
342
1DD
  0
DIMSTYLE
105
227
330
A
100
AcDbSymbolTableRecord
100
AcDbDimStyleTableRecord
  2
Leader-Datum(JIS)
 70
     0
 41
2.5
340
55
342
1DD
  0
DIMSTYLE
105
228
330
A
100
AcDbSymbolTableRecord
100
AcDbDimStyleTableRecord
  2
Leader-Dot(ANSI)
 70
     0
 41
2.5
340
55
342
1DD
  0
DIMSTYLE
105
229
330
A
100
AcDbSymbolTableRecord
100
AcDbDimStyleTableRecord
  2
Leader-Dot(BSI)
 70
     0
 41
2.5
340
55
342
1DD
  0
DIMSTYLE
105
22A
330
A
100
AcDbSymbolTableRecord
100
AcDbDimStyleTableRecord
  2
Leader-Dot(DIN)
 70
     0
 41
2.5
340
55
342
1DD
  0
DIMSTYLE
105
22B
330
A
100
AcDbSymbolTableRecord
100
AcDbDimStyleTableRecord
  2
Leader-Dot(GB)
 70
     0
 41
4.0
340
55
342
1DD
  0
DIMSTYLE
105
22C
330
A
100
AcDbSymbolTableRecord
100
AcDbDimStyleTableRecord
  2
Leader-Dot(ISO)
 70
     0
 41
2.5
340
55
342
1DD
  0
DIMSTYLE
105
22D
330
A
100
AcDbSymbolTableRecord
100
AcDbDimStyleTableRecord
  2
Leader-Dot(JIS)
 70
     0
 41
2.5
340
55
342
1DD
  0
DIMSTYLE
105
22E
330
A
100
AcDbSymbolTableRecord
100
AcDbDimStyleTableRecord
  2
Leader-OriginIndicator(ANSI)
 70
     0
 41
2.5
340
55
342
1DD
  0
DIMSTYLE
105
22F
330
A
100
AcDbSymbolTableRecord
100
AcDbDimStyleTableRecord
  2
Leader-OriginIndicator(BSI)
 70
     0
 41
2.5
340
55
342
1DD
  0
DIMSTYLE
105
230
330
A
100
AcDbSymbolTableRecord
100
AcDbDimStyleTableRecord
  2
Leader-OriginIndicator(DIN)
 70
     0
 41
2.5
340
55
342
1DD
  0
DIMSTYLE
105
231
330
A
100
AcDbSymbolTableRecord
100
AcDbDimStyleTableRecord
  2
Leader-OriginIndicator(GB)
 70
     0
 41
4.0
340
55
342
1DD
  0
DIMSTYLE
105
232
330
A
100
AcDbSymbolTableRecord
100
AcDbDimStyleTableRecord
  2
Leader-OriginIndicator(ISO)
 70
     0
 41
2.5
340
55
342
1DD
  0
DIMSTYLE
105
233
330
A
100
AcDbSymbolTableRecord
100
AcDbDimStyleTableRecord
  2
Leader-OriginIndicator(JIS)
 70
     0
 41
2.5
340
55
342
1DD
  0
DIMSTYLE
105
234
330
A
100
AcDbSymbolTableRecord
100
AcDbDimStyleTableRecord
  2
Leader(ANSI)
 70
     0
 41
2.5
340
55
342
1DD
  0
DIMSTYLE
105
235
330
A
100
AcDbSymbolTableRecord
100
AcDbDimStyleTableRecord
  2
Leader(BSI)
 70
     0
 41
2.5
340
55
342
1DD
  0
DIMSTYLE
105
236
330
A
100
AcDbSymbolTableRecord
100
AcDbDimStyleTableRecord
  2
Leader(DIN)
 70
     0
 41
2.5
340
55
342
1DD
  0
DIMSTYLE
105
237
330
A
100
AcDbSymbolTableRecord
100
AcDbDimStyleTableRecord
  2
Leader(GB)
 70
     0
 41
4.0
340
55
342
1DD
  0
DIMSTYLE
105
238
330
A
100
AcDbSymbolTableRecord
100
AcDbDimStyleTableRecord
  2
Leader(ISO)
 70
     0
 41
2.5
340
55
342
1DD
  0
DIMSTYLE
105
239
330
A
100
AcDbSymbolTableRecord
100
AcDbDimStyleTableRecord
  2
Leader(JIS)
 70
     0
 41
2.5
340
55
342
1DD
  0
DIMSTYLE
105
23A
330
A
100
AcDbSymbolTableRecord
100
AcDbDimStyleTableRecord
  2
MM-ANSI
 70
     0
 41
2.5
340
55
342
1DD
  0
DIMSTYLE
105
23B
330
A
100
AcDbSymbolTableRecord
100
AcDbDimStyleTableRecord
  2
X . XX mm [in]
 70
     0
 41
2.5
340
55
342
1DD
  0
DIMSTYLE
105
23C
330
A
100
AcDbSymbolTableRecord
100
AcDbDimStyleTableRecord
  2
X . XXX
 70
     0
 41
2.5
340
55
342
1DD
  0
DIMSTYLE
105
23D
330
A
100
AcDbSymbolTableRecord
100
AcDbDimStyleTableRecord
  2
X . XXX - Deviation Tol
 70
     0
 41
2.5
340
55
342
1DD
  0
DIMSTYLE
105
23E
330
A
100
AcDbSymbolTableRecord
100
AcDbDimStyleTableRecord
  2
X . XXX - Limits Stacked
 70
     0
 41
2.5
340
55
342
1DD
  0
DIMSTYLE
105
23F
330
A
100
AcDbSymbolTableRecord
100
AcDbDimStyleTableRecord
  2
X.X big gap & text
 70
     0
 41
2.5
340
55
342
1DD
  0
DIMSTYLE
105
240
330
A
100
AcDbSymbolTableRecord
100
AcDbDimStyleTableRecord
  2
X.XXX
 70
     0
 41
2.5
340
55
342
1DD
  0
DIMSTYLE
105
241
330
A
100
AcDbSymbolTableRecord
100
AcDbDimStyleTableRecord
  2
X.XXX +_- tolerance
 70
     0
 41
2.5
340
55
342
1DD
  0
DIMSTYLE
105
242
330
A
100
AcDbSymbolTableRecord
100
AcDbDimStyleTableRecord
  2
X.XXX +tolerance_-tolerance
 70
     0
 41
2.5
340
55
342
1DD
  0
DIMSTYLE
105
243
330
A
100
AcDbSymbolTableRecord
100
AcDbDimStyleTableRecord
  2
X.XXX mm[inch]
 70
     0
 41
2.5
340
55
342
1DD
  0
DIMSTYLE
105
244
330
A
100
AcDbSymbolTableRecord
100
AcDbDimStyleTableRecord
  2
X.XXX radial
 70
     0
 41
2.5
340
55
342
1DD
  0
DIMSTYLE
105
245
330
A
100
AcDbSymbolTableRecord
100
AcDbDimStyleTableRecord
  2
X.XXX small tolerance
 70
     0
 41
2.5
340
55
342
1DD
  0
ENDTAB
  0
TABLE
  2
BLOCK_RECORD
  5
1
330
0
100
AcDbSymbolTable
 70
    14
  0
BLOCK_RECORD
  5
6C
330
1
100
AcDbSymbolTableRecord
100
AcDbBlockTableRecord
  2
*Model_Space
340
6F
  0
BLOCK_RECORD
  5
68
330
1
100
AcDbSymbolTableRecord
100
AcDbBlockTableRecord
  2
*Paper_Space
340
6B
  0
BLOCK_RECORD
  5
70
330
1
100
AcDbSymbolTableRecord
100
AcDbBlockTableRecord
  2
*Paper_Space0
340
73
  0
BLOCK_RECORD
  5
1B3
330
1
100
AcDbSymbolTableRecord
100
AcDbBlockTableRecord
  2
Filled-1
340
0
  0
BLOCK_RECORD
  5
1CB
330
1
100
AcDbSymbolTableRecord
100
AcDbBlockTableRecord
  2
_Open
340
0
  0
BLOCK_RECORD
  5
1DD
330
1
100
AcDbSymbolTableRecord
100
AcDbBlockTableRecord
  2
_Closed
340
0
  0
BLOCK_RECORD
  5
1F7
330
1
100
AcDbSymbolTableRecord
100
AcDbBlockTableRecord
  2
DatumFilled45
340
0
  0
BLOCK_RECORD
  5
204
330
1
100
AcDbSymbolTableRecord
100
AcDbBlockTableRecord
  2
DatumThickLine
340
0
  0
BLOCK_RECORD
  5
246
330
1
100
AcDbSymbolTableRecord
100
AcDbBlockTableRecord
  2
Borders PCH WEB A4
340
0
102
{BLKREFS
331
464
102
}
  0
BLOCK_RECORD
  5
497
330
1
100
AcDbSymbolTableRecord
100
AcDbBlockTableRecord
  2
*D7
340
0
  0
BLOCK_RECORD
  5
596
330
1
100
AcDbSymbolTableRecord
100
AcDbBlockTableRecord
  2
*D8
340
0
  0
BLOCK_RECORD
  5
678
330
1
100
AcDbSymbolTableRecord
100
AcDbBlockTableRecord
  2
*D9
340
0
  0
BLOCK_RECORD
  5
75A
330
1
100
AcDbSymbolTableRecord
100
AcDbBlockTableRecord
  2
*D10
340
0
  0
BLOCK_RECORD
  5
858
330
1
100
AcDbSymbolTableRecord
100
AcDbBlockTableRecord
  2
*D11
340
0
  0
BLOCK_RECORD
  5
93B
330
1
100
AcDbSymbolTableRecord
100
AcDbBlockTableRecord
  2
*D12
340
0
  0
BLOCK_RECORD
  5
9E3
330
1
100
AcDbSymbolTableRecord
100
AcDbBlockTableRecord
  2
*D13
340
0
  0
ENDTAB
  0
ENDSEC
  0
SECTION
  2
BLOCKS
  0
BLOCK
  5
6D
330
6C
100
AcDbEntity
  8
0
100
AcDbBlockBegin
  2
*Model_Space
 70
     0
 10
0.0
 20
0.0
 30
0.0
  3
*Model_Space
  1

  0
ENDBLK
  5
6E
330
6C
100
AcDbEntity
  8
0
100
AcDbBlockEnd
  0
BLOCK
  5
69
330
68
100
AcDbEntity
 67
     1
  8
0
100
AcDbBlockBegin
  2
*Paper_Space
 70
     0
 10
0.0
 20
0.0
 30
0.0
  3
*Paper_Space
  1

  0
ENDBLK
  5
6A
330
68
100
AcDbEntity
 67
     1
  8
0
100
AcDbBlockEnd
  0
BLOCK
  5
71
330
70
100
AcDbEntity
 67
     1
  8
0
100
AcDbBlockBegin
  2
*Paper_Space0
 70
     0
 10
0.0
 20
0.0
 30
0.0
  3
*Paper_Space0
  1

  0
ENDBLK
  5
72
330
70
100
AcDbEntity
 67
     1
  8
0
100
AcDbBlockEnd
  0
BLOCK
  5
1B4
330
1B3
100
AcDbEntity
  8
0
100
AcDbBlockBegin
  2
Filled-1
 70
     0
 10
0.0
 20
0.0
 30
0.0
  3
Filled-1
  1

  0
LINE
  5
1B6
330
1B3
100
AcDbEntity
  8
0
 62
     0
100
AcDbLine
 10
-1.0
 20
0.0
 30
0.0
 11
0.0
 21
0.0
 31
0.0
  0
POLYLINE
  5
1B8
330
1B3
100
AcDbEntity
  8
0
 62
     0
100
AcDb2dPolyline
 66
     1
 10
0.0
 20
0.0
 30
0.0
 70
   128
  0
VERTEX
  5
1B9
330
1B8
100
AcDbEntity
  8
0
 62
     0
100
AcDbVertex
100
AcDb2dVertex
 10
-1.0
 20
-0.125
 30
0.0
  0
VERTEX
  5
1BA
330
1B8
100
AcDbEntity
  8
0
 62
     0
100
AcDbVertex
100
AcDb2dVertex
 10
0.0
 20
0.0
 30
0.0
  0
VERTEX
  5
1BC
330
1B8
100
AcDbEntity
  8
0
 62
     0
100
AcDbVertex
100
AcDb2dVertex
 10
-1.0
 20
0.125
 30
0.0
  0
VERTEX
  5
1BD
330
1B8
100
AcDbEntity
  8
0
 62
     0
100
AcDbVertex
100
AcDb2dVertex
 10
-1.0
 20
-0.125
 30
0.0
  0
SEQEND
  5
1BB
330
1B8
100
AcDbEntity
  8
0
 62
     0
  0
SOLID
  5
1BE
330
1B3
100
AcDbEntity
  8
0
 62
     0
100
AcDbTrace
 10
-1.0
 20
-0.125
 30
0.0
 11
0.0
 21
0.0
 31
0.0
 12
-1.0
 22
0.125
 32
0.0
 13
-1.0
 23
-0.125
 33
0.0
  0
LINE
  5
1BF
330
1B3
100
AcDbEntity
  8
0
 62
     0
100
AcDbLine
 10
-1.0
 20
-0.125
 30
0.0
 11
0.0
 21
0.0
 31
0.0
  0
LINE
  5
1C0
330
1B3
100
AcDbEntity
  8
0
 62
     0
100
AcDbLine
 10
0.0
 20
0.0
 30
0.0
 11
-1.0
 21
0.125
 31
0.0
  0
LINE
  5
1C1
330
1B3
100
AcDbEntity
  8
0
 62
     0
100
AcDbLine
 10
-1.0
 20
0.125
 30
0.0
 11
-1.0
 21
-0.125
 31
0.0
  0
ENDBLK
  5
1B5
330
1B3
100
AcDbEntity
  8
0
100
AcDbBlockEnd
  0
BLOCK
  5
1CF
330
1CB
100
AcDbEntity
  8
0
100
AcDbBlockBegin
  2
_Open
 70
     0
 10
0.0
 20
0.0
 30
0.0
  3
_Open
  1

  0
LINE
  5
1CC
330
1CB
100
AcDbEntity
  8
0
  6
ByBlock
 62
     0
370
    -2
100
AcDbLine
 10
-1.0
 20
0.1666666666666666
 30
0.0
 11
0.0
 21
0.0
 31
0.0
  0
LINE
  5
1CD
330
1CB
100
AcDbEntity
  8
0
  6
ByBlock
 62
     0
370
    -2
100
AcDbLine
 10
-1.0
 20
-0.1666666666666666
 30
0.0
 11
0.0
 21
0.0
 31
0.0
  0
LINE
  5
1CE
330
1CB
100
AcDbEntity
  8
0
  6
ByBlock
 62
     0
370
    -2
100
AcDbLine
 10
0.0
 20
0.0
 30
0.0
 11
-1.0
 21
0.0
 31
0.0
  0
ENDBLK
  5
1D0
330
1CB
100
AcDbEntity
  8
0
100
AcDbBlockEnd
  0
BLOCK
  5
1E2
330
1DD
100
AcDbEntity
  8
0
100
AcDbBlockBegin
  2
_Closed
 70
     0
 10
0.0
 20
0.0
 30
0.0
  3
_Closed
  1

  0
LINE
  5
1DE
330
1DD
100
AcDbEntity
  8
0
  6
ByBlock
 62
     0
370
    -2
100
AcDbLine
 10
-1.0
 20
0.1666666666666666
 30
0.0
 11
0.0
 21
0.0
 31
0.0
  0
LINE
  5
1DF
330
1DD
100
AcDbEntity
  8
0
  6
ByBlock
 62
     0
370
    -2
100
AcDbLine
 10
0.0
 20
0.0
 30
0.0
 11
-1.0
 21
-0.1666666666666666
 31
0.0
  0
LINE
  5
1E0
330
1DD
100
AcDbEntity
  8
0
  6
ByBlock
 62
     0
370
    -2
100
AcDbLine
 10
-1.0
 20
0.1666666666666666
 30
0.0
 11
-1.0
 21
-0.1666666666666666
 31
0.0
  0
LINE
  5
1E1
330
1DD
100
AcDbEntity
  8
0
  6
ByBlock
 62
     0
370
    -2
100
AcDbLine
 10
0.0
 20
0.0
 30
0.0
 11
-1.0
 21
0.0
 31
0.0
  0
ENDBLK
  5
1E3
330
1DD
100
AcDbEntity
  8
0
100
AcDbBlockEnd
  0
BLOCK
  5
1F8
330
1F7
100
AcDbEntity
  8
0
100
AcDbBlockBegin
  2
DatumFilled45
 70
     0
 10
0.0
 20
0.0
 30
0.0
  3
DatumFilled45
  1

  0
POLYLINE
  5
1FA
330
1F7
100
AcDbEntity
  8
0
 62
     0
100
AcDb2dPolyline
 66
     1
 10
0.0
 20
0.0
 30
0.0
 70
   128
  0
VERTEX
  5
1FB
330
1FA
100
AcDbEntity
  8
0
 62
     0
100
AcDbVertex
100
AcDb2dVertex
 10
0.0
 20
1.0
 30
0.0
  0
VERTEX
  5
1FC
330
1FA
100
AcDbEntity
  8
0
 62
     0
100
AcDbVertex
100
AcDb2dVertex
 10
0.0
 20
-1.0
 30
0.0
  0
VERTEX
  5
1FE
330
1FA
100
AcDbEntity
  8
0
 62
     0
100
AcDbVertex
100
AcDb2dVertex
 10
-1.0
 20
0.0
 30
0.0
  0
VERTEX
  5
1FF
330
1FA
100
AcDbEntity
  8
0
 62
     0
100
AcDbVertex
100
AcDb2dVertex
 10
0.0
 20
1.0
 30
0.0
  0
SEQEND
  5
1FD
330
1FA
100
AcDbEntity
  8
0
 62
     0
  0
SOLID
  5
200
330
1F7
100
AcDbEntity
  8
0
 62
     0
100
AcDbTrace
 10
0.0
 20
1.0
 30
0.0
 11
0.0
 21
-1.0
 31
0.0
 12
-1.0
 22
0.0
 32
0.0
 13
0.0
 23
1.0
 33
0.0
  0
ENDBLK
  5
1F9
330
1F7
100
AcDbEntity
  8
0
100
AcDbBlockEnd
  0
BLOCK
  5
205
330
204
100
AcDbEntity
  8
0
100
AcDbBlockBegin
  2
DatumThickLine
 70
     0
 10
0.0
 20
0.0
 30
0.0
  3
DatumThickLine
  1

  0
POLYLINE
  5
207
330
204
100
AcDbEntity
  8
0
 62
     0
100
AcDb2dPolyline
 66
     1
 10
0.0
 20
0.0
 30
0.0
 70
   128
  0
VERTEX
  5
208
330
207
100
AcDbEntity
  8
0
 62
     0
100
AcDbVertex
100
AcDb2dVertex
 10
-0.25
 20
1.0
 30
0.0
  0
VERTEX
  5
209
330
207
100
AcDbEntity
  8
0
 62
     0
100
AcDbVertex
100
AcDb2dVertex
 10
-0.25
 20
-1.0
 30
0.0
  0
VERTEX
  5
20B
330
207
100
AcDbEntity
  8
0
 62
     0
100
AcDbVertex
100
AcDb2dVertex
 10
-0.5
 20
-1.0
 30
0.0
  0
VERTEX
  5
20C
330
207
100
AcDbEntity
  8
0
 62
     0
100
AcDbVertex
100
AcDb2dVertex
 10
-0.25
 20
1.0
 30
0.0
  0
SEQEND
  5
20A
330
207
100
AcDbEntity
  8
0
 62
     0
  0
SOLID
  5
20D
330
204
100
AcDbEntity
  8
0
 62
     0
100
AcDbTrace
 10
-0.25
 20
1.0
 30
0.0
 11
-0.25
 21
-1.0
 31
0.0
 12
-0.5
 22
-1.0
 32
0.0
 13
-0.25
 23
1.0
 33
0.0
  0
POLYLINE
  5
20E
330
204
100
AcDbEntity
  8
0
 62
     0
100
AcDb2dPolyline
 66
     1
 10
0.0
 20
0.0
 30
0.0
 70
   128
  0
VERTEX
  5
20F
330
20E
100
AcDbEntity
  8
0
 62
     0
100
AcDbVertex
100
AcDb2dVertex
 10
-0.25
 20
1.0
 30
0.0
  0
VERTEX
  5
210
330
20E
100
AcDbEntity
  8
0
 62
     0
100
AcDbVertex
100
AcDb2dVertex
 10
-0.5
 20
-1.0
 30
0.0
  0
VERTEX
  5
212
330
20E
100
AcDbEntity
  8
0
 62
     0
100
AcDbVertex
100
AcDb2dVertex
 10
-0.5
 20
-1.0
 30
0.0
  0
VERTEX
  5
213
330
20E
100
AcDbEntity
  8
0
 62
     0
100
AcDbVertex
100
AcDb2dVertex
 10
-0.25
 20
1.0
 30
0.0
  0
SEQEND
  5
211
330
20E
100
AcDbEntity
  8
0
 62
     0
  0
SOLID
  5
214
330
204
100
AcDbEntity
  8
0
 62
     0
100
AcDbTrace
 10
-0.25
 20
1.0
 30
0.0
 11
-0.5
 21
-1.0
 31
0.0
 12
-0.5
 22
-1.0
 32
0.0
 13
-0.25
 23
1.0
 33
0.0
  0
POLYLINE
  5
215
330
204
100
AcDbEntity
  8
0
 62
     0
100
AcDb2dPolyline
 66
     1
 10
0.0
 20
0.0
 30
0.0
 70
   128
  0
VERTEX
  5
216
330
215
100
AcDbEntity
  8
0
 62
     0
100
AcDbVertex
100
AcDb2dVertex
 10
-0.25
 20
1.0
 30
0.0
  0
VERTEX
  5
217
330
215
100
AcDbEntity
  8
0
 62
     0
100
AcDbVertex
100
AcDb2dVertex
 10
-0.5
 20
-1.0
 30
0.0
  0
VERTEX
  5
219
330
215
100
AcDbEntity
  8
0
 62
     0
100
AcDbVertex
100
AcDb2dVertex
 10
-0.5
 20
1.0
 30
0.0
  0
VERTEX
  5
21A
330
215
100
AcDbEntity
  8
0
 62
     0
100
AcDbVertex
100
AcDb2dVertex
 10
-0.25
 20
1.0
 30
0.0
  0
SEQEND
  5
218
330
215
100
AcDbEntity
  8
0
 62
     0
  0
SOLID
  5
21B
330
204
100
AcDbEntity
  8
0
 62
     0
100
AcDbTrace
 10
-0.25
 20
1.0
 30
0.0
 11
-0.5
 21
-1.0
 31
0.0
 12
-0.5
 22
1.0
 32
0.0
 13
-0.25
 23
1.0
 33
0.0
  0
POLYLINE
  5
21C
330
204
100
AcDbEntity
  8
0
 62
     0
100
AcDb2dPolyline
 66
     1
 10
0.0
 20
0.0
 30
0.0
 70
   128
  0
VERTEX
  5
21D
330
21C
100
AcDbEntity
  8
0
 62
     0
100
AcDbVertex
100
AcDb2dVertex
 10
-0.25
 20
1.0
 30
0.0
  0
VERTEX
  5
21E
330
21C
100
AcDbEntity
  8
0
 62
     0
100
AcDbVertex
100
AcDb2dVertex
 10
-0.5
 20
1.0
 30
0.0
  0
VERTEX
  5
220
330
21C
100
AcDbEntity
  8
0
 62
     0
100
AcDbVertex
100
AcDb2dVertex
 10
-0.25
 20
1.0
 30
0.0
  0
VERTEX
  5
221
330
21C
100
AcDbEntity
  8
0
 62
     0
100
AcDbVertex
100
AcDb2dVertex
 10
-0.25
 20
1.0
 30
0.0
  0
SEQEND
  5
21F
330
21C
100
AcDbEntity
  8
0
 62
     0
  0
SOLID
  5
222
330
204
100
AcDbEntity
  8
0
 62
     0
100
AcDbTrace
 10
-0.25
 20
1.0
 30
0.0
 11
-0.5
 21
1.0
 31
0.0
 12
-0.25
 22
1.0
 32
0.0
 13
-0.25
 23
1.0
 33
0.0
  0
LINE
  5
223
330
204
100
AcDbEntity
  8
0
 62
     0
100
AcDbLine
 10
-1.0
 20
0.0
 30
0.0
 11
-0.5
 21
0.0
 31
0.0
  0
LINE
  5
224
330
204
100
AcDbEntity
  8
0
 62
     0
100
AcDbLine
 10
-0.5
 20
0.0
 30
0.0
 11
-1.0
 21
0.0
 31
0.0
  0
ENDBLK
  5
206
330
204
100
AcDbEntity
  8
0
100
AcDbBlockEnd
  0
BLOCK
  5
247
330
246
100
AcDbEntity
  8
0
100
AcDbBlockBegin
  2
Borders PCH WEB A4
 70
     0
 10
0.0
 20
0.0
 30
0.0
  3
Borders PCH WEB A4
  1

  0
HATCH
  5
26D
330
246
100
AcDbEntity
  8
Hatch
 62
     7
100
AcDbHatch
 10
0.0
 20
0.0
 30
0.0
210
0.0
220
0.0
230
1.0
  2
SOLID
 70
     1
 71
     0
 91
        1
 92
        1
 93
       36
 72
     1
 10
85.12442361902841
 20
29.83952031839042
 11
90.12021436987984
 21
29.83952031839042
 72
     1
 10
90.12021436987984
 20
29.83952031839042
 11
90.12021436987984
 21
30.31758642010827
 72
     1
 10
90.12021436987984
 20
30.31758642010827
 11
89.57055771862744
 21
30.31758642010827
 72
     2
 10
89.57055771862744
 20
31.42300045759145
 40
1.105414037483174
 50
90.0
 51
172.8064007198703
 73
     0
 72
     1
 10
88.47384473046572
 20
31.28457785877812
 11
88.47384473046572
 21
35.72725452681896
 72
     1
 10
88.47384473046572
 20
35.72725452681896
 11
96.16057270764461
 21
35.72725452681896
 72
     1
 10
96.16057270764459
 20
35.72725452681896
 11
96.16057270764459
 21
31.3089677253812
 72
     2
 10
94.99216056273015
 20
31.49643795118536
 40
1.183356254872822
 50
9.115342837332718
 51
84.99970343845211
 73
     0
 72
     1
 10
95.09530295777265
 20
30.31758525797406
 11
93.99162909502386
 21
30.31758525797406
 72
     1
 10
93.99162909502386
 20
30.31758525797407
 11
93.99162909502386
 21
29.83951915625621
 72
     1
 10
93.99162909502386
 20
29.83951915625621
 11
99.53719586151921
 21
29.83951915625621
 72
     1
 10
99.53719586151921
 20
29.83951915625621
 11
99.53719586151919
 21
30.31758525797406
 72
     1
 10
99.53719586151919
 20
30.31758525797407
 11
98.96748550108981
 21
30.31758525797406
 72
     2
 10
98.96748550108981
 20
31.50824222299917
 40
1.190656965025106
 50
90.0
 51
178.5223656823804
 73
     0
 72
     1
 10
97.7772244686659
 20
31.47753907892596
 11
97.77722446866588
 21
40.54104742202702
 72
     2
 10
98.9457575770492
 20
40.54104742202702
 40
1.168533108383336
 50
180.0
 51
273.9107354596889
 73
     0
 72
     1
 10
99.02545413466942
 20
41.70685962135053
 11
99.32922171552743
 21
41.70685962135053
 72
     1
 10
99.32922171552744
 20
41.70685962135053
 11
99.32922171552744
 21
42.14439631375073
 72
     1
 10
99.32922171552744
 20
42.14439631375073
 11
94.18509592283649
 21
42.14439631375073
 72
     1
 10
94.18509592283648
 20
42.14439631375073
 11
94.18509592283648
 21
41.70685962135053
 72
     1
 10
94.18509592283648
 20
41.70685962135053
 11
95.06738178839349
 21
41.70685962135053
 72
     2
 10
95.06646109900245
 20
40.61274840008619
 40
1.094111608642141
 50
270.0482141146825
 51
360.0
 73
     0
 72
     1
 10
96.16057270764457
 20
40.61274840008619
 11
96.16057270764459
 21
36.45263041054171
 72
     1
 10
96.16057270764459
 20
36.45263041054171
 11
88.47384473046572
 21
36.45263041054171
 72
     1
 10
88.47384473046572
 20
36.45263041054171
 11
88.47384473046572
 21
40.668399985546
 72
     2
 10
89.51257510724987
 20
40.668399985546
 40
1.038730376784161
 50
180.0
 51
271.3081954843145
 73
     0
 72
     1
 10
89.53628966942384
 20
41.70685962135043
 11
90.12817817732347
 21
41.70685962135043
 72
     1
 10
90.12817817732347
 20
41.70685962135043
 11
90.12817817732347
 21
42.14439631374834
 72
     1
 10
90.12817817732347
 20
42.14439631374834
 11
85.3245838741066
 21
42.14439631374839
 72
     1
 10
85.3245838741066
 20
42.14439631374839
 11
85.32458387410624
 21
41.70685962135043
 72
     1
 10
85.32458387410626
 20
41.70685962135043
 11
85.89887128525438
 21
41.70685962135038
 72
     2
 10
85.7884589986755
 20
40.77781686597326
 40
0.935580736412567
 50
276.7775394983764
 51
360.0
 73
     0
 72
     1
 10
86.72403973508806
 20
40.77781686597326
 11
86.72403973508808
 21
31.11571726131325
 72
     2
 10
85.89998462560147
 20
31.14206255560418
 40
0.8244761354959045
 50
1.831139923276387
 51
90.0
 73
     0
 72
     1
 10
85.89998462560147
 20
30.31758642010828
 11
85.12442361902841
 21
30.31758642010828
 72
     1
 10
85.12442361902841
 20
30.31758642010828
 11
85.12442361902841
 21
29.83952031839043
 97
        0
 75
     0
 76
     1
 98
        1
 10
0.0
 20
0.0
  0
HATCH
  5
28D
330
246
100
AcDbEntity
  8
Hatch
 62
     7
100
AcDbHatch
 10
0.0
 20
0.0
 30
0.0
210
0.0
220
0.0
230
1.0
  2
SOLID
 70
     1
 71
     0
 91
        1
 92
        1
 93
       31
 72
     1
 10
102.1547912193991
 20
41.9701002442414
 11
102.154791219399
 21
41.62746438732523
 72
     1
 10
102.154791219399
 20
41.62746438732523
 11
103.0602669398915
 21
41.62746438732523
 72
     2
 10
102.8331600320866
 20
40.91583622624237
 40
0.7469887463803611
 50
287.6998094052565
 51
361.934617559854
 73
     0
 72
     1
 10
103.579722995987
 20
40.89061861035192
 11
103.579722995987
 21
34.1669504827082
 72
     2
 10
102.9573085340146
 20
34.12404022227598
 40
0.6238918599586445
 50
356.0561765841167
 51
450.0
 73
     0
 72
     1
 10
102.9573085340146
 20
33.50014836231733
 11
101.8824085117055
 21
33.50014836231733
 72
     1
 10
101.8824085117055
 20
33.50014836231733
 11
101.8824085117055
 21
33.12128352118615
 72
     1
 10
101.8824085117055
 20
33.12128352118615
 11
109.4445507229238
 21
33.12128352118615
 72
     1
 10
109.4445507229238
 20
33.12128352118615
 11
109.6264058462396
 21
35.31869959974696
 72
     1
 10
109.6264058462397
 20
35.31869959974697
 11
109.3081593804369
 21
35.31869959974697
 72
     1
 10
109.3081593804369
 20
35.31869959974697
 11
109.0050675082438
 21
34.31849641916067
 72
     2
 10
107.9829263150102
 20
34.84857097355368
 40
1.151412893848158
 50
27.41090705137652
 51
90.0
 73
     0
 72
     1
 10
107.9829263150102
 20
33.69715807970553
 11
105.3997755668756
 21
33.69715807970555
 72
     2
 10
105.3997755668756
 20
34.27727935010004
 40
0.5801212703944943
 50
90.0
 51
185.5763565279712
 73
     0
 72
     1
 10
104.8223996719787
 20
34.33365101280592
 11
104.8223996719787
 21
37.43188625703534
 72
     1
 10
104.8223996719787
 20
37.43188625703533
 11
107.4789200117702
 21
37.43188625703533
 72
     2
 10
107.4035166768197
 20
36.74829132476935
 40
0.6877410081865026
 50
276.2945141870209
 51
360.0
 73
     0
 72
     1
 10
108.0912576850063
 20
36.74829132476935
 11
108.0912576850063
 21
36.29702916093619
 72
     1
 10
108.0912576850063
 20
36.29702916093619
 11
108.4317148223339
 21
36.29702916093619
 72
     1
 10
108.4317148223339
 20
36.29702916093619
 11
108.4317148223339
 21
39.05473190445711
 72
     1
 10
108.4317148223339
 20
39.05473190445711
 11
108.0912576850063
 21
39.05473190445711
 72
     1
 10
108.0912576850063
 20
39.05473190445711
 11
108.0912576850063
 21
38.70548055206807
 72
     2
 10
107.4142779478781
 20
38.68787207572515
 40
0.6772086996792471
 50
358.5100529642173
 51
450.0
 73
     0
 72
     1
 10
107.4142779478781
 20
38.0106633760459
 11
104.8223996719787
 21
38.01066337604589
 72
     1
 10
104.8223996719787
 20
38.0106633760459
 11
104.8223996719787
 21
41.38053705784578
 72
     1
 10
104.8223996719787
 20
41.38053705784578
 11
107.7927000194713
 21
41.38053705784578
 72
     2
 10
107.8978801512681
 20
40.68365869243439
 40
0.7047711091576076
 50
261.417106453745
 51
352.3295996795476
 73
     0
 72
     1
 10
108.596345170334
 20
40.7777274621958
 11
108.7771229990136
 21
39.89000566875154
 72
     1
 10
108.7771229990136
 20
39.89000566875155
 11
109.1308570939223
 21
39.92799053706638
 72
     1
 10
109.1308570939223
 20
39.92799053706638
 11
108.9115701509106
 21
41.9701002442414
 72
     1
 10
108.9115701509106
 20
41.9701002442414
 11
102.1547912193991
 21
41.9701002442414
 97
        0
 75
     0
 76
     1
 98
        1
 10
0.0
 20
0.0
  0
HATCH
  5
2A7
330
246
100
AcDbEntity
  8
Hatch
 62
     7
100
AcDbHatch
 10
0.0
 20
0.0
 30
0.0
210
0.0
220
0.0
230
1.0
  2
SOLID
 70
     1
 71
     0
 91
        1
 92
        1
 93
       25
 72
     1
 10
119.3021258490195
 20
41.97010024423225
 11
119.3021258490195
 21
41.6040588455903
 72
     1
 10
119.3021258490195
 20
41.6040588455903
 11
120.1993209031724
 21
41.6040588455903
 72
     2
 10
120.0708873828182
 20
40.96732444950536
 40
0.6495582039418895
 50
281.4039208677229
 51
367.8463456294263
 73
     0
 72
     1
 10
120.7143642528213
 20
40.87864875904135
 11
120.7143642528211
 21
35.11936028363493
 72
     1
 10
120.7143642528211
 20
35.11936028363493
 11
114.1508259874092
 21
41.97010024423225
 72
     1
 10
114.1508259874092
 20
41.97010024423225
 11
111.8901167513869
 21
41.97010024423225
 72
     1
 10
111.8901167513869
 20
41.97010024423225
 11
111.8901167513869
 21
41.6040588455903
 72
     1
 10
111.8901167513869
 20
41.6040588455903
 11
112.2991383716152
 21
41.60405884559019
 72
     2
 10
112.1386734304087
 20
40.00605731376576
 40
1.606037948826286
 50
275.7341919061111
 51
304.8422491572884
 73
     0
 72
     1
 10
113.0562332922184
 20
41.32417786707858
 11
113.0562332922185
 21
33.99046377482
 72
     2
 10
112.4939092605523
 20
34.04463735811942
 40
0.5649275119135968
 50
5.502820418839479
 51
90.00000000000182
 73
     0
 72
     1
 10
112.4939092605523
 20
33.47970984620582
 11
111.8798712955539
 21
33.47970984620582
 72
     1
 10
111.8798712955539
 20
33.47970984620582
 11
111.8798712955539
 21
33.12128352118615
 72
     1
 10
111.8798712955539
 20
33.12128352118615
 11
115.2123756143386
 21
33.12128352118615
 72
     1
 10
115.2123756143386
 20
33.12128352118615
 11
115.2123756143386
 21
33.47970984620582
 72
     1
 10
115.2123756143386
 20
33.47970984620582
 11
114.4433938382243
 21
33.47970984620582
 72
     2
 10
114.4433938382243
 20
34.14246580113967
 40
0.6627559549338308
 50
90.0
 51
176.6611019586586
 73
     0
 72
     1
 10
113.7817629072869
 20
34.10386571011405
 11
113.7817629072868
 21
40.59237604156083
 72
     1
 10
113.7817629072868
 20
40.59237604156083
 11
121.0561519425781
 21
32.99968051091815
 72
     1
 10
121.0561519425781
 20
32.99968051091815
 11
121.3807309808982
 21
32.99968051091815
 72
     1
 10
121.3807309808982
 20
32.99968051091815
 11
121.3807309808982
 21
41.01826591397905
 72
     2
 10
121.9666849959759
 20
41.01826591397905
 40
0.5859540150776762
 50
180.0
 51
268.6564887847029
 73
     0
 72
     1
 10
121.9529463985238
 20
41.6040588455903
 11
122.698224284294
 21
41.6040588455903
 72
     1
 10
122.698224284294
 20
41.6040588455903
 11
122.698224284294
 21
41.97010024423225
 72
     1
 10
122.698224284294
 20
41.97010024423225
 11
119.3021258490195
 21
41.97010024423225
 97
        0
 75
     0
 76
     1
 98
        1
 10
0.0
 20
0.0
  0
HATCH
  5
2B7
330
246
100
AcDbEntity
  8
Hatch
 62
     7
100
AcDbHatch
 10
0.0
 20
0.0
 30
0.0
210
0.0
220
0.0
230
1.0
  2
SOLID
 70
     1
 71
     0
 91
        2
 92
        0
 93
        5
 72
     2
 10
127.4121233785852
 20
34.05344370007729
 40
0.5657747847795487
 50
183.5630728646947
 51
270.0
 73
     1
 72
     1
 10
127.4121233785852
 20
33.48766891529775
 11
129.2967718760781
 21
33.48766891529775
 72
     2
 10
128.6383138931824
 20
37.58682170857503
 40
4.151700921052971
 50
279.1256196326258
 51
444.7832579466122
 73
     1
 72
     1
 10
129.0158013944008
 20
41.72132575674042
 11
126.8474422423256
 21
41.72132575674042
 72
     1
 10
126.8474422423256
 20
41.72132575674042
 11
126.8474422423256
 21
34.01828233712216
 97
        0
 92
        1
 93
       10
 72
     1
 10
124.3981126085731
 20
33.13340178117039
 11
124.3981126085731
 21
33.48766891529775
 72
     1
 10
124.3981126085731
 20
33.48766891529775
 11
124.9975881118954
 21
33.48766891529775
 72
     2
 10
124.9975881118954
 20
34.18828623806311
 40
0.7006173227653628
 50
270.0000000000014
 51
353.024809413329
 73
     1
 72
     1
 10
125.6930200458687
 20
34.10320358313766
 11
125.6930200458687
 21
40.8351095659028
 72
     2
 10
124.8019237182614
 20
40.8351095659028
 40
0.8910963276072079
 50
0.0
 51
84.00085025510522
 73
     1
 72
     1
 10
124.8950554967922
 20
41.72132575674042
 11
124.324815961179
 21
41.72132575674042
 72
     1
 10
124.324815961179
 20
41.72132575674042
 11
124.324815961179
 21
41.97786402628091
 72
     1
 10
124.324815961179
 20
41.97786402628091
 11
129.0158013944007
 21
41.97786402628091
 72
     2
 10
129.5605390499924
 20
37.56847517638674
 40
4.442909985920329
 50
262.9573407957678
 51
453.4035435467083
 73
     0
 72
     1
 10
129.2967718760781
 20
33.13340178117039
 11
124.3981126085731
 21
33.13340178117039
 97
        0
 75
     0
 76
     1
 98
        1
 10
0.0
 20
0.0
  0
HATCH
  5
2D7
330
246
100
AcDbEntity
  8
Hatch
 62
     7
100
AcDbHatch
 10
0.0
 20
0.0
 30
0.0
210
0.0
220
0.0
230
1.0
  2
SOLID
 70
     1
 71
     0
 91
        1
 92
        1
 93
       31
 72
     1
 10
142.3185929658183
 20
39.05175935219841
 11
142.3185929658183
 21
38.70250799980937
 72
     2
 10
141.6416132286902
 20
38.68489952346644
 40
0.6772086996792471
 50
358.5100529642173
 51
450.0
 73
     0
 72
     1
 10
141.6416132286902
 20
38.0076908237872
 11
139.0497349527908
 21
38.0076908237872
 72
     1
 10
139.0497349527908
 20
38.0076908237872
 11
139.0497349527908
 21
41.37756450558708
 72
     1
 10
139.0497349527908
 20
41.37756450558708
 11
142.0200353002834
 21
41.37756450558707
 72
     2
 10
142.1252154320802
 20
40.68068614017568
 40
0.7047711091576076
 50
261.417106453745
 51
352.3295996795476
 73
     0
 72
     1
 10
142.8236804511461
 20
40.77475490993709
 11
143.0044582798257
 21
39.88703311649284
 72
     1
 10
143.0044582798257
 20
39.88703311649284
 11
143.3581923747342
 21
39.92501798480765
 72
     1
 10
143.3581923747342
 20
39.92501798480765
 11
143.1389054317227
 21
41.9671276919827
 72
     1
 10
143.1389054317227
 20
41.9671276919827
 11
136.3821265002112
 21
41.9671276919827
 72
     1
 10
136.3821265002112
 20
41.9671276919827
 11
136.3821265002111
 21
41.62449183506653
 72
     1
 10
136.3821265002111
 20
41.62449183506653
 11
137.2876022207036
 21
41.62449183506653
 72
     2
 10
137.0604953128987
 20
40.91286367398367
 40
0.7469887463803611
 50
287.6998094052565
 51
361.934617559854
 73
     0
 72
     1
 10
137.807058276799
 20
40.88764605809322
 11
137.807058276799
 21
34.1639779304495
 72
     2
 10
137.1846438148267
 20
34.12106767001727
 40
0.6238918599586445
 50
356.0561765841167
 51
450.0
 73
     0
 72
     1
 10
137.1846438148267
 20
33.49717581005863
 11
136.1097437925176
 21
33.49717581005862
 72
     1
 10
136.1097437925176
 20
33.49717581005862
 11
136.1097437925176
 21
33.11831096892745
 72
     1
 10
136.1097437925176
 20
33.11831096892745
 11
143.6718860037359
 21
33.11831096892746
 72
     1
 10
143.6718860037359
 20
33.11831096892745
 11
143.8537411270517
 21
35.31572704748831
 72
     1
 10
143.8537411270517
 20
35.31572704748831
 11
143.5354946612489
 21
35.31572704748827
 72
     1
 10
143.5354946612489
 20
35.31572704748827
 11
143.2324027890558
 21
34.31552386690196
 72
     2
 10
142.2102615958223
 20
34.84559842129498
 40
1.151412893848158
 50
27.41090705137652
 51
90.0
 73
     0
 72
     1
 10
142.2102615958223
 20
33.69418552744684
 11
139.6271108476878
 21
33.69418552744682
 72
     2
 10
139.6271108476876
 20
34.27430679784134
 40
0.5801212703944943
 50
89.99999999998072
 51
185.5763565279438
 73
     0
 72
     1
 10
139.049734952791
 20
34.33067846054691
 11
139.0497349527908
 21
37.42891370477663
 72
     1
 10
139.0497349527908
 20
37.42891370477663
 11
141.7062552925825
 21
37.42891370477666
 72
     2
 10
141.6308519576318
 20
36.74531877251065
 40
0.6877410081865026
 50
276.2945141870343
 51
360.0
 73
     0
 72
     1
 10
142.3185929658183
 20
36.74531877251035
 11
142.3185929658183
 21
36.29405660867749
 72
     1
 10
142.3185929658183
 20
36.29405660867749
 11
142.6590501031463
 21
36.2940566086772
 72
     1
 10
142.6590501031463
 20
36.2940566086772
 11
142.6590501031459
 21
39.0517593521984
 72
     1
 10
142.6590501031459
 20
39.05175935219841
 11
142.3185929658183
 21
39.05175935219841
 97
        0
 75
     0
 76
     1
 98
        1
 10
0.0
 20
0.0
  0
HATCH
  5
2F5
330
246
100
AcDbEntity
  8
Hatch
 62
     7
100
AcDbHatch
 10
0.0
 20
0.0
 30
0.0
210
0.0
220
0.0
230
1.0
  2
SOLID
 70
     1
 71
     0
 91
        2
 92
        0
 93
        4
 72
     1
 10
148.540817945555
 20
41.70739500424215
 11
148.540817945555
 21
37.14319332318921
 72
     1
 10
148.540817945555
 20
37.14319332318921
 11
150.1618876282939
 21
37.14319332318921
 72
     2
 10
149.7024653346136
 20
39.41099089891019
 40
2.313865745538523
 50
281.4522871515732
 51
442.9565641102318
 73
     1
 72
     1
 10
149.986195617437
 20
41.70739500424215
 11
148.540817945555
 21
41.70739500424215
 97
        0
 92
        1
 93
       25
 72
     1
 10
155.109905556091
 20
32.99773196157084
 11
156.836788809244
 21
32.99773196157085
 72
     1
 10
156.836788809244
 20
32.99773196157085
 11
156.836788809244
 21
33.26958830489685
 72
     2
 10
156.836788809244
 20
35.97495469715656
 40
2.705366392259709
 50
90.0
 51
121.4748873055302
 73
     0
 72
     2
 10
157.1492256200603
 20
37.11724892920301
 40
3.856864382510258
 50
116.5672687922152
 51
139.2905966922647
 73
     0
 72
     2
 10
144.6020344191325
 20
26.32137869055188
 40
12.69556206325385
 50
40.70940330773501
 51
47.76115907009479
 73
     1
 72
     2
 10
140.9828681073053
 20
24.27141303148241
 40
16.6969331544594
 50
43.29080613025121
 51
51.03987823246249
 73
     1
 72
     2
 10
150.957289585664
 20
39.53199939728282
 40
2.336888734327936
 50
282.9642598519832
 51
382.7019303784485
 73
     1
 72
     2
 10
150.5171197140356
 20
39.12637848801547
 40
2.906690505091034
 50
26.73269879166254
 51
100.5244953658555
 73
     1
 72
     1
 10
149.986195617437
 20
41.98416946988195
 11
145.9268370495981
 21
41.98416946988195
 72
     1
 10
145.9268370495981
 20
41.98416946988195
 11
145.9268370495981
 21
41.70739500424215
 72
     1
 10
145.9268370495981
 20
41.70739500424215
 11
146.4220486991635
 21
41.70739500424215
 72
     2
 10
146.3368756844528
 20
40.7212546308712
 40
0.9898117388812398
 50
274.9363900951959
 51
345.5401304593235
 73
     0
 72
     1
 10
147.2953329304226
 20
40.96841244700324
 11
147.2953329304226
 21
34.19004908333223
 72
     2
 10
146.5376590263892
 20
34.23000561713436
 40
0.7587267422772337
 50
3.018741975093385
 51
76.24202028809174
 73
     0
 72
     1
 10
146.718100308716
 20
33.49304753618342
 11
145.9568677432127
 21
33.49304753618342
 72
     1
 10
145.9568677432127
 20
33.49304753618342
 11
145.9568677432127
 21
33.11621294359638
 72
     1
 10
145.9568677432127
 20
33.11621294359638
 11
149.9136308709488
 21
33.11621294359638
 72
     1
 10
149.9136308709488
 20
33.11621294359638
 11
149.9136308709488
 21
33.49304753618342
 72
     1
 10
149.9136308709488
 20
33.49304753618342
 11
149.0774973948495
 21
33.49304753618342
 72
     2
 10
149.2317352488414
 20
34.23266573894872
 40
0.7555292194652674
 50
101.7794792006094
 51
156.1321644428744
 73
     0
 72
     1
 10
148.540817945555
 20
33.92695724792318
 11
148.540817945555
 21
36.82939443260041
 72
     1
 10
148.540817945555
 20
36.82939443260041
 11
150.1618876282939
 21
36.82939443260041
 72
     2
 10
145.0574978337099
 20
29.20567244294297
 40
9.174744255326107
 50
303.8039063870235
 51
319.8670231832745
 73
     0
 72
     2
 10
158.8762514677249
 20
40.90690879441194
 40
8.932670134752644
 50
220.3838915613148
 51
231.5920830405884
 73
     1
 72
     2
 10
155.772891204607
 20
36.50036177452046
 40
3.564823358415056
 50
226.6714173869075
 51
259.2817293774281
 73
     1
 97
        0
 75
     0
 76
     1
 98
        1
 10
0.0
 20
0.0
  0
HATCH
  5
30D
330
246
100
AcDbEntity
  8
Hatch
 62
     7
100
AcDbHatch
 10
0.0
 20
0.0
 30
0.0
210
0.0
220
0.0
230
1.0
  2
SOLID
 70
     1
 71
     0
 91
        1
 92
        1
 93
       23
 72
     1
 10
160.6479774396501
 20
39.26244441350283
 11
160.4444259469803
 21
39.4225163001458
 72
     2
 10
161.2312554746254
 20
40.42306879057798
 40
1.272873124739543
 50
128.1813352870933
 51
251.4218211974398
 73
     0
 72
     2
 10
161.5530162788555
 20
39.46577000957755
 40
2.28279934543278
 50
251.4218211974422
 51
344.7903960667428
 73
     0
 72
     1
 10
163.7558549448598
 20
40.06466454375235
 11
164.10721567289
 21
40.06466454375235
 72
     1
 10
164.10721567289
 20
40.06466454375235
 11
163.7996543556428
 21
41.96446463385914
 72
     1
 10
163.7996543556428
 20
41.96446463385914
 11
163.5697074490312
 21
41.96446463385914
 72
     1
 10
163.5697074490312
 20
41.96446463385914
 11
163.4020199525485
 21
41.8038070543676
 72
     1
 10
163.4020199525485
 20
41.8038070543676
 11
163.142663193898
 21
41.8038070543676
 72
     2
 10
161.4701380824508
 20
38.62456231685784
 40
3.592344269332347
 50
62.25220845887818
 51
110.8096881097972
 73
     1
 72
     2
 10
160.9124442066014
 20
40.09195432508899
 40
2.022547542051841
 50
110.8096881097966
 51
229.7592170607356
 73
     1
 72
     2
 10
167.9276104182948
 20
47.38076045662679
 40
12.13538957445691
 50
226.7060885191224
 51
242.2640809537411
 73
     1
 72
     2
 10
161.3299597988683
 20
34.83320672820006
 40
2.041002712150211
 50
297.7359190462586
 51
370.1574404862627
 73
     0
 72
     2
 10
161.4963816346599
 20
35.3735633764681
 40
2.050774512687569
 50
26.04024600612266
 51
95.31911364912323
 73
     0
 72
     2
 10
161.5364623132012
 20
35.80405851622432
 40
2.48313145567109
 50
95.31911364912337
 51
169.9703510823305
 73
     0
 72
     1
 10
159.091278660378
 20
35.37160189399552
 11
158.7827946941463
 21
35.37160189399552
 72
     1
 10
158.7827946941462
 20
35.37160189399552
 11
159.1500680314156
 21
33.10296185342283
 72
     1
 10
159.1500680314156
 20
33.10296185342283
 11
159.3735558034684
 21
33.10296185342283
 72
     1
 10
159.3735558034684
 20
33.10296185342283
 11
159.4283890898879
 21
33.28391169903226
 72
     2
 10
159.6330425367475
 20
32.86491159904763
 40
0.4663090360465238
 50
243.9675933989487
 51
294.6997988266684
 73
     0
 72
     2
 10
161.8140380420993
 20
39.47165532283664
 40
6.494263125210722
 50
252.1918822162923
 51
273.9856636166399
 73
     1
 72
     2
 10
162.0862808614568
 20
35.37085123246108
 40
2.384492125826143
 50
274.3088400476872
 51
365.8124657135003
 73
     1
 72
     2
 10
162.1212399354459
 20
35.3744099303153
 40
2.349352387856274
 50
5.812465713500849
 51
56.96974444854591
 73
     1
 72
     2
 10
172.755821743604
 20
53.70760387544598
 40
18.84840909917213
 50
119.7538544899346
 51
129.9695328664264
 73
     0
 97
        0
 75
     0
 76
     1
 98
        1
 10
0.0
 20
0.0
  0
HATCH
  5
318
330
246
100
AcDbEntity
  8
Hatch
 62
     7
100
AcDbHatch
 10
0.0
 20
0.0
 30
0.0
210
0.0
220
0.0
230
1.0
  2
SOLID
 70
     1
 71
     0
 91
        2
 92
        0
 93
        6
 72
     2
 10
172.0675676127221
 20
38.34437756967243
 40
3.407244478276231
 50
36.26259189651417
 51
85.28533039672877
 73
     1
 72
     2
 10
172.0529366637332
 20
38.16697410357546
 40
3.585250249113969
 50
85.28533039672847
 51
183.8704455164119
 73
     1
 72
     2
 10
172.6174459292001
 20
37.37486696252652
 40
4.177955851326371
 50
172.4340468239057
 51
259.8572405806371
 73
     1
 72
     2
 10
172.7919859789266
 20
51.72678793767909
 40
18.4870082501753
 50
267.1776652275068
 51
267.8936768180174
 73
     1
 72
     2
 10
172.2421477821939
 20
36.77693828387718
 40
3.527050806590522
 50
267.8936768180172
 51
344.2786924858666
 73
     1
 72
     2
 10
170.5717924706307
 20
37.24712431901378
 40
5.262320749425029
 50
344.2786924858665
 51
396.2625918965145
 73
     1
 97
        0
 92
        1
 93
        4
 72
     2
 10
172.2881453734119
 20
38.38183346095937
 40
5.460249349820256
 50
267.5537157622909
 51
278.6905453670297
 73
     1
 72
     2
 10
172.6210062620611
 20
37.55776597074917
 40
4.599897721625063
 50
276.1421716975607
 51
442.8928695938044
 73
     1
 72
     2
 10
172.7637841895103
 20
-9.954992033700396
 40
52.07905779243873
 50
89.53094387807677
 51
91.6265072912272
 73
     1
 72
     2
 10
171.652425464485
 20
37.51332019972517
 40
4.604400491663247
 50
94.56991720728446
 51
275.0170075405732
 73
     1
 97
        0
 75
     0
 76
     1
 98
        1
 10
0.0
 20
0.0
  0
HATCH
  5
332
330
246
100
AcDbEntity
  8
Hatch
 62
     7
100
AcDbHatch
 10
0.0
 20
0.0
 30
0.0
210
0.0
220
0.0
230
1.0
  2
SOLID
 70
     1
 71
     0
 91
        1
 92
        1
 93
       25
 72
     1
 10
194.0232474083051
 20
42.12081822737387
 11
189.3749083702509
 21
42.12081822737387
 72
     1
 10
189.3749083702509
 20
42.12081822737387
 11
189.3749083702509
 21
41.73122328531364
 72
     1
 10
189.3749083702509
 20
41.73122328531364
 11
190.0806148606268
 21
41.73122328531364
 72
     2
 10
190.1499363255331
 20
40.58187851296409
 40
1.151433398518552
 50
266.5484493812014
 51
345.7670224464733
 73
     0
 72
     1
 10
191.2660253227426
 20
40.86497606069582
 11
191.266025322743
 21
32.47326338192227
 72
     1
 10
191.266025322743
 20
32.47326338192227
 11
182.0229222769413
 21
42.12081822737388
 72
     1
 10
182.0229222769413
 20
42.12081822737388
 11
178.9709006007346
 21
42.12081822737387
 72
     1
 10
178.9709006007346
 20
42.12081822737387
 11
178.9709006007346
 21
41.69538822606449
 72
     1
 10
178.9709006007346
 20
41.69538822606448
 11
179.4030407309133
 21
41.69538822606448
 72
     2
 10
179.2845704708843
 20
39.36965923476694
 40
2.328744413514125
 50
272.9160680622471
 51
303.393032434177
 73
     0
 72
     1
 10
180.5662629877748
 20
41.3139624095882
 11
180.5662629877748
 21
31.25937940638551
 72
     2
 10
179.4685390873549
 20
31.39820434497361
 40
1.106467408072776
 50
7.207714392328115
 51
90.62366208306563
 73
     0
 72
     1
 10
179.4564954752804
 20
30.2918024846464
 11
178.8830555747337
 21
30.2918024846464
 72
     1
 10
178.8830555747337
 20
30.2918024846464
 11
178.8830555747337
 21
29.83112863370736
 72
     1
 10
178.8830555747337
 20
29.83112863370736
 11
183.5316735189297
 21
29.83112863370736
 72
     1
 10
183.5316735189297
 20
29.83112863370736
 11
183.5316735189297
 21
30.2918024846464
 72
     1
 10
183.5316735189297
 20
30.2918024846464
 11
182.5445732629956
 21
30.2918024846464
 72
     2
 10
182.6757822558207
 20
31.40832659917116
 40
1.12420723094698
 50
96.7024070595489
 51
176.5514028863301
 73
     0
 72
     1
 10
181.5536107771009
 20
31.34070211794372
 11
181.5536107771007
 21
40.34473639418195
 72
     1
 10
181.5536107771007
 20
40.34473639418195
 11
191.7274563618655
 21
29.72571237358943
 72
     1
 10
191.7274563618655
 20
29.72571237358943
 11
192.2505130215134
 21
29.72571237358906
 72
     1
 10
192.2505130215134
 20
29.72571237358906
 11
192.2505130215134
 21
41.05003346921343
 72
     2
 10
193.1925794818321
 20
40.74413677832381
 40
0.9904857400057274
 50
197.9890378732773
 51
265.2518080546132
 73
     0
 72
     1
 10
193.1105902820963
 20
41.73122328531364
 11
194.0232474083051
 21
41.73122328531364
 72
     1
 10
194.0232474083051
 20
41.73122328531364
 11
194.0232474083051
 21
42.12081822737387
 97
        0
 75
     0
 76
     1
 98
        1
 10
0.0
 20
0.0
  0
HATCH
  5
33B
330
246
100
AcDbEntity
  8
Hatch
 62
     7
100
AcDbHatch
 10
0.0
 20
0.0
 30
0.0
210
0.0
220
0.0
230
1.0
  2
SOLID
 70
     1
 71
     0
 91
        1
 92
        1
 93
        8
 72
     1
 10
136.7383592365332
 20
28.81328749047306
 11
131.6040728259251
 21
28.81328749047306
 72
     1
 10
131.6040728259251
 20
28.81328749047306
 11
130.6040529664875
 21
29.85706536384081
 72
     1
 10
130.6040529664875
 20
29.85706536384081
 11
146.8056977643305
 21
29.8570653638408
 72
     1
 10
146.8056977643305
 20
29.8570653638408
 11
145.8056779048929
 21
28.81328749047306
 72
     1
 10
145.8056779048929
 20
28.81328749047306
 11
140.6713914942848
 21
28.81328749047306
 72
     1
 10
140.6713914942848
 20
28.81328749047306
 11
141.5059420923931
 21
29.68435564006092
 72
     1
 10
141.5059420923931
 20
29.68435564006092
 11
135.9038086384247
 21
29.68435564006092
 72
     1
 10
135.9038086384247
 20
29.68435564006092
 11
136.7383592365332
 21
28.81328749047306
 97
        0
 75
     0
 76
     1
 98
        1
 10
0.0
 20
0.0
  0
HATCH
  5
340
330
246
100
AcDbEntity
  8
Hatch
 62
     1
100
AcDbHatch
 10
0.0
 20
0.0
 30
0.0
210
0.0
220
0.0
230
1.0
  2
SOLID
 70
     1
 71
     0
 91
        1
 92
        1
 93
        4
 72
     1
 10
128.7494049999523
 20
30.36864548668035
 11
128.7494049999523
 21
29.8570653638408
 72
     1
 10
128.7494049999523
 20
29.8570653638408
 11
101.780234499479
 21
29.85706536384079
 72
     1
 10
101.780234499479
 20
29.85706536384079
 11
101.780234499479
 21
30.36864548668034
 72
     1
 10
101.780234499479
 20
30.36864548668034
 11
128.7494049999523
 21
30.36864548668034
 97
        0
 75
     0
 76
     1
 98
        1
 10
0.0
 20
0.0
  0
HATCH
  5
349
330
246
100
AcDbEntity
  8
Hatch
 62
     1
100
AcDbHatch
 10
0.0
 20
0.0
 30
0.0
210
0.0
220
0.0
230
1.0
  2
SOLID
 70
     1
 71
     0
 91
        1
 92
        1
 93
        8
 72
     1
 10
146.8056977643303
 20
30.47124551584519
 11
145.8056779048927
 21
31.51502338921306
 72
     1
 10
145.8056779048926
 20
31.51502338921306
 11
140.6713914942846
 21
31.51502338921296
 72
     1
 10
140.6713914942846
 20
31.51502338921296
 11
141.5059420923931
 21
30.64395523962508
 72
     1
 10
141.5059420923931
 20
30.64395523962508
 11
135.9038086384247
 21
30.64395523962508
 72
     1
 10
135.9038086384247
 20
30.64395523962508
 11
136.7383592365332
 21
31.51502338921294
 72
     1
 10
136.7383592365332
 20
31.51502338921294
 11
131.6040728259251
 21
31.51502338921294
 72
     1
 10
131.6040728259251
 20
31.51502338921294
 11
130.6040529664875
 21
30.47124551584519
 72
     1
 10
130.6040529664875
 20
30.47124551584519
 11
146.8056977643303
 21
30.47124551584519
 97
        0
 75
     0
 76
     1
 98
        1
 10
0.0
 20
0.0
  0
HATCH
  5
34E
330
246
100
AcDbEntity
  8
Hatch
 62
     1
100
AcDbHatch
 10
0.0
 20
0.0
 30
0.0
210
0.0
220
0.0
230
1.0
  2
SOLID
 70
     1
 71
     0
 91
        1
 92
        1
 93
        4
 72
     1
 10
175.6295162313388
 20
30.36864548668034
 11
148.6603457308655
 21
30.36864548668034
 72
     1
 10
148.6603457308655
 20
30.36864548668034
 11
148.6603457308655
 21
29.85706536384079
 72
     1
 10
148.6603457308655
 20
29.85706536384079
 11
175.6295162313388
 21
29.85706536384079
 72
     1
 10
175.6295162313388
 20
29.85706536384079
 11
175.6295162313388
 21
30.36864548668034
 97
        0
 75
     0
 76
     1
 98
        1
 10
0.0
 20
0.0
  0
LINE
  5
34F
330
246
100
AcDbEntity
  8
Sketch Geometry(ISO)
  6
CONTINUOUS_ACAD
 62
     7
370
    25
100
AcDbLine
 10
10.0
 20
287.0
 30
0.0
 11
9.999999999999998
 21
10.0
 31
0.0
  0
LINE
  5
350
330
246
100
AcDbEntity
  8
Sketch Geometry(ISO)
  6
Continuous
 62
     7
370
    25
100
AcDbLine
 10
200.0
 20
287.0
 30
0.0
 11
10.0
 21
287.0
 31
0.0
  0
LINE
  5
351
330
246
100
AcDbEntity
  8
Sketch Geometry(ISO)
  6
CONTINUOUS_ACAD
 62
     7
370
    18
100
AcDbLine
 10
96.16057270764457
 20
40.61274840008619
 30
0.0
 11
96.16057270764459
 21
36.45263041054171
 31
0.0
  0
ARC
  5
352
330
246
100
AcDbEntity
  8
Sketch Geometry(ISO)
  6
CONTINUOUS_ACAD
 62
     7
370
    18
100
AcDbCircle
 10
98.9457575770492
 20
40.54104742202702
 30
0.0
 40
1.168533108383336
100
AcDbArc
 50
86.08926454031106
 51
180.0
  0
ARC
  5
353
330
246
100
AcDbEntity
  8
Sketch Geometry(ISO)
  6
CONTINUOUS_ACAD
 62
     7
370
    18
100
AcDbCircle
 10
95.06646109900245
 20
40.61274840008619
 30
0.0
 40
1.094111608642141
100
AcDbArc
 50
0.0
 51
89.95178588531743
  0
LINE
  5
354
330
246
100
AcDbEntity
  8
Sketch Geometry(ISO)
  6
CONTINUOUS_ACAD
 62
     7
370
    18
100
AcDbLine
 10
94.18509592283648
 20
41.70685962135053
 30
0.0
 11
95.06738178839349
 21
41.70685962135053
 31
0.0
  0
LINE
  5
355
330
246
100
AcDbEntity
  8
Sketch Geometry(ISO)
  6
CONTINUOUS_ACAD
 62
     7
370
    18
100
AcDbLine
 10
88.47384473046572
 20
36.45263041054171
 30
0.0
 11
96.16057270764459
 21
36.45263041054171
 31
0.0
  0
LINE
  5
356
330
246
100
AcDbEntity
  8
Sketch Geometry(ISO)
  6
CONTINUOUS_ACAD
 62
     7
370
    18
100
AcDbLine
 10
96.16057270764459
 20
35.72725452681896
 30
0.0
 11
88.47384473046572
 21
35.72725452681896
 31
0.0
  0
LINE
  5
357
330
246
100
AcDbEntity
  8
Sketch Geometry(ISO)
  6
CONTINUOUS_ACAD
 62
     7
370
    18
100
AcDbLine
 10
97.77722446866588
 20
40.54104742202702
 30
0.0
 11
97.7772244686659
 21
31.47753907892596
 31
0.0
  0
LINE
  5
358
330
246
100
AcDbEntity
  8
Sketch Geometry(ISO)
  6
CONTINUOUS_ACAD
 62
     7
370
    18
100
AcDbLine
 10
94.18509592283648
 20
41.70685962135053
 30
0.0
 11
94.18509592283648
 21
42.14439631375073
 31
0.0
  0
LINE
  5
359
330
246
100
AcDbEntity
  8
Sketch Geometry(ISO)
  6
CONTINUOUS_ACAD
 62
     7
370
    18
100
AcDbLine
 10
99.32922171552744
 20
41.70685962135053
 30
0.0
 11
98.866061019429
 21
41.70685962135053
 31
0.0
  0
LINE
  5
35A
330
246
100
AcDbEntity
  8
Sketch Geometry(ISO)
  6
CONTINUOUS_ACAD
 62
     7
370
    18
100
AcDbLine
 10
99.32922171552744
 20
42.14439631375073
 30
0.0
 11
99.32922171552744
 21
41.70685962135053
 31
0.0
  0
LINE
  5
35B
330
246
100
AcDbEntity
  8
Sketch Geometry(ISO)
  6
CONTINUOUS_ACAD
 62
     7
370
    18
100
AcDbLine
 10
94.18509592283648
 20
42.14439631375073
 30
0.0
 11
99.32922171552744
 21
42.14439631375073
 31
0.0
  0
LINE
  5
35C
330
246
100
AcDbEntity
  8
Sketch Geometry(ISO)
  6
CONTINUOUS_ACAD
 62
     7
370
    18
100
AcDbLine
 10
90.12817817732347
 20
42.14439631374834
 30
0.0
 11
90.12817817732347
 21
41.70685962135043
 31
0.0
  0
LINE
  5
35D
330
246
100
AcDbEntity
  8
Sketch Geometry(ISO)
  6
CONTINUOUS_ACAD
 62
     7
370
    18
100
AcDbLine
 10
85.3245838741066
 20
42.14439631374839
 30
0.0
 11
90.12817817732347
 21
42.14439631374834
 31
0.0
  0
LINE
  5
35E
330
246
100
AcDbEntity
  8
Sketch Geometry(ISO)
  6
CONTINUOUS_ACAD
 62
     7
370
    18
100
AcDbLine
 10
85.32458387410626
 20
41.70685962135043
 30
0.0
 11
85.3245838741066
 21
42.14439631374839
 31
0.0
  0
LINE
  5
35F
330
246
100
AcDbEntity
  8
Sketch Geometry(ISO)
  6
CONTINUOUS_ACAD
 62
     7
370
    18
100
AcDbLine
 10
90.12817817732347
 20
41.70685962135043
 30
0.0
 11
89.48886054507591
 21
41.70685962135043
 31
0.0
  0
LINE
  5
360
330
246
100
AcDbEntity
  8
Sketch Geometry(ISO)
  6
CONTINUOUS_ACAD
 62
     7
370
    18
100
AcDbLine
 10
85.89887128525436
 20
41.70685962135038
 30
0.0
 11
85.32458387410626
 21
41.70685962135043
 31
0.0
  0
ARC
  5
361
330
246
100
AcDbEntity
  8
Sketch Geometry(ISO)
  6
CONTINUOUS_ACAD
 62
     7
370
    18
100
AcDbCircle
 10
85.7884589986755
 20
40.77781686597326
 30
0.0
 40
0.9355807364125672
100
AcDbArc
 50
0.0
 51
83.22246050162359
  0
ARC
  5
362
330
246
100
AcDbEntity
  8
Sketch Geometry(ISO)
  6
CONTINUOUS_ACAD
 62
     7
370
    18
100
AcDbCircle
 10
89.51257510724987
 20
40.668399985546
 30
0.0
 40
1.038730376784161
100
AcDbArc
 50
88.69180451568546
 51
180.0
  0
LINE
  5
363
330
246
100
AcDbEntity
  8
Sketch Geometry(ISO)
  6
CONTINUOUS_ACAD
 62
     7
370
    18
100
AcDbLine
 10
93.99162909502386
 20
29.83951915625621
 30
0.0
 11
93.99162909502386
 21
30.31758525797407
 31
0.0
  0
LINE
  5
364
330
246
100
AcDbEntity
  8
Sketch Geometry(ISO)
  6
CONTINUOUS_ACAD
 62
     7
370
    18
100
AcDbLine
 10
93.99162909502386
 20
30.31758525797407
 30
0.0
 11
95.09530295777265
 21
30.31758525797406
 31
0.0
  0
ARC
  5
365
330
246
100
AcDbEntity
  8
Sketch Geometry(ISO)
  6
CONTINUOUS_ACAD
 62
     7
370
    18
100
AcDbCircle
 10
94.99216056273015
 20
31.49643795118536
 30
0.0
 40
1.183356254872822
100
AcDbArc
 50
275.0002965615479
 51
350.8846571626673
  0
LINE
  5
366
330
246
100
AcDbEntity
  8
Sketch Geometry(ISO)
  6
CONTINUOUS_ACAD
 62
     7
370
    18
100
AcDbLine
 10
99.53719586151921
 20
29.83951915625621
 30
0.0
 11
93.99162909502386
 21
29.83951915625621
 31
0.0
  0
LINE
  5
367
330
246
100
AcDbEntity
  8
Sketch Geometry(ISO)
  6
CONTINUOUS_ACAD
 62
     7
370
    18
100
AcDbLine
 10
99.53719586151919
 20
30.31758525797407
 30
0.0
 11
99.53719586151921
 21
29.83951915625621
 31
0.0
  0
LINE
  5
368
330
246
100
AcDbEntity
  8
Sketch Geometry(ISO)
  6
CONTINUOUS_ACAD
 62
     7
370
    18
100
AcDbLine
 10
98.96748550108981
 20
30.31758525797406
 30
0.0
 11
99.53719586151919
 21
30.31758525797407
 31
0.0
  0
ARC
  5
369
330
246
100
AcDbEntity
  8
Sketch Geometry(ISO)
  6
CONTINUOUS_ACAD
 62
     7
370
    18
100
AcDbCircle
 10
98.96748550108981
 20
31.50824222299917
 30
0.0
 40
1.190656965025106
100
AcDbArc
 50
181.4776343176195
 51
270.0
  0
LINE
  5
36A
330
246
100
AcDbEntity
  8
Sketch Geometry(ISO)
  6
CONTINUOUS_ACAD
 62
     7
370
    18
100
AcDbLine
 10
96.16057270764459
 20
35.72725452681896
 30
0.0
 11
96.16057270764459
 21
31.3089677253812
 31
0.0
  0
LINE
  5
36B
330
246
100
AcDbEntity
  8
Sketch Geometry(ISO)
  6
CONTINUOUS_ACAD
 62
     1
370
    18
100
AcDbLine
 10
101.780234499479
 20
29.85706536384079
 30
0.0
 11
101.780234499479
 21
30.36864548668034
 31
0.0
  0
ARC
  5
36C
330
246
100
AcDbEntity
  8
Sketch Geometry(ISO)
  6
CONTINUOUS_ACAD
 62
     7
370
    18
100
AcDbCircle
 10
102.9573085340146
 20
34.12404022227598
 30
0.0
 40
0.6238918599586445
100
AcDbArc
 50
270.0
 51
3.943823415883249
  0
LINE
  5
36D
330
246
100
AcDbEntity
  8
Sketch Geometry(ISO)
  6
CONTINUOUS_ACAD
 62
     7
370
    18
100
AcDbLine
 10
101.8824085117055
 20
33.12128352118615
 30
0.0
 11
101.8824085117055
 21
33.50014836231733
 31
0.0
  0
LINE
  5
36E
330
246
100
AcDbEntity
  8
Sketch Geometry(ISO)
  6
CONTINUOUS_ACAD
 62
     7
370
    18
100
AcDbLine
 10
103.579722995987
 20
40.94105384213363
 30
0.0
 11
103.579722995987
 21
34.1669504827082
 31
0.0
  0
ARC
  5
36F
330
246
100
AcDbEntity
  8
Sketch Geometry(ISO)
  6
CONTINUOUS_ACAD
 62
     7
370
    18
100
AcDbCircle
 10
102.8331600320866
 20
40.91583622624237
 30
0.0
 40
0.7469887463803613
100
AcDbArc
 50
358.065382440146
 51
72.30019059474345
  0
LINE
  5
370
330
246
100
AcDbEntity
  8
Sketch Geometry(ISO)
  6
CONTINUOUS_ACAD
 62
     7
370
    18
100
AcDbLine
 10
103.0602669398915
 20
41.62746438732523
 30
0.0
 11
102.154791219399
 21
41.62746438732523
 31
0.0
  0
LINE
  5
371
330
246
100
AcDbEntity
  8
Sketch Geometry(ISO)
  6
CONTINUOUS_ACAD
 62
     7
370
    18
100
AcDbLine
 10
102.154791219399
 20
41.62746438732523
 30
0.0
 11
102.1547912193991
 21
41.9701002442414
 31
0.0
  0
ARC
  5
372
330
246
100
AcDbEntity
  8
Sketch Geometry(ISO)
  6
CONTINUOUS_ACAD
 62
     7
370
    18
100
AcDbCircle
 10
107.9829263150102
 20
34.84857097355368
 30
0.0
 40
1.151412893848158
100
AcDbArc
 50
270.0
 51
332.5890929486235
  0
ARC
  5
373
330
246
100
AcDbEntity
  8
Sketch Geometry(ISO)
  6
CONTINUOUS_ACAD
 62
     7
370
    18
100
AcDbCircle
 10
105.3997755668756
 20
34.27727935010004
 30
0.0
 40
0.5801212703944943
100
AcDbArc
 50
174.4236434720287
 51
270.0
  0
LINE
  5
374
330
246
100
AcDbEntity
  8
Sketch Geometry(ISO)
  6
CONTINUOUS_ACAD
 62
     7
370
    18
100
AcDbLine
 10
104.8223996719787
 20
37.43188625703533
 30
0.0
 11
104.8223996719787
 21
34.33365101280592
 31
0.0
  0
LINE
  5
375
330
246
100
AcDbEntity
  8
Sketch Geometry(ISO)
  6
CONTINUOUS_ACAD
 62
     7
370
    18
100
AcDbLine
 10
108.4317148223339
 20
36.29702916093619
 30
0.0
 11
108.0912576850063
 21
36.29702916093619
 31
0.0
  0
LINE
  5
376
330
246
100
AcDbEntity
  8
Sketch Geometry(ISO)
  6
CONTINUOUS_ACAD
 62
     7
370
    18
100
AcDbLine
 10
108.0912576850063
 20
36.29702916093619
 30
0.0
 11
108.0912576850063
 21
36.74829132476935
 31
0.0
  0
ARC
  5
377
330
246
100
AcDbEntity
  8
Sketch Geometry(ISO)
  6
CONTINUOUS_ACAD
 62
     7
370
    18
100
AcDbCircle
 10
107.4035166768197
 20
36.74829132476935
 30
0.0
 40
0.6877410081865026
100
AcDbArc
 50
0.0
 51
83.70548581297908
  0
LINE
  5
378
330
246
100
AcDbEntity
  8
Sketch Geometry(ISO)
  6
CONTINUOUS_ACAD
 62
     7
370
    18
100
AcDbLine
 10
108.4317148223339
 20
39.05473190445711
 30
0.0
 11
108.4317148223339
 21
36.29702916093619
 31
0.0
  0
LINE
  5
379
330
246
100
AcDbEntity
  8
Sketch Geometry(ISO)
  6
CONTINUOUS_ACAD
 62
     7
370
    18
100
AcDbLine
 10
107.4789200117702
 20
37.43188625703533
 30
0.0
 11
104.8223996719787
 21
37.43188625703533
 31
0.0
  0
LINE
  5
37A
330
246
100
AcDbEntity
  8
Sketch Geometry(ISO)
  6
CONTINUOUS_ACAD
 62
     7
370
    18
100
AcDbLine
 10
109.3081593804369
 20
35.31869959974697
 30
0.0
 11
109.0050675082438
 21
34.31849641916066
 31
0.0
  0
LINE
  5
37B
330
246
100
AcDbEntity
  8
Sketch Geometry(ISO)
  6
CONTINUOUS_ACAD
 62
     7
370
    18
100
AcDbLine
 10
105.3997755668756
 20
33.69715807970555
 30
0.0
 11
107.9829263150102
 21
33.69715807970553
 31
0.0
  0
LINE
  5
37C
330
246
100
AcDbEntity
  8
Sketch Geometry(ISO)
  6
CONTINUOUS_ACAD
 62
     7
370
    18
100
AcDbLine
 10
109.6264058462397
 20
35.31869959974697
 30
0.0
 11
109.4445507229238
 21
33.12128352118615
 31
0.0
  0
LINE
  5
37D
330
246
100
AcDbEntity
  8
Sketch Geometry(ISO)
  6
CONTINUOUS_ACAD
 62
     7
370
    18
100
AcDbLine
 10
109.3081593804369
 20
35.31869959974697
 30
0.0
 11
109.6264058462397
 21
35.31869959974697
 31
0.0
  0
LINE
  5
37E
330
246
100
AcDbEntity
  8
Sketch Geometry(ISO)
  6
CONTINUOUS_ACAD
 62
     7
370
    18
100
AcDbLine
 10
109.4445507229238
 20
33.12128352118615
 30
0.0
 11
101.8824085117055
 21
33.12128352118615
 31
0.0
  0
LINE
  5
37F
330
246
100
AcDbEntity
  8
Sketch Geometry(ISO)
  6
CONTINUOUS_ACAD
 62
     7
370
    18
100
AcDbLine
 10
101.8824085117055
 20
33.50014836231733
 30
0.0
 11
102.9573085340146
 21
33.50014836231733
 31
0.0
  0
LINE
  5
380
330
246
100
AcDbEntity
  8
Sketch Geometry(ISO)
  6
CONTINUOUS_ACAD
 62
     7
370
    18
100
AcDbLine
 10
104.8223996719787
 20
41.38053705784578
 30
0.0
 11
104.8223996719787
 21
38.0106633760459
 31
0.0
  0
LINE
  5
381
330
246
100
AcDbEntity
  8
Sketch Geometry(ISO)
  6
CONTINUOUS_ACAD
 62
     7
370
    18
100
AcDbLine
 10
104.8223996719787
 20
41.38053705784578
 30
0.0
 11
107.7927000194713
 21
41.38053705784578
 31
0.0
  0
ARC
  5
382
330
246
100
AcDbEntity
  8
Sketch Geometry(ISO)
  6
CONTINUOUS_ACAD
 62
     7
370
    18
100
AcDbCircle
 10
107.8978801512681
 20
40.68365869243439
 30
0.0
 40
0.7047711091576076
100
AcDbArc
 50
7.670400320452447
 51
98.58289354625499
  0
LINE
  5
383
330
246
100
AcDbEntity
  8
Sketch Geometry(ISO)
  6
CONTINUOUS_ACAD
 62
     7
370
    18
100
AcDbLine
 10
108.0912576850063
 20
39.05473190445711
 30
0.0
 11
108.4317148223339
 21
39.05473190445711
 31
0.0
  0
LINE
  5
384
330
246
100
AcDbEntity
  8
Sketch Geometry(ISO)
  6
CONTINUOUS_ACAD
 62
     7
370
    18
100
AcDbLine
 10
108.0912576850063
 20
38.67026359938223
 30
0.0
 11
108.0912576850063
 21
39.05473190445711
 31
0.0
  0
ARC
  5
385
330
246
100
AcDbEntity
  8
Sketch Geometry(ISO)
  6
CONTINUOUS_ACAD
 62
     7
370
    18
100
AcDbCircle
 10
107.4142779478781
 20
38.68787207572515
 30
0.0
 40
0.6772086996792471
100
AcDbArc
 50
270.0
 51
1.489947035782676
  0
LINE
  5
386
330
246
100
AcDbEntity
  8
Sketch Geometry(ISO)
  6
CONTINUOUS_ACAD
 62
     7
370
    18
100
AcDbLine
 10
104.8223996719787
 20
38.0106633760459
 30
0.0
 11
107.4142779478781
 21
38.0106633760459
 31
0.0
  0
LINE
  5
387
330
246
100
AcDbEntity
  8
Sketch Geometry(ISO)
  6
CONTINUOUS_ACAD
 62
     7
370
    18
100
AcDbLine
 10
108.7771229990136
 20
39.89000566875155
 30
0.0
 11
108.596345170334
 21
40.7777274621958
 31
0.0
  0
LINE
  5
388
330
246
100
AcDbEntity
  8
Sketch Geometry(ISO)
  6
CONTINUOUS_ACAD
 62
     7
370
    18
100
AcDbLine
 10
109.1308570939223
 20
39.92799053706638
 30
0.0
 11
108.7771229990136
 21
39.89000566875155
 31
0.0
  0
LINE
  5
389
330
246
100
AcDbEntity
  8
Sketch Geometry(ISO)
  6
CONTINUOUS_ACAD
 62
     7
370
    18
100
AcDbLine
 10
108.9115701509106
 20
41.9701002442414
 30
0.0
 11
109.1308570939223
 21
39.92799053706638
 31
0.0
  0
LINE
  5
38A
330
246
100
AcDbEntity
  8
Sketch Geometry(ISO)
  6
CONTINUOUS_ACAD
 62
     7
370
    18
100
AcDbLine
 10
102.1547912193991
 20
41.9701002442414
 30
0.0
 11
108.9115701509106
 21
41.9701002442414
 31
0.0
  0
LINE
  5
38B
330
246
100
AcDbEntity
  8
Sketch Geometry(ISO)
  6
CONTINUOUS_ACAD
 62
     1
370
    18
100
AcDbLine
 10
128.7494049999523
 20
30.36864548668035
 30
0.0
 11
128.7494049999523
 21
29.8570653638408
 31
0.0
  0
LINE
  5
38C
330
246
100
AcDbEntity
  8
Sketch Geometry(ISO)
  6
CONTINUOUS_ACAD
 62
     1
370
    18
100
AcDbLine
 10
128.7494049999523
 20
29.8570653638408
 30
0.0
 11
101.780234499479
 21
29.85706536384079
 31
0.0
  0
LINE
  5
38D
330
246
100
AcDbEntity
  8
Sketch Geometry(ISO)
  6
CONTINUOUS_ACAD
 62
     1
370
    18
100
AcDbLine
 10
101.780234499479
 20
30.36864548668034
 30
0.0
 11
128.7494049999523
 21
30.36864548668035
 31
0.0
  0
LINE
  5
38E
330
246
100
AcDbEntity
  8
Sketch Geometry(ISO)
  6
CONTINUOUS_ACAD
 62
     7
370
    18
100
AcDbLine
 10
111.8798712955539
 20
33.12128352118615
 30
0.0
 11
115.2123756143386
 21
33.12128352118615
 31
0.0
  0
LINE
  5
38F
330
246
100
AcDbEntity
  8
Sketch Geometry(ISO)
  6
CONTINUOUS_ACAD
 62
     7
370
    18
100
AcDbLine
 10
115.2123756143386
 20
33.12128352118615
 30
0.0
 11
115.2123756143386
 21
33.47970984620582
 31
0.0
  0
LINE
  5
390
330
246
100
AcDbEntity
  8
Sketch Geometry(ISO)
  6
CONTINUOUS_ACAD
 62
     7
370
    18
100
AcDbLine
 10
115.2123756143386
 20
33.47970984620582
 30
0.0
 11
114.4433938382243
 21
33.47970984620582
 31
0.0
  0
ARC
  5
391
330
246
100
AcDbEntity
  8
Sketch Geometry(ISO)
  6
CONTINUOUS_ACAD
 62
     7
370
    18
100
AcDbCircle
 10
114.4433938382243
 20
34.14246580113967
 30
0.0
 40
0.6627559549338308
100
AcDbArc
 50
183.3388980413414
 51
270.0
  0
LINE
  5
392
330
246
100
AcDbEntity
  8
Sketch Geometry(ISO)
  6
CONTINUOUS_ACAD
 62
     7
370
    18
100
AcDbLine
 10
121.0561519425781
 20
32.99968051091815
 30
0.0
 11
113.7817629072868
 21
40.59237604156083
 31
0.0
  0
LINE
  5
393
330
246
100
AcDbEntity
  8
Sketch Geometry(ISO)
  6
CONTINUOUS_ACAD
 62
     7
370
    18
100
AcDbLine
 10
120.7143642528213
 20
41.05600013996931
 30
0.0
 11
120.7143642528211
 21
35.11936028363493
 31
0.0
  0
LINE
  5
394
330
246
100
AcDbEntity
  8
Sketch Geometry(ISO)
  6
CONTINUOUS_ACAD
 62
     7
370
    18
100
AcDbLine
 10
120.7143642528211
 20
35.11936028363493
 30
0.0
 11
114.1508259874092
 21
41.97010024423225
 31
0.0
  0
ARC
  5
395
330
246
100
AcDbEntity
  8
Sketch Geometry(ISO)
  6
CONTINUOUS_ACAD
 62
     7
370
    18
100
AcDbCircle
 10
120.0708873828182
 20
40.96732444950536
 30
0.0
 40
0.6495582039418895
100
AcDbArc
 50
352.1536543705736
 51
78.59607913227709
  0
LINE
  5
396
330
246
100
AcDbEntity
  8
Sketch Geometry(ISO)
  6
CONTINUOUS_ACAD
 62
     7
370
    18
100
AcDbLine
 10
120.1993209031724
 20
41.6040588455903
 30
0.0
 11
119.3021258490195
 21
41.6040588455903
 31
0.0
  0
LINE
  5
397
330
246
100
AcDbEntity
  8
Sketch Geometry(ISO)
  6
CONTINUOUS_ACAD
 62
     7
370
    18
100
AcDbLine
 10
113.7817629072868
 20
40.59237604156083
 30
0.0
 11
113.7817629072869
 21
34.10386571011405
 31
0.0
  0
LINE
  5
398
330
246
100
AcDbEntity
  8
Sketch Geometry(ISO)
  6
CONTINUOUS_ACAD
 62
     7
370
    18
100
AcDbLine
 10
119.3021258490195
 20
41.6040588455903
 30
0.0
 11
119.3021258490195
 21
41.97010024423225
 31
0.0
  0
LINE
  5
399
330
246
100
AcDbEntity
  8
Sketch Geometry(ISO)
  6
CONTINUOUS_ACAD
 62
     7
370
    18
100
AcDbLine
 10
112.4939092605523
 20
33.47970984620582
 30
0.0
 11
111.8798712955539
 21
33.47970984620582
 31
0.0
  0
ARC
  5
39A
330
246
100
AcDbEntity
  8
Sketch Geometry(ISO)
  6
CONTINUOUS_ACAD
 62
     7
370
    18
100
AcDbCircle
 10
112.4939092605523
 20
34.04463735811942
 30
0.0
 40
0.5649275119135968
100
AcDbArc
 50
269.9999999999982
 51
354.4971795811605
  0
LINE
  5
39B
330
246
100
AcDbEntity
  8
Sketch Geometry(ISO)
  6
CONTINUOUS_ACAD
 62
     7
370
    18
100
AcDbLine
 10
111.8798712955539
 20
33.47970984620582
 30
0.0
 11
111.8798712955539
 21
33.12128352118615
 31
0.0
  0
LINE
  5
39C
330
246
100
AcDbEntity
  8
Sketch Geometry(ISO)
  6
CONTINUOUS_ACAD
 62
     7
370
    18
100
AcDbLine
 10
113.0562332922185
 20
33.99046377482
 30
0.0
 11
113.0562332922184
 21
41.32417786707858
 31
0.0
  0
ARC
  5
39D
330
246
100
AcDbEntity
  8
Sketch Geometry(ISO)
  6
CONTINUOUS_ACAD
 62
     7
370
    18
100
AcDbCircle
 10
112.1386734304087
 20
40.00605731376576
 30
0.0
 40
1.606037948826286
100
AcDbArc
 50
55.15775084271091
 51
84.26580809388882
  0
LINE
  5
39E
330
246
100
AcDbEntity
  8
Sketch Geometry(ISO)
  6
CONTINUOUS_ACAD
 62
     7
370
    18
100
AcDbLine
 10
111.8901167513869
 20
41.97010024423225
 30
0.0
 11
114.1508259874092
 21
41.97010024423225
 31
0.0
  0
LINE
  5
39F
330
246
100
AcDbEntity
  8
Sketch Geometry(ISO)
  6
CONTINUOUS_ACAD
 62
     7
370
    18
100
AcDbLine
 10
112.2991383716152
 20
41.60405884559019
 30
0.0
 11
111.8901167513869
 21
41.6040588455903
 31
0.0
  0
LINE
  5
3A0
330
246
100
AcDbEntity
  8
Sketch Geometry(ISO)
  6
CONTINUOUS_ACAD
 62
     7
370
    18
100
AcDbLine
 10
111.8901167513869
 20
41.6040588455903
 30
0.0
 11
111.8901167513869
 21
41.97010024423225
 31
0.0
  0
LINE
  5
3A1
330
246
100
AcDbEntity
  8
Sketch Geometry(ISO)
  6
CONTINUOUS_ACAD
 62
     7
370
    18
100
AcDbLine
 10
126.8474422423256
 20
41.72132575674042
 30
0.0
 11
126.8474422423256
 21
34.01828233712216
 31
0.0
  0
LINE
  5
3A2
330
246
100
AcDbEntity
  8
Sketch Geometry(ISO)
  6
CONTINUOUS_ACAD
 62
     7
370
    18
100
AcDbLine
 10
125.6930200458687
 20
34.10320358313766
 30
0.0
 11
125.6930200458687
 21
40.8351095659028
 31
0.0
  0
ARC
  5
3A3
330
246
100
AcDbEntity
  8
Sketch Geometry(ISO)
  6
CONTINUOUS_ACAD
 62
     7
370
    18
100
AcDbCircle
 10
124.9975881118954
 20
34.18828623806311
 30
0.0
 40
0.7006173227653628
100
AcDbArc
 50
270.0000000000014
 51
353.024809413329
  0
LINE
  5
3A4
330
246
100
AcDbEntity
  8
Sketch Geometry(ISO)
  6
CONTINUOUS_ACAD
 62
     7
370
    18
100
AcDbLine
 10
124.3981126085731
 20
33.48766891529775
 30
0.0
 11
124.9975881118954
 21
33.48766891529775
 31
0.0
  0
ARC
  5
3A5
330
246
100
AcDbEntity
  8
Sketch Geometry(ISO)
  6
CONTINUOUS_ACAD
 62
     7
370
    18
100
AcDbCircle
 10
124.8019237182614
 20
40.8351095659028
 30
0.0
 40
0.8910963276072079
100
AcDbArc
 50
0.0
 51
84.00085025510522
  0
LINE
  5
3A6
330
246
100
AcDbEntity
  8
Sketch Geometry(ISO)
  6
CONTINUOUS_ACAD
 62
     7
370
    18
100
AcDbLine
 10
124.3981126085731
 20
33.13340178117039
 30
0.0
 11
124.3981126085731
 21
33.48766891529775
 31
0.0
  0
LINE
  5
3A7
330
246
100
AcDbEntity
  8
Sketch Geometry(ISO)
  6
CONTINUOUS_ACAD
 62
     7
370
    18
100
AcDbLine
 10
124.8950554967922
 20
41.72132575674042
 30
0.0
 11
124.324815961179
 21
41.72132575674042
 31
0.0
  0
LINE
  5
3A8
330
246
100
AcDbEntity
  8
Sketch Geometry(ISO)
  6
CONTINUOUS_ACAD
 62
     7
370
    18
100
AcDbLine
 10
122.698224284294
 20
41.6040588455903
 30
0.0
 11
121.9529463985238
 21
41.6040588455903
 31
0.0
  0
ARC
  5
3A9
330
246
100
AcDbEntity
  8
Sketch Geometry(ISO)
  6
CONTINUOUS_ACAD
 62
     7
370
    18
100
AcDbCircle
 10
121.9666849959759
 20
41.01826591397905
 30
0.0
 40
0.5859540150776763
100
AcDbArc
 50
91.34351121529713
 51
180.0
  0
LINE
  5
3AA
330
246
100
AcDbEntity
  8
Sketch Geometry(ISO)
  6
CONTINUOUS_ACAD
 62
     7
370
    18
100
AcDbLine
 10
121.3807309808982
 20
32.99968051091815
 30
0.0
 11
121.3807309808982
 21
41.01826591397905
 31
0.0
  0
LINE
  5
3AB
330
246
100
AcDbEntity
  8
Sketch Geometry(ISO)
  6
CONTINUOUS_ACAD
 62
     7
370
    18
100
AcDbLine
 10
121.0561519425781
 20
32.99968051091815
 30
0.0
 11
121.3807309808982
 21
32.99968051091815
 31
0.0
  0
LINE
  5
3AC
330
246
100
AcDbEntity
  8
Sketch Geometry(ISO)
  6
CONTINUOUS_ACAD
 62
     7
370
    18
100
AcDbLine
 10
122.698224284294
 20
41.97010024423225
 30
0.0
 11
122.698224284294
 21
41.6040588455903
 31
0.0
  0
LINE
  5
3AD
330
246
100
AcDbEntity
  8
Sketch Geometry(ISO)
  6
CONTINUOUS_ACAD
 62
     7
370
    18
100
AcDbLine
 10
119.3021258490195
 20
41.97010024423225
 30
0.0
 11
122.698224284294
 21
41.97010024423225
 31
0.0
  0
LINE
  5
3AE
330
246
100
AcDbEntity
  8
Sketch Geometry(ISO)
  6
CONTINUOUS_ACAD
 62
     7
370
    18
100
AcDbLine
 10
129.2967718760781
 20
33.13340178117039
 30
0.0
 11
124.3981126085731
 21
33.13340178117039
 31
0.0
  0
ARC
  5
3AF
330
246
100
AcDbEntity
  8
Sketch Geometry(ISO)
  6
CONTINUOUS_ACAD
 62
     7
370
    18
100
AcDbCircle
 10
127.4121233785852
 20
34.05344370007729
 30
0.0
 40
0.565774784779549
100
AcDbArc
 50
183.5630728646947
 51
270.0
  0
LINE
  5
3B0
330
246
100
AcDbEntity
  8
Sketch Geometry(ISO)
  6
CONTINUOUS_ACAD
 62
     7
370
    18
100
AcDbLine
 10
127.4121233785852
 20
33.48766891529775
 30
0.0
 11
129.2967718760781
 21
33.48766891529775
 31
0.0
  0
LINE
  5
3B1
330
246
100
AcDbEntity
  8
Sketch Geometry(ISO)
  6
CONTINUOUS_ACAD
 62
     7
370
    18
100
AcDbLine
 10
124.324815961179
 20
41.72132575674042
 30
0.0
 11
124.324815961179
 21
41.97786402628091
 31
0.0
  0
LINE
  5
3B2
330
246
100
AcDbEntity
  8
Sketch Geometry(ISO)
  6
CONTINUOUS_ACAD
 62
     7
370
    18
100
AcDbLine
 10
124.324815961179
 20
41.97786402628091
 30
0.0
 11
129.0158013944008
 21
41.97786402628091
 31
0.0
  0
LINE
  5
3B3
330
246
100
AcDbEntity
  8
Sketch Geometry(ISO)
  6
CONTINUOUS_ACAD
 62
     7
370
    18
100
AcDbLine
 10
129.0158013944008
 20
41.72132575674042
 30
0.0
 11
126.8474422423256
 21
41.72132575674042
 31
0.0
  0
ARC
  5
3B4
330
246
100
AcDbEntity
  8
Sketch Geometry(ISO)
  6
CONTINUOUS_ACAD
 62
     7
370
    18
100
AcDbCircle
 10
128.6383138931824
 20
37.58682170857503
 30
0.0
 40
4.151700921052971
100
AcDbArc
 50
279.1256196326258
 51
84.78325794661227
  0
ARC
  5
3B5
330
246
100
AcDbEntity
  8
Sketch Geometry(ISO)
  6
CONTINUOUS_ACAD
 62
     7
370
    18
100
AcDbCircle
 10
129.5605390499924
 20
37.56847517638674
 30
0.0
 40
4.442909985920329
100
AcDbArc
 50
266.5964564532917
 51
97.04265920423202
  0
LINE
  5
3B6
330
246
100
AcDbEntity
  8
Sketch Geometry(ISO)
  6
CONTINUOUS_ACAD
 62
     7
370
    18
100
AcDbLine
 10
131.6040728259251
 20
28.81328749047306
 30
0.0
 11
136.7383592365332
 21
28.81328749047306
 31
0.0
  0
LINE
  5
3B7
330
246
100
AcDbEntity
  8
Sketch Geometry(ISO)
  6
CONTINUOUS_ACAD
 62
     7
370
    18
100
AcDbLine
 10
130.6040529664875
 20
29.85706536384081
 30
0.0
 11
131.6040728259251
 21
28.81328749047306
 31
0.0
  0
LINE
  5
3B8
330
246
100
AcDbEntity
  8
Sketch Geometry(ISO)
  6
CONTINUOUS_ACAD
 62
     7
370
    18
100
AcDbLine
 10
136.7383592365332
 20
28.81328749047306
 30
0.0
 11
135.9038086384247
 21
29.68435564006092
 31
0.0
  0
LINE
  5
3B9
330
246
100
AcDbEntity
  8
Sketch Geometry(ISO)
  6
CONTINUOUS_ACAD
 62
     7
370
    18
100
AcDbLine
 10
90.12021436987984
 20
29.83952031839042
 30
0.0
 11
85.12442361902841
 21
29.83952031839042
 31
0.0
  0
LINE
  5
3BA
330
246
100
AcDbEntity
  8
Sketch Geometry(ISO)
  6
CONTINUOUS_ACAD
 62
     7
370
    18
100
AcDbLine
 10
88.47384473046572
 20
36.45263041054171
 30
0.0
 11
88.47384473046572
 21
40.668399985546
 31
0.0
  0
LINE
  5
3BB
330
246
100
AcDbEntity
  8
Sketch Geometry(ISO)
  6
CONTINUOUS_ACAD
 62
     7
370
    18
100
AcDbLine
 10
90.12021436987984
 20
30.31758642010827
 30
0.0
 11
90.12021436987984
 21
29.83952031839042
 31
0.0
  0
LINE
  5
3BC
330
246
100
AcDbEntity
  8
Sketch Geometry(ISO)
  6
CONTINUOUS_ACAD
 62
     7
370
    18
100
AcDbLine
 10
89.57055771862743
 20
30.31758642010827
 30
0.0
 11
90.12021436987984
 21
30.31758642010827
 31
0.0
  0
LINE
  5
3BD
330
246
100
AcDbEntity
  8
Sketch Geometry(ISO)
  6
CONTINUOUS_ACAD
 62
     7
370
    18
100
AcDbLine
 10
88.47384473046572
 20
31.28457785877812
 30
0.0
 11
88.47384473046572
 21
35.72725452681896
 31
0.0
  0
ARC
  5
3BE
330
246
100
AcDbEntity
  8
Sketch Geometry(ISO)
  6
CONTINUOUS_ACAD
 62
     7
370
    18
100
AcDbCircle
 10
89.57055771862744
 20
31.42300045759145
 30
0.0
 40
1.105414037483174
100
AcDbArc
 50
187.1935992801294
 51
270.0
  0
LINE
  5
3BF
330
246
100
AcDbEntity
  8
Sketch Geometry(ISO)
  6
CONTINUOUS_ACAD
 62
     7
370
    18
100
AcDbLine
 10
86.72403973508806
 20
40.77781686597326
 30
0.0
 11
86.72403973508808
 21
31.11571726131325
 31
0.0
  0
ARC
  5
3C0
330
246
100
AcDbEntity
  8
Sketch Geometry(ISO)
  6
CONTINUOUS_ACAD
 62
     7
370
    18
100
AcDbCircle
 10
85.89998462560147
 20
31.14206255560418
 30
0.0
 40
0.8244761354959045
100
AcDbArc
 50
270.0
 51
358.1688600767236
  0
LINE
  5
3C1
330
246
100
AcDbEntity
  8
Sketch Geometry(ISO)
  6
CONTINUOUS_ACAD
 62
     7
370
    18
100
AcDbLine
 10
85.12442361902841
 20
30.31758642010828
 30
0.0
 11
85.89998462560147
 21
30.31758642010828
 31
0.0
  0
LINE
  5
3C2
330
246
100
AcDbEntity
  8
Sketch Geometry(ISO)
  6
CONTINUOUS_ACAD
 62
     7
370
    18
100
AcDbLine
 10
85.12442361902841
 20
29.83952031839042
 30
0.0
 11
85.12442361902841
 21
30.31758642010828
 31
0.0
  0
LINE
  5
3C3
330
246
100
AcDbEntity
  8
Sketch Geometry(ISO)
  6
CONTINUOUS_ACAD
 62
     7
370
    18
100
AcDbLine
 10
37.99999999999946
 20
9.999999999999875
 30
0.0
 11
37.99999999999943
 21
32.00000000000005
 31
0.0
  0
LINE
  5
3C4
330
246
100
AcDbEntity
  8
Sketch Geometry(ISO)
  6
Continuous
 62
     7
370
    25
100
AcDbLine
 10
9.999999999999998
 20
10.0
 30
0.0
 11
200.0
 21
10.00000000000023
 31
0.0
  0
LINE
  5
3C5
330
246
100
AcDbEntity
  8
Sketch Geometry(ISO)
  6
CONTINUOUS_ACAD
 62
     7
370
    25
100
AcDbLine
 10
9.999999999999415
 20
45.00000000000001
 30
0.0
 11
199.9999999999994
 21
45.00000000000023
 31
0.0
  0
LINE
  5
3C6
330
246
100
AcDbEntity
  8
Sketch Geometry(ISO)
  6
CONTINUOUS_ACAD
 62
     7
370
    25
100
AcDbLine
 10
80.0
 20
10.00000000000009
 30
0.0
 11
80.0
 21
45.0
 31
0.0
  0
LINE
  5
3C7
330
246
100
AcDbEntity
  8
Sketch Geometry(ISO)
  6
CONTINUOUS_ACAD
 62
     7
370
    25
100
AcDbLine
 10
9.999999999999458
 20
10.0
 30
0.0
 11
9.999999999999415
 21
45.00000000000001
 31
0.0
  0
LINE
  5
3C8
330
246
100
AcDbEntity
  8
Sketch Geometry(ISO)
  6
CONTINUOUS_ACAD
370
    18
100
AcDbLine
 10
9.999999999999763
 20
15.5
 30
0.0
 11
80.0
 21
15.50000000000009
 31
0.0
  0
LINE
  5
3C9
330
246
100
AcDbEntity
  8
Sketch Geometry(ISO)
  6
CONTINUOUS_ACAD
370
    18
100
AcDbLine
 10
9.999999999999536
 20
21.00000000000001
 30
0.0
 11
79.99999999999954
 21
21.00000000000009
 31
0.0
  0
LINE
  5
3CA
330
246
100
AcDbEntity
  8
Sketch Geometry(ISO)
  6
CONTINUOUS_ACAD
370
    18
100
AcDbLine
 10
9.99999999999931
 20
26.50000000000001
 30
0.0
 11
79.9999999999994
 21
26.50000000000009
 31
0.0
  0
LINE
  5
3CB
330
246
100
AcDbEntity
  8
Sketch Geometry(ISO)
  6
CONTINUOUS_ACAD
370
    18
100
AcDbLine
 10
9.999999999999083
 20
32.00000000000001
 30
0.0
 11
79.99999999999909
 21
32.00000000000009
 31
0.0
  0
ARC
  5
3CC
330
246
100
AcDbEntity
  8
Sketch Geometry(ISO)
  6
CONTINUOUS_ACAD
 62
     7
370
    18
100
AcDbCircle
 10
162.0862808614568
 20
35.37085123246108
 30
0.0
 40
2.384492125826143
100
AcDbArc
 50
274.3088400476872
 51
5.81246571350027
  0
ARC
  5
3CD
330
246
100
AcDbEntity
  8
Sketch Geometry(ISO)
  6
CONTINUOUS_ACAD
 62
     7
370
    18
100
AcDbCircle
 10
161.4963816346599
 20
35.3735633764681
 30
0.0
 40
2.050774512687569
100
AcDbArc
 50
264.6808863508768
 51
333.9597539938773
  0
ARC
  5
3CE
330
246
100
AcDbEntity
  8
Sketch Geometry(ISO)
  6
CONTINUOUS_ACAD
 62
     7
370
    18
100
AcDbCircle
 10
161.3299597988683
 20
34.83320672820006
 30
0.0
 40
2.041002712150211
100
AcDbArc
 50
349.8425595137373
 51
62.26408095374138
  0
ARC
  5
3CF
330
246
100
AcDbEntity
  8
Sketch Geometry(ISO)
  6
CONTINUOUS_ACAD
 62
     7
370
    18
100
AcDbCircle
 10
161.8140380420993
 20
39.47165532283664
 30
0.0
 40
6.494263125210721
100
AcDbArc
 50
252.1918822162923
 51
273.9856636166399
  0
ARC
  5
3D0
330
246
100
AcDbEntity
  8
Sketch Geometry(ISO)
  6
CONTINUOUS_ACAD
 62
     7
370
    18
100
AcDbCircle
 10
161.5364623132012
 20
35.80405851622432
 30
0.0
 40
2.483131455671091
100
AcDbArc
 50
190.0296489176694
 51
264.6808863508766
  0
ARC
  5
3D1
330
246
100
AcDbEntity
  8
Sketch Geometry(ISO)
  6
CONTINUOUS_ACAD
 62
     7
370
    18
100
AcDbCircle
 10
159.6330425367475
 20
32.86491159904763
 30
0.0
 40
0.4663090360465238
100
AcDbArc
 50
65.30020117333158
 51
116.0324066010488
  0
LINE
  5
3D2
330
246
100
AcDbEntity
  8
Sketch Geometry(ISO)
  6
CONTINUOUS_ACAD
 62
     7
370
    18
100
AcDbLine
 10
159.1500680314156
 20
33.10296185342283
 30
0.0
 11
159.3735558034684
 21
33.10296185342283
 31
0.0
  0
LINE
  5
3D3
330
246
100
AcDbEntity
  8
Sketch Geometry(ISO)
  6
CONTINUOUS_ACAD
 62
     7
370
    18
100
AcDbLine
 10
146.8056977643305
 20
29.8570653638408
 30
0.0
 11
145.8056779048929
 21
28.81328749047306
 31
0.0
  0
LINE
  5
3D4
330
246
100
AcDbEntity
  8
Sketch Geometry(ISO)
  6
CONTINUOUS_ACAD
 62
     7
370
    18
100
AcDbLine
 10
145.8056779048929
 20
28.81328749047306
 30
0.0
 11
140.6713914942848
 21
28.81328749047306
 31
0.0
  0
LINE
  5
3D5
330
246
100
AcDbEntity
  8
Sketch Geometry(ISO)
  6
CONTINUOUS_ACAD
 62
     1
370
    18
100
AcDbLine
 10
145.8056779048926
 20
31.51502338921306
 30
0.0
 11
140.6713914942846
 21
31.51502338921296
 31
0.0
  0
ARC
  5
3D6
330
246
100
AcDbEntity
  8
Sketch Geometry(ISO)
  6
CONTINUOUS_ACAD
 62
     7
370
    18
100
AcDbCircle
 10
142.2102615958223
 20
34.84559842129498
 30
0.0
 40
1.151412893848158
100
AcDbArc
 50
270.0
 51
332.5890929486235
  0
LINE
  5
3D7
330
246
100
AcDbEntity
  8
Sketch Geometry(ISO)
  6
CONTINUOUS_ACAD
 62
     7
370
    18
100
AcDbLine
 10
140.6713914942848
 20
28.81328749047306
 30
0.0
 11
141.5059420923931
 21
29.68435564006092
 31
0.0
  0
LINE
  5
3D8
330
246
100
AcDbEntity
  8
Sketch Geometry(ISO)
  6
CONTINUOUS_ACAD
 62
     7
370
    18
100
AcDbLine
 10
139.6271108476878
 20
33.69418552744682
 30
0.0
 11
142.2102615958223
 21
33.69418552744684
 31
0.0
  0
LINE
  5
3D9
330
246
100
AcDbEntity
  8
Sketch Geometry(ISO)
  6
CONTINUOUS_ACAD
 62
     1
370
    18
100
AcDbLine
 10
140.6713914942846
 20
31.51502338921296
 30
0.0
 11
141.5059420923931
 21
30.64395523962508
 31
0.0
  0
LINE
  5
3DA
330
246
100
AcDbEntity
  8
Sketch Geometry(ISO)
  6
CONTINUOUS_ACAD
 62
     7
370
    18
100
AcDbLine
 10
143.6718860037359
 20
33.11831096892745
 30
0.0
 11
136.1097437925176
 21
33.11831096892745
 31
0.0
  0
LINE
  5
3DB
330
246
100
AcDbEntity
  8
Sketch Geometry(ISO)
  6
CONTINUOUS_ACAD
 62
     7
370
    18
100
AcDbLine
 10
130.6040529664875
 20
29.85706536384081
 30
0.0
 11
146.8056977643305
 21
29.8570653638408
 31
0.0
  0
LINE
  5
3DC
330
246
100
AcDbEntity
  8
Sketch Geometry(ISO)
  6
DOUBLE_DASH_TRIPLE_DOT
 62
     1
370
    18
100
AcDbLine
 10
130.6040529664875
 20
30.47124551584519
 30
0.0
 11
146.8056977643303
 21
30.47124551584519
 31
0.0
  0
LINE
  5
3DD
330
246
100
AcDbEntity
  8
Sketch Geometry(ISO)
  6
CONTINUOUS_ACAD
 62
     7
370
    18
100
AcDbLine
 10
135.9038086384247
 20
29.68435564006092
 30
0.0
 11
141.5059420923931
 21
29.68435564006092
 31
0.0
  0
LINE
  5
3DE
330
246
100
AcDbEntity
  8
Sketch Geometry(ISO)
  6
DOUBLE_DASH_TRIPLE_DOT
 62
     1
370
    18
100
AcDbLine
 10
135.9038086384247
 20
30.64395523962508
 30
0.0
 11
141.5059420923931
 21
30.64395523962508
 31
0.0
  0
ARC
  5
3DF
330
246
100
AcDbEntity
  8
Sketch Geometry(ISO)
  6
CONTINUOUS_ACAD
 62
     7
370
    18
100
AcDbCircle
 10
139.6271108476876
 20
34.27430679784134
 30
0.0
 40
0.5801212703944943
100
AcDbArc
 50
174.4236434720566
 51
270.0000000000193
  0
ARC
  5
3E0
330
246
100
AcDbEntity
  8
Sketch Geometry(ISO)
  6
CONTINUOUS_ACAD
 62
     7
370
    18
100
AcDbCircle
 10
137.1846438148267
 20
34.12106767001727
 30
0.0
 40
0.6238918599586445
100
AcDbArc
 50
270.0
 51
3.943823415883249
  0
LINE
  5
3E1
330
246
100
AcDbEntity
  8
Sketch Geometry(ISO)
  6
CONTINUOUS_ACAD
 62
     1
370
    18
100
AcDbLine
 10
130.6040529664875
 20
30.47124551584519
 30
0.0
 11
131.6040728259251
 21
31.51502338921294
 31
0.0
  0
LINE
  5
3E2
330
246
100
AcDbEntity
  8
Sketch Geometry(ISO)
  6
CONTINUOUS_ACAD
 62
     1
370
    18
100
AcDbLine
 10
131.6040728259251
 20
31.51502338921294
 30
0.0
 11
136.7383592365332
 21
31.51502338921294
 31
0.0
  0
LINE
  5
3E3
330
246
100
AcDbEntity
  8
Sketch Geometry(ISO)
  6
CONTINUOUS_ACAD
 62
     1
370
    18
100
AcDbLine
 10
136.7383592365332
 20
31.51502338921294
 30
0.0
 11
135.9038086384247
 21
30.64395523962508
 31
0.0
  0
LINE
  5
3E4
330
246
100
AcDbEntity
  8
Sketch Geometry(ISO)
  6
CONTINUOUS_ACAD
 62
     7
370
    18
100
AcDbLine
 10
136.1097437925176
 20
33.11831096892745
 30
0.0
 11
136.1097437925176
 21
33.49717581005862
 31
0.0
  0
LINE
  5
3E5
330
246
100
AcDbEntity
  8
Sketch Geometry(ISO)
  6
CONTINUOUS_ACAD
 62
     7
370
    18
100
AcDbLine
 10
136.1097437925176
 20
33.49717581005862
 30
0.0
 11
137.1846438148267
 21
33.49717581005863
 31
0.0
  0
ARC
  5
3E6
330
246
100
AcDbEntity
  8
Sketch Geometry(ISO)
  6
CONTINUOUS_ACAD
 62
     7
370
    18
100
AcDbCircle
 10
137.0604953128987
 20
40.91286367398367
 30
0.0
 40
0.7469887463803613
100
AcDbArc
 50
358.065382440146
 51
72.30019059474345
  0
LINE
  5
3E7
330
246
100
AcDbEntity
  8
Sketch Geometry(ISO)
  6
CONTINUOUS_ACAD
 62
     7
370
    18
100
AcDbLine
 10
136.3821265002112
 20
41.9671276919827
 30
0.0
 11
143.1389054317227
 21
41.9671276919827
 31
0.0
  0
LINE
  5
3E8
330
246
100
AcDbEntity
  8
Sketch Geometry(ISO)
  6
CONTINUOUS_ACAD
 62
     7
370
    18
100
AcDbLine
 10
139.0497349527908
 20
41.37756450558708
 30
0.0
 11
142.0200353002834
 21
41.37756450558707
 31
0.0
  0
LINE
  5
3E9
330
246
100
AcDbEntity
  8
Sketch Geometry(ISO)
  6
CONTINUOUS_ACAD
 62
     7
370
    18
100
AcDbLine
 10
142.3185929658183
 20
38.66729104712353
 30
0.0
 11
142.3185929658183
 21
39.05175935219841
 31
0.0
  0
LINE
  5
3EA
330
246
100
AcDbEntity
  8
Sketch Geometry(ISO)
  6
CONTINUOUS_ACAD
 62
     7
370
    18
100
AcDbLine
 10
139.0497349527908
 20
38.0076908237872
 30
0.0
 11
141.6416132286902
 21
38.0076908237872
 31
0.0
  0
LINE
  5
3EB
330
246
100
AcDbEntity
  8
Sketch Geometry(ISO)
  6
CONTINUOUS_ACAD
 62
     7
370
    18
100
AcDbLine
 10
141.7062552925825
 20
37.42891370477666
 30
0.0
 11
139.0497349527908
 21
37.42891370477663
 31
0.0
  0
LINE
  5
3EC
330
246
100
AcDbEntity
  8
Sketch Geometry(ISO)
  6
CONTINUOUS_ACAD
 62
     7
370
    18
100
AcDbLine
 10
139.0497349527908
 20
41.37756450558708
 30
0.0
 11
139.0497349527908
 21
38.0076908237872
 31
0.0
  0
LINE
  5
3ED
330
246
100
AcDbEntity
  8
Sketch Geometry(ISO)
  6
CONTINUOUS_ACAD
 62
     7
370
    18
100
AcDbLine
 10
137.2876022207036
 20
41.62449183506653
 30
0.0
 11
136.3821265002111
 21
41.62449183506653
 31
0.0
  0
LINE
  5
3EE
330
246
100
AcDbEntity
  8
Sketch Geometry(ISO)
  6
CONTINUOUS_ACAD
 62
     7
370
    18
100
AcDbLine
 10
136.3821265002111
 20
41.62449183506653
 30
0.0
 11
136.3821265002112
 21
41.9671276919827
 31
0.0
  0
LINE
  5
3EF
330
246
100
AcDbEntity
  8
Sketch Geometry(ISO)
  6
CONTINUOUS_ACAD
 62
     7
370
    18
100
AcDbLine
 10
139.0497349527908
 20
37.42891370477663
 30
0.0
 11
139.049734952791
 21
34.33067846054691
 31
0.0
  0
LINE
  5
3F0
330
246
100
AcDbEntity
  8
Sketch Geometry(ISO)
  6
CONTINUOUS_ACAD
 62
     7
370
    18
100
AcDbLine
 10
143.5354946612489
 20
35.31572704748827
 30
0.0
 11
143.2324027890558
 21
34.31552386690196
 31
0.0
  0
LINE
  5
3F1
330
246
100
AcDbEntity
  8
Sketch Geometry(ISO)
  6
CONTINUOUS_ACAD
 62
     7
370
    18
100
AcDbLine
 10
147.2953329304226
 20
40.96841244700324
 30
0.0
 11
147.2953329304226
 21
34.19004908333223
 31
0.0
  0
LINE
  5
3F2
330
246
100
AcDbEntity
  8
Sketch Geometry(ISO)
  6
CONTINUOUS_ACAD
 62
     7
370
    18
100
AcDbLine
 10
142.6590501031463
 20
36.2940566086772
 30
0.0
 11
142.3185929658183
 21
36.29405660867749
 31
0.0
  0
LINE
  5
3F3
330
246
100
AcDbEntity
  8
Sketch Geometry(ISO)
  6
CONTINUOUS_ACAD
 62
     7
370
    18
100
AcDbLine
 10
142.6590501031459
 20
39.05175935219841
 30
0.0
 11
142.6590501031463
 21
36.2940566086772
 31
0.0
  0
LINE
  5
3F4
330
246
100
AcDbEntity
  8
Sketch Geometry(ISO)
  6
CONTINUOUS_ACAD
 62
     7
370
    18
100
AcDbLine
 10
142.3185929658183
 20
36.29405660867749
 30
0.0
 11
142.3185929658183
 21
36.74531877251035
 31
0.0
  0
ARC
  5
3F5
330
246
100
AcDbEntity
  8
Sketch Geometry(ISO)
  6
CONTINUOUS_ACAD
 62
     7
370
    18
100
AcDbCircle
 10
141.6308519576318
 20
36.74531877251065
 30
0.0
 40
0.6877410081865026
100
AcDbArc
 50
0.0
 51
83.70548581296571
  0
ARC
  5
3F6
330
246
100
AcDbEntity
  8
Sketch Geometry(ISO)
  6
CONTINUOUS_ACAD
 62
     7
370
    18
100
AcDbCircle
 10
141.6416132286902
 20
38.68489952346644
 30
0.0
 40
0.6772086996792471
100
AcDbArc
 50
270.0
 51
1.489947035782676
  0
LINE
  5
3F7
330
246
100
AcDbEntity
  8
Sketch Geometry(ISO)
  6
CONTINUOUS_ACAD
 62
     7
370
    18
100
AcDbLine
 10
143.5354946612489
 20
35.31572704748827
 30
0.0
 11
143.8537411270517
 21
35.31572704748831
 31
0.0
  0
LINE
  5
3F8
330
246
100
AcDbEntity
  8
Sketch Geometry(ISO)
  6
CONTINUOUS_ACAD
 62
     7
370
    18
100
AcDbLine
 10
137.807058276799
 20
40.93808128987491
 30
0.0
 11
137.807058276799
 21
34.1639779304495
 31
0.0
  0
ARC
  5
3F9
330
246
100
AcDbEntity
  8
Sketch Geometry(ISO)
  6
CONTINUOUS_ACAD
 62
     7
370
    18
100
AcDbCircle
 10
146.5376590263892
 20
34.23000561713436
 30
0.0
 40
0.7587267422772337
100
AcDbArc
 50
283.7579797119083
 51
356.9812580249066
  0
LINE
  5
3FA
330
246
100
AcDbEntity
  8
Sketch Geometry(ISO)
  6
CONTINUOUS_ACAD
 62
     7
370
    18
100
AcDbLine
 10
145.9568677432127
 20
33.49304753618342
 30
0.0
 11
146.718100308716
 21
33.49304753618342
 31
0.0
  0
LINE
  5
3FB
330
246
100
AcDbEntity
  8
Sketch Geometry(ISO)
  6
CONTINUOUS_ACAD
 62
     7
370
    18
100
AcDbLine
 10
145.9568677432127
 20
33.11621294359638
 30
0.0
 11
145.9568677432127
 21
33.49304753618342
 31
0.0
  0
LINE
  5
3FC
330
246
100
AcDbEntity
  8
Sketch Geometry(ISO)
  6
CONTINUOUS_ACAD
 62
     7
370
    18
100
AcDbLine
 10
143.8537411270517
 20
35.31572704748831
 30
0.0
 11
143.6718860037359
 21
33.11831096892745
 31
0.0
  0
LINE
  5
3FD
330
246
100
AcDbEntity
  8
Sketch Geometry(ISO)
  6
CONTINUOUS_ACAD
 62
     1
370
    18
100
AcDbLine
 10
148.6603457308655
 20
30.36864548668034
 30
0.0
 11
148.6603457308655
 21
29.85706536384079
 31
0.0
  0
LINE
  5
3FE
330
246
100
AcDbEntity
  8
Sketch Geometry(ISO)
  6
CONTINUOUS_ACAD
 62
     1
370
    18
100
AcDbLine
 10
146.8056977643303
 20
30.47124551584519
 30
0.0
 11
145.8056779048926
 21
31.51502338921306
 31
0.0
  0
LINE
  5
3FF
330
246
100
AcDbEntity
  8
Sketch Geometry(ISO)
  6
CONTINUOUS_ACAD
 62
     7
370
    18
100
AcDbLine
 10
143.1389054317227
 20
41.9671276919827
 30
0.0
 11
143.3581923747342
 21
39.92501798480765
 31
0.0
  0
ARC
  5
400
330
246
100
AcDbEntity
  8
Sketch Geometry(ISO)
  6
CONTINUOUS_ACAD
 62
     7
370
    18
100
AcDbCircle
 10
142.1252154320802
 20
40.68068614017568
 30
0.0
 40
0.7047711091576076
100
AcDbArc
 50
7.670400320451732
 51
98.58289354625499
  0
LINE
  5
401
330
246
100
AcDbEntity
  8
Sketch Geometry(ISO)
  6
CONTINUOUS_ACAD
 62
     7
370
    18
100
AcDbLine
 10
143.0044582798257
 20
39.88703311649284
 30
0.0
 11
142.8236804511461
 21
40.77475490993709
 31
0.0
  0
LINE
  5
402
330
246
100
AcDbEntity
  8
Sketch Geometry(ISO)
  6
CONTINUOUS_ACAD
 62
     7
370
    18
100
AcDbLine
 10
143.3581923747342
 20
39.92501798480765
 30
0.0
 11
143.0044582798257
 21
39.88703311649284
 31
0.0
  0
LINE
  5
403
330
246
100
AcDbEntity
  8
Sketch Geometry(ISO)
  6
CONTINUOUS_ACAD
 62
     7
370
    18
100
AcDbLine
 10
142.3185929658183
 20
39.05175935219841
 30
0.0
 11
142.6590501031459
 21
39.05175935219841
 31
0.0
  0
LINE
  5
404
330
246
100
AcDbEntity
  8
Sketch Geometry(ISO)
  6
CONTINUOUS_ACAD
 62
     1
370
    18
100
AcDbLine
 10
175.6295162313388
 20
29.85706536384079
 30
0.0
 11
175.6295162313388
 21
30.36864548668034
 31
0.0
  0
LINE
  5
405
330
246
100
AcDbEntity
  8
Sketch Geometry(ISO)
  6
CONTINUOUS_ACAD
 62
     1
370
    18
100
AcDbLine
 10
148.6603457308655
 20
29.85706536384079
 30
0.0
 11
175.6295162313388
 21
29.85706536384079
 31
0.0
  0
LINE
  5
406
330
246
100
AcDbEntity
  8
Sketch Geometry(ISO)
  6
CONTINUOUS_ACAD
 62
     1
370
    18
100
AcDbLine
 10
175.6295162313388
 20
30.36864548668034
 30
0.0
 11
148.6603457308655
 21
30.36864548668034
 31
0.0
  0
LINE
  5
407
330
246
100
AcDbEntity
  8
Sketch Geometry(ISO)
  6
CONTINUOUS_ACAD
 62
     7
370
    18
100
AcDbLine
 10
159.3735558034684
 20
33.10296185342283
 30
0.0
 11
159.4283890898879
 21
33.28391169903226
 31
0.0
  0
ARC
  5
408
330
246
100
AcDbEntity
  8
Sketch Geometry(ISO)
  6
CONTINUOUS_ACAD
 62
     7
370
    18
100
AcDbCircle
 10
149.2317352488414
 20
34.23266573894872
 30
0.0
 40
0.7555292194652674
100
AcDbArc
 50
203.8678355571255
 51
258.2205207993905
  0
LINE
  5
409
330
246
100
AcDbEntity
  8
Sketch Geometry(ISO)
  6
CONTINUOUS_ACAD
 62
     7
370
    18
100
AcDbLine
 10
149.0774973948495
 20
33.49304753618342
 30
0.0
 11
149.9136308709488
 21
33.49304753618342
 31
0.0
  0
LINE
  5
40A
330
246
100
AcDbEntity
  8
Sketch Geometry(ISO)
  6
CONTINUOUS_ACAD
 62
     7
370
    18
100
AcDbLine
 10
149.986195617437
 20
41.70739500424215
 30
0.0
 11
148.540817945555
 21
41.70739500424215
 31
0.0
  0
LINE
  5
40B
330
246
100
AcDbEntity
  8
Sketch Geometry(ISO)
  6
CONTINUOUS_ACAD
 62
     7
370
    18
100
AcDbLine
 10
148.540817945555
 20
37.14319332318921
 30
0.0
 11
148.540817945555
 21
41.70739500424215
 31
0.0
  0
LINE
  5
40C
330
246
100
AcDbEntity
  8
Sketch Geometry(ISO)
  6
CONTINUOUS_ACAD
 62
     7
370
    18
100
AcDbLine
 10
148.540817945555
 20
33.92695724792318
 30
0.0
 11
148.540817945555
 21
36.82939443260041
 31
0.0
  0
LINE
  5
40D
330
246
100
AcDbEntity
  8
Sketch Geometry(ISO)
  6
CONTINUOUS_ACAD
 62
     7
370
    18
100
AcDbLine
 10
145.9268370495981
 20
41.98416946988195
 30
0.0
 11
149.986195617437
 21
41.98416946988195
 31
0.0
  0
LINE
  5
40E
330
246
100
AcDbEntity
  8
Sketch Geometry(ISO)
  6
CONTINUOUS_ACAD
 62
     7
370
    18
100
AcDbLine
 10
149.9136308709488
 20
33.11621294359638
 30
0.0
 11
145.9568677432127
 21
33.11621294359638
 31
0.0
  0
LINE
  5
40F
330
246
100
AcDbEntity
  8
Sketch Geometry(ISO)
  6
CONTINUOUS_ACAD
 62
     7
370
    18
100
AcDbLine
 10
149.9136308709488
 20
33.49304753618342
 30
0.0
 11
149.9136308709488
 21
33.11621294359638
 31
0.0
  0
ARC
  5
410
330
246
100
AcDbEntity
  8
Sketch Geometry(ISO)
  6
CONTINUOUS_ACAD
 62
     7
370
    18
100
AcDbCircle
 10
146.3368756844528
 20
40.7212546308712
 30
0.0
 40
0.9898117388812394
100
AcDbArc
 50
14.45986954067649
 51
85.06360990480411
  0
LINE
  5
411
330
246
100
AcDbEntity
  8
Sketch Geometry(ISO)
  6
CONTINUOUS_ACAD
 62
     7
370
    18
100
AcDbLine
 10
146.4220486991635
 20
41.70739500424215
 30
0.0
 11
145.9268370495981
 21
41.70739500424215
 31
0.0
  0
LINE
  5
412
330
246
100
AcDbEntity
  8
Sketch Geometry(ISO)
  6
CONTINUOUS_ACAD
 62
     7
370
    18
100
AcDbLine
 10
145.9268370495981
 20
41.70739500424215
 30
0.0
 11
145.9268370495981
 21
41.98416946988195
 31
0.0
  0
ARC
  5
413
330
246
100
AcDbEntity
  8
Sketch Geometry(ISO)
  6
CONTINUOUS_ACAD
 62
     7
370
    18
100
AcDbCircle
 10
150.5171197140356
 20
39.12637848801547
 30
0.0
 40
2.906690505091034
100
AcDbArc
 50
26.73269879166254
 51
100.5244953658555
  0
ARC
  5
414
330
246
100
AcDbEntity
  8
Sketch Geometry(ISO)
  6
CONTINUOUS_ACAD
 62
     7
370
    18
100
AcDbCircle
 10
150.957289585664
 20
39.53199939728282
 30
0.0
 40
2.336888734327936
100
AcDbArc
 50
282.9642598519832
 51
22.70193037844848
  0
ARC
  5
415
330
246
100
AcDbEntity
  8
Sketch Geometry(ISO)
  6
CONTINUOUS_ACAD
 62
     7
370
    18
100
AcDbCircle
 10
149.7024653346136
 20
39.41099089891019
 30
0.0
 40
2.313865745538523
100
AcDbArc
 50
281.4522871515732
 51
82.95656411023186
  0
LINE
  5
416
330
246
100
AcDbEntity
  8
Sketch Geometry(ISO)
  6
CONTINUOUS_ACAD
 62
     7
370
    18
100
AcDbLine
 10
150.1618876282939
 20
36.82939443260041
 30
0.0
 11
148.540817945555
 21
36.82939443260041
 31
0.0
  0
LINE
  5
417
330
246
100
AcDbEntity
  8
Sketch Geometry(ISO)
  6
CONTINUOUS_ACAD
 62
     7
370
    18
100
AcDbLine
 10
148.540817945555
 20
37.14319332318921
 30
0.0
 11
150.1618876282939
 21
37.14319332318921
 31
0.0
  0
ARC
  5
418
330
246
100
AcDbEntity
  8
Sketch Geometry(ISO)
  6
CONTINUOUS_ACAD
 62
     7
370
    18
100
AcDbCircle
 10
145.0574978337099
 20
29.20567244294297
 30
0.0
 40
9.174744255326107
100
AcDbArc
 50
40.13297681672546
 51
56.19609361297648
  0
ARC
  5
419
330
246
100
AcDbEntity
  8
Sketch Geometry(ISO)
  6
CONTINUOUS_ACAD
 62
     7
370
    18
100
AcDbCircle
 10
140.9828681073053
 20
24.27141303148241
 30
0.0
 40
16.6969331544594
100
AcDbArc
 50
43.29080613025119
 51
51.03987823246259
  0
ARC
  5
41A
330
246
100
AcDbEntity
  8
Sketch Geometry(ISO)
  6
CONTINUOUS_ACAD
 62
     7
370
    18
100
AcDbCircle
 10
144.6020344191325
 20
26.32137869055188
 30
0.0
 40
12.69556206325385
100
AcDbArc
 50
40.70940330773501
 51
47.76115907009479
  0
ARC
  5
41B
330
246
100
AcDbEntity
  8
Sketch Geometry(ISO)
  6
CONTINUOUS_ACAD
 62
     7
370
    18
100
AcDbCircle
 10
158.8762514677249
 20
40.90690879441194
 30
0.0
 40
8.932670134752644
100
AcDbArc
 50
220.3838915613148
 51
231.5920830405884
  0
LINE
  5
41C
330
246
100
AcDbEntity
  8
Sketch Geometry(ISO)
  6
CONTINUOUS_ACAD
 62
     7
370
    18
100
AcDbLine
 10
158.7827946941462
 20
35.37160189399552
 30
0.0
 11
159.091278660378
 21
35.37160189399552
 31
0.0
  0
LINE
  5
41D
330
246
100
AcDbEntity
  8
Sketch Geometry(ISO)
  6
CONTINUOUS_ACAD
 62
     7
370
    18
100
AcDbLine
 10
158.7827946941462
 20
35.37160189399552
 30
0.0
 11
159.1500680314156
 21
33.10296185342283
 31
0.0
  0
ARC
  5
41E
330
246
100
AcDbEntity
  8
Sketch Geometry(ISO)
  6
CONTINUOUS_ACAD
 62
     7
370
    18
100
AcDbCircle
 10
157.1492256200603
 20
37.11724892920301
 30
0.0
 40
3.856864382510258
100
AcDbArc
 50
220.7094033077351
 51
243.4327312077848
  0
ARC
  5
41F
330
246
100
AcDbEntity
  8
Sketch Geometry(ISO)
  6
CONTINUOUS_ACAD
 62
     7
370
    18
100
AcDbCircle
 10
155.772891204607
 20
36.50036177452046
 30
0.0
 40
3.564823358415056
100
AcDbArc
 50
226.6714173869075
 51
259.2817293774281
  0
ARC
  5
420
330
246
100
AcDbEntity
  8
Sketch Geometry(ISO)
  6
CONTINUOUS_ACAD
 62
     7
370
    18
100
AcDbCircle
 10
156.836788809244
 20
35.97495469715656
 30
0.0
 40
2.705366392259709
100
AcDbArc
 50
238.5251126944697
 51
270.0
  0
LINE
  5
421
330
246
100
AcDbEntity
  8
Sketch Geometry(ISO)
  6
CONTINUOUS_ACAD
 62
     7
370
    18
100
AcDbLine
 10
156.836788809244
 20
32.99773196157085
 30
0.0
 11
155.109905556091
 21
32.99773196157084
 31
0.0
  0
LINE
  5
422
330
246
100
AcDbEntity
  8
Sketch Geometry(ISO)
  6
CONTINUOUS_ACAD
 62
     7
370
    18
100
AcDbLine
 10
156.836788809244
 20
33.26958830489685
 30
0.0
 11
156.836788809244
 21
32.99773196157085
 31
0.0
  0
LINE
  5
423
330
246
100
AcDbEntity
  8
Sketch Geometry(ISO)
  6
CONTINUOUS_ACAD
 62
     7
370
    18
100
AcDbLine
 10
155.109905556091
 20
32.99773196157084
 30
0.0
 11
155.109905556091
 21
32.99968051091815
 31
0.0
  0
ARC
  5
424
330
246
100
AcDbEntity
  8
Sketch Geometry(ISO)
  6
CONTINUOUS_ACAD
 62
     7
370
    18
100
AcDbCircle
 10
161.4701380824508
 20
38.62456231685784
 30
0.0
 40
3.592344269332347
100
AcDbArc
 50
62.25220845887818
 51
110.8096881097972
  0
LINE
  5
425
330
246
100
AcDbEntity
  8
Sketch Geometry(ISO)
  6
CONTINUOUS_ACAD
 62
     7
370
    18
100
AcDbLine
 10
163.5697074490312
 20
41.96446463385914
 30
0.0
 11
163.4020199525485
 21
41.8038070543676
 31
0.0
  0
LINE
  5
426
330
246
100
AcDbEntity
  8
Sketch Geometry(ISO)
  6
CONTINUOUS_ACAD
 62
     7
370
    18
100
AcDbLine
 10
163.5697074490312
 20
41.96446463385914
 30
0.0
 11
163.7996543556428
 21
41.96446463385914
 31
0.0
  0
LINE
  5
427
330
246
100
AcDbEntity
  8
Sketch Geometry(ISO)
  6
CONTINUOUS_ACAD
 62
     7
370
    18
100
AcDbLine
 10
163.4020199525485
 20
41.8038070543676
 30
0.0
 11
163.142663193898
 21
41.8038070543676
 31
0.0
  0
LINE
  5
428
330
246
100
AcDbEntity
  8
Sketch Geometry(ISO)
  6
CONTINUOUS_ACAD
 62
     7
370
    18
100
AcDbLine
 10
163.7996543556428
 20
41.96446463385914
 30
0.0
 11
164.10721567289
 21
40.06466454375235
 31
0.0
  0
ARC
  5
429
330
246
100
AcDbEntity
  8
Sketch Geometry(ISO)
  6
CONTINUOUS_ACAD
 62
     7
370
    18
100
AcDbCircle
 10
161.5530162788555
 20
39.46577000957755
 30
0.0
 40
2.28279934543278
100
AcDbArc
 50
15.20960393325718
 51
108.5781788025579
  0
ARC
  5
42A
330
246
100
AcDbEntity
  8
Sketch Geometry(ISO)
  6
CONTINUOUS_ACAD
 62
     7
370
    18
100
AcDbCircle
 10
161.2312554746254
 20
40.42306879057798
 30
0.0
 40
1.272873124739543
100
AcDbArc
 50
108.57817880256
 51
231.8186647129063
  0
ARC
  5
42B
330
246
100
AcDbEntity
  8
Sketch Geometry(ISO)
  6
CONTINUOUS_ACAD
 62
     7
370
    18
100
AcDbCircle
 10
160.9124442066014
 20
40.09195432508899
 30
0.0
 40
2.022547542051841
100
AcDbArc
 50
110.8096881097966
 51
229.7592170607357
  0
LINE
  5
42C
330
246
100
AcDbEntity
  8
Sketch Geometry(ISO)
  6
CONTINUOUS_ACAD
 62
     7
370
    18
100
AcDbLine
 10
164.10721567289
 20
40.06466454375235
 30
0.0
 11
163.7558549448598
 21
40.06466454375235
 31
0.0
  0
LINE
  5
42D
330
246
100
AcDbEntity
  8
Sketch Geometry(ISO)
  6
CONTINUOUS_ACAD
 62
     7
370
    18
100
AcDbLine
 10
160.4444259469803
 20
39.4225163001458
 30
0.0
 11
160.6479774396501
 21
39.26244441350283
 31
0.0
  0
ARC
  5
42E
330
246
100
AcDbEntity
  8
Sketch Geometry(ISO)
  6
CONTINUOUS_ACAD
 62
     7
370
    18
100
AcDbCircle
 10
167.9276104182948
 20
47.38076045662679
 30
0.0
 40
12.13538957445691
100
AcDbArc
 50
226.7060885191224
 51
242.2640809537411
  0
ARC
  5
42F
330
246
100
AcDbEntity
  8
Sketch Geometry(ISO)
  6
CONTINUOUS_ACAD
 62
     7
370
    18
100
AcDbCircle
 10
162.1212399354459
 20
35.3744099303153
 30
0.0
 40
2.349352387856274
100
AcDbArc
 50
5.81246571350085
 51
56.96974444854591
  0
ARC
  5
430
330
246
100
AcDbEntity
  8
Sketch Geometry(ISO)
  6
CONTINUOUS_ACAD
 62
     7
370
    18
100
AcDbCircle
 10
172.755821743604
 20
53.70760387544598
 30
0.0
 40
18.84840909917212
100
AcDbArc
 50
230.0304671335736
 51
240.2461455100652
  0
ARC
  5
431
330
246
100
AcDbEntity
  8
Sketch Geometry(ISO)
  6
CONTINUOUS_ACAD
 62
     7
370
    18
100
AcDbCircle
 10
182.6757822558207
 20
31.40832659917116
 30
0.0
 40
1.12420723094698
100
AcDbArc
 50
183.4485971136698
 51
263.2975929404511
  0
LINE
  5
432
330
246
100
AcDbEntity
  8
Sketch Geometry(ISO)
  6
CONTINUOUS_ACAD
 62
     7
370
    18
100
AcDbLine
 10
178.8830555747337
 20
29.83112863370736
 30
0.0
 11
178.8830555747337
 21
30.2918024846464
 31
0.0
  0
LINE
  5
433
330
246
100
AcDbEntity
  8
Sketch Geometry(ISO)
  6
CONTINUOUS_ACAD
 62
     7
370
    18
100
AcDbLine
 10
178.8830555747337
 20
30.2918024846464
 30
0.0
 11
179.4805826994281
 21
30.2918024846464
 31
0.0
  0
LINE
  5
434
330
246
100
AcDbEntity
  8
Sketch Geometry(ISO)
  6
CONTINUOUS_ACAD
 62
     7
370
    18
100
AcDbLine
 10
183.5316735189297
 20
29.83112863370736
 30
0.0
 11
178.8830555747337
 21
29.83112863370736
 31
0.0
  0
ARC
  5
435
330
246
100
AcDbEntity
  8
Sketch Geometry(ISO)
  6
CONTINUOUS_ACAD
 62
     7
370
    18
100
AcDbCircle
 10
179.4685390873549
 20
31.39820434497361
 30
0.0
 40
1.106467408072777
100
AcDbArc
 50
269.3763379169344
 51
352.7922856076719
  0
ARC
  5
436
330
246
100
AcDbEntity
  8
Sketch Geometry(ISO)
  6
CONTINUOUS_ACAD
 62
     7
370
    18
100
AcDbCircle
 10
172.7919859789266
 20
51.72678793767909
 30
0.0
 40
18.4870082501753
100
AcDbArc
 50
267.1776652275068
 51
267.8936768180167
  0
ARC
  5
437
330
246
100
AcDbEntity
  8
Sketch Geometry(ISO)
  6
CONTINUOUS_ACAD
 62
     7
370
    18
100
AcDbCircle
 10
172.2881453734119
 20
38.38183346095937
 30
0.0
 40
5.460249349820255
100
AcDbArc
 50
267.5537157622909
 51
278.6905453670297
  0
ARC
  5
438
330
246
100
AcDbEntity
  8
Sketch Geometry(ISO)
  6
CONTINUOUS_ACAD
 62
     7
370
    18
100
AcDbCircle
 10
172.2421477821939
 20
36.77693828387718
 30
0.0
 40
3.527050806590523
100
AcDbArc
 50
267.8936768180171
 51
344.2786924858666
  0
ARC
  5
439
330
246
100
AcDbEntity
  8
Sketch Geometry(ISO)
  6
CONTINUOUS_ACAD
 62
     7
370
    18
100
AcDbCircle
 10
172.6210062620611
 20
37.55776597074917
 30
0.0
 40
4.599897721625063
100
AcDbArc
 50
276.1421716975607
 51
82.89286959380444
  0
ARC
  5
43A
330
246
100
AcDbEntity
  8
Sketch Geometry(ISO)
  6
CONTINUOUS_ACAD
 62
     7
370
    18
100
AcDbCircle
 10
179.2845704708843
 20
39.36965923476694
 30
0.0
 40
2.328744413514124
100
AcDbArc
 50
56.60696756582305
 51
87.0839319377529
  0
LINE
  5
43B
330
246
100
AcDbEntity
  8
Sketch Geometry(ISO)
  6
CONTINUOUS_ACAD
 62
     7
370
    18
100
AcDbLine
 10
179.4030407309133
 20
41.69538822606448
 30
0.0
 11
178.9709006007346
 21
41.69538822606448
 31
0.0
  0
LINE
  5
43C
330
246
100
AcDbEntity
  8
Sketch Geometry(ISO)
  6
CONTINUOUS_ACAD
 62
     7
370
    18
100
AcDbLine
 10
178.9709006007346
 20
41.69538822606448
 30
0.0
 11
178.9709006007346
 21
42.12081822737387
 31
0.0
  0
ARC
  5
43D
330
246
100
AcDbEntity
  8
Sketch Geometry(ISO)
  6
CONTINUOUS_ACAD
 62
     7
370
    18
100
AcDbCircle
 10
170.5717924706307
 20
37.24712431901378
 30
0.0
 40
5.26232074942503
100
AcDbArc
 50
344.2786924858665
 51
36.26259189651451
  0
ARC
  5
43E
330
246
100
AcDbEntity
  8
Sketch Geometry(ISO)
  6
CONTINUOUS_ACAD
 62
     7
370
    18
100
AcDbCircle
 10
172.6174459292001
 20
37.37486696252652
 30
0.0
 40
4.177955851326371
100
AcDbArc
 50
172.4340468239056
 51
259.8572405806371
  0
ARC
  5
43F
330
246
100
AcDbEntity
  8
Sketch Geometry(ISO)
  6
CONTINUOUS_ACAD
 62
     7
370
    18
100
AcDbCircle
 10
171.652425464485
 20
37.51332019972517
 30
0.0
 40
4.604400491663247
100
AcDbArc
 50
94.56991720728444
 51
275.0170075405719
  0
ARC
  5
440
330
246
100
AcDbEntity
  8
Sketch Geometry(ISO)
  6
CONTINUOUS_ACAD
 62
     7
370
    18
100
AcDbCircle
 10
172.0675676127221
 20
38.34437756967243
 30
0.0
 40
3.407244478276231
100
AcDbArc
 50
36.26259189651417
 51
85.2853303967282
  0
ARC
  5
441
330
246
100
AcDbEntity
  8
Sketch Geometry(ISO)
  6
CONTINUOUS_ACAD
 62
     7
370
    18
100
AcDbCircle
 10
172.7637841895103
 20
-9.954992033700396
 30
0.0
 40
52.07905779243873
100
AcDbArc
 50
89.53094387807677
 51
91.62650729122701
  0
ARC
  5
442
330
246
100
AcDbEntity
  8
Sketch Geometry(ISO)
  6
CONTINUOUS_ACAD
 62
     7
370
    18
100
AcDbCircle
 10
172.0529366637332
 20
38.16697410357546
 30
0.0
 40
3.585250249113969
100
AcDbArc
 50
85.28533039672847
 51
183.8704455164119
  0
LINE
  5
443
330
246
100
AcDbEntity
  8
Sketch Geometry(ISO)
  6
CONTINUOUS_ACAD
 62
     7
370
    18
100
AcDbLine
 10
191.266025322743
 20
32.47326338192227
 30
0.0
 11
191.2660253227426
 21
40.86497606069582
 31
0.0
  0
LINE
  5
444
330
246
100
AcDbEntity
  8
Sketch Geometry(ISO)
  6
CONTINUOUS_ACAD
 62
     7
370
    18
100
AcDbLine
 10
192.2505130215134
 20
41.05003346921343
 30
0.0
 11
192.2505130215134
 21
29.72571237358906
 31
0.0
  0
LINE
  5
445
330
246
100
AcDbEntity
  8
Sketch Geometry(ISO)
  6
CONTINUOUS_ACAD
 62
     7
370
    18
100
AcDbLine
 10
189.3749083702509
 20
41.73122328531364
 30
0.0
 11
189.3749083702509
 21
42.12081822737387
 31
0.0
  0
LINE
  5
446
330
246
100
AcDbEntity
  8
Sketch Geometry(ISO)
  6
CONTINUOUS_ACAD
 62
     7
370
    18
100
AcDbLine
 10
182.0229222769413
 20
42.12081822737388
 30
0.0
 11
191.266025322743
 21
32.47326338192227
 31
0.0
  0
LINE
  5
447
330
246
100
AcDbEntity
  8
Sketch Geometry(ISO)
  6
CONTINUOUS_ACAD
 62
     7
370
    18
100
AcDbLine
 10
181.5536107771007
 20
40.34473639418195
 30
0.0
 11
191.7274563618655
 21
29.72571237358943
 31
0.0
  0
LINE
  5
448
330
246
100
AcDbEntity
  8
Sketch Geometry(ISO)
  6
CONTINUOUS_ACAD
 62
     7
370
    18
100
AcDbLine
 10
192.2505130215134
 20
29.72571237358906
 30
0.0
 11
191.7274563618655
 21
29.72571237358943
 31
0.0
  0
LINE
  5
449
330
246
100
AcDbEntity
  8
Sketch Geometry(ISO)
  6
CONTINUOUS_ACAD
 62
     7
370
    18
100
AcDbLine
 10
181.5536107771007
 20
40.34473639418195
 30
0.0
 11
181.5536107771009
 21
31.34070211794372
 31
0.0
  0
LINE
  5
44A
330
246
100
AcDbEntity
  8
Sketch Geometry(ISO)
  6
CONTINUOUS_ACAD
 62
     7
370
    18
100
AcDbLine
 10
180.5662629877748
 20
31.25937940638551
 30
0.0
 11
180.5662629877748
 21
41.3139624095882
 31
0.0
  0
LINE
  5
44B
330
246
100
AcDbEntity
  8
Sketch Geometry(ISO)
  6
CONTINUOUS_ACAD
 62
     7
370
    18
100
AcDbLine
 10
182.5445732629956
 20
30.2918024846464
 30
0.0
 11
183.5316735189297
 21
30.2918024846464
 31
0.0
  0
LINE
  5
44C
330
246
100
AcDbEntity
  8
Sketch Geometry(ISO)
  6
CONTINUOUS_ACAD
 62
     7
370
    18
100
AcDbLine
 10
183.5316735189297
 20
30.2918024846464
 30
0.0
 11
183.5316735189297
 21
29.83112863370736
 31
0.0
  0
LINE
  5
44D
330
246
100
AcDbEntity
  8
Sketch Geometry(ISO)
  6
CONTINUOUS_ACAD
 62
     7
370
    18
100
AcDbLine
 10
178.9709006007346
 20
42.12081822737387
 30
0.0
 11
182.0229222769413
 21
42.12081822737388
 31
0.0
  0
LINE
  5
44E
330
246
100
AcDbEntity
  8
Sketch Geometry(ISO)
  6
CONTINUOUS_ACAD
 62
     7
370
    18
100
AcDbLine
 10
189.3749083702509
 20
42.12081822737387
 30
0.0
 11
194.0232474083051
 21
42.12081822737387
 31
0.0
  0
LINE
  5
44F
330
246
100
AcDbEntity
  8
Sketch Geometry(ISO)
  6
CONTINUOUS_ACAD
 62
     7
370
    18
100
AcDbLine
 10
190.2192577904394
 20
41.73122328531364
 30
0.0
 11
189.3749083702509
 21
41.73122328531364
 31
0.0
  0
ARC
  5
450
330
246
100
AcDbEntity
  8
Sketch Geometry(ISO)
  6
CONTINUOUS_ACAD
 62
     7
370
    18
100
AcDbCircle
 10
190.1499363255331
 20
40.58187851296409
 30
0.0
 40
1.151433398518552
100
AcDbArc
 50
14.23297755352669
 51
93.45155061879863
  0
ARC
  5
451
330
246
100
AcDbEntity
  8
Sketch Geometry(ISO)
  6
CONTINUOUS_ACAD
 62
     7
370
    18
100
AcDbCircle
 10
193.1925794818321
 20
40.74413677832381
 30
0.0
 40
0.9904857400057275
100
AcDbArc
 50
94.74819194538676
 51
162.0109621267226
  0
LINE
  5
452
330
246
100
AcDbEntity
  8
Sketch Geometry(ISO)
  6
CONTINUOUS_ACAD
 62
     7
370
    18
100
AcDbLine
 10
194.0232474083051
 20
41.73122328531364
 30
0.0
 11
193.1105902820963
 21
41.73122328531364
 31
0.0
  0
LINE
  5
453
330
246
100
AcDbEntity
  8
Sketch Geometry(ISO)
  6
CONTINUOUS_ACAD
 62
     7
370
    18
100
AcDbLine
 10
194.0232474083051
 20
42.12081822737387
 30
0.0
 11
194.0232474083051
 21
41.73122328531364
 31
0.0
  0
LINE
  5
454
330
246
100
AcDbEntity
  8
Sketch Geometry(ISO)
  6
CONTINUOUS_ACAD
 62
     7
370
    25
100
AcDbLine
 10
200.0
 20
10.00000000000023
 30
0.0
 11
200.0
 21
45.00000000000023
 31
0.0
  0
LINE
  5
455
330
246
100
AcDbEntity
  8
Sketch Geometry(ISO)
  6
Continuous
 62
     7
370
    25
100
AcDbLine
 10
200.0
 20
10.00000000000023
 30
0.0
 11
200.0
 21
287.0
 31
0.0
  0
MTEXT
  5
457
330
246
100
AcDbEntity
  8
Symbols(ISO)
 62
     7
100
AcDbMText
 10
101.2479534031771
 20
24.23764887927175
 30
0.0
 40
1.500000059604644
 41
0.0
 71
     7
 72
     1
  1
P.C.HENDERSON LIMITED, BOWBURN, DURHAM DH6 5NG ENGLAND
  7
Text Style171
 73
     1
 44
1.0
1001
ACAD
1000
MTEXTBEGIN
1070
    73
1070
     1
1070
    44
1040
1.0
1070
    74
1070
     0
1000
MTEXTEND
  0
MTEXT
  5
459
330
246
100
AcDbEntity
  8
Symbols(ISO)
 62
     7
100
AcDbMText
 10
101.7744090875148
 20
21.29472011430264
 30
0.0
 40
1.500000059604644
 41
0.0
 71
     7
 72
     1
  1
Telephone: (0191) 3770701        Fax No.: (0191) 3771309
  7
Text Style171
 73
     1
 44
1.0
1001
ACAD
1000
MTEXTBEGIN
1070
    73
1070
     1
1070
    44
1040
1.0
1070
    74
1070
     0
1000
MTEXTEND
  0
MTEXT
  5
45B
330
246
100
AcDbEntity
  8
Symbols(ISO)
 62
     7
100
AcDbMText
 10
110.2660084085957
 20
19.00584641379338
 30
0.0
 40
1.800000071525573
 41
0.0
 71
     7
 72
     1
  1
................................................................
  7
Text Style168
 73
     1
 44
1.0
1001
ACAD
1000
MTEXTBEGIN
1070
    73
1070
     1
1070
    44
1040
1.0
1070
    74
1070
     0
1000
MTEXTEND
  0
MTEXT
  5
45D
330
246
100
AcDbEntity
  8
Symbols(ISO)
 62
     7
100
AcDbMText
 10
117.5324041861373
 20
14.55943253125098
 30
0.0
 40
2.5
 41
0.0
 71
     7
 72
     1
  1
www.pchenderson.com
  7
Text Style169
 73
     1
 44
1.0
1001
ACAD
1000
MTEXTBEGIN
1070
    73
1070
     1
1070
    44
1040
1.0
1070
    74
1070
     0
1000
MTEXTEND
  0
MTEXT
  5
45F
330
246
100
AcDbEntity
  8
Symbols(ISO)
 62
     7
100
AcDbMText
 10
11.49221956798908
 20
16.63434934845192
 30
0.0
 40
2.000000029802322
 41
0.0
 71
     7
 72
     1
  1
Drawing-size:
  7
Text Style175
 73
     1
 44
1.0
1001
ACAD
1000
MTEXTBEGIN
1070
    73
1070
     1
1070
    44
1040
1.0
1070
    74
1070
     0
1000
MTEXTEND
  0
MTEXT
  5
460
330
246
100
AcDbEntity
  8
Symbols(ISO)
 62
     7
100
AcDbMText
 10
11.49221956798908
 20
28.67986058871006
 30
0.0
 40
2.000000029802322
 41
0.0
 71
     7
 72
     1
  1
PCH-code:
  7
Text Style175
 73
     1
 44
1.0
1001
ACAD
1000
MTEXTBEGIN
1070
    73
1070
     1
1070
    44
1040
1.0
1070
    74
1070
     0
1000
MTEXTEND
  0
MTEXT
  5
461
330
246
100
AcDbEntity
  8
Symbols(ISO)
 62
     7
100
AcDbMText
 10
11.39781932491779
 20
22.49851508063875
 30
0.0
 40
2.000000029802322
 41
0.0
 71
     7
 72
     1
  1
CAD-scale:
  7
Text Style175
 73
     1
 44
1.0
1001
ACAD
1000
MTEXTBEGIN
1070
    73
1070
     1
1070
    44
1040
1.0
1070
    74
1070
     0
1000
MTEXTEND
  0
MTEXT
  5
462
330
246
100
AcDbEntity
  8
Symbols(ISO)
 62
     7
100
AcDbMText
 10
11.49221956798908
 20
12.15982176465988
 30
0.0
 40
2.000000029802322
 41
0.0
 71
     7
 72
     1
  1
Revision:
  7
Text Style175
 73
     1
 44
1.0
1001
ACAD
1000
MTEXTBEGIN
1070
    73
1070
     1
1070
    44
1040
1.0
1070
    74
1070
     0
1000
MTEXTEND
  0
MTEXT
  5
463
330
246
100
AcDbEntity
  8
Symbols(ISO)
 62
     7
100
AcDbMText
 10
11.49221956798908
 20
41.33868184548543
 30
0.0
 40
2.000000029802322
 41
0.0
 71
     7
 72
     1
  1
Description:
  7
Text Style175
 73
     1
 44
1.0
1001
ACAD
1000
MTEXTBEGIN
1070
    73
1070
     1
1070
    44
1040
1.0
1070
    74
1070
     0
1000
MTEXTEND
  0
ENDBLK
  5
248
330
246
100
AcDbEntity
  8
0
100
AcDbBlockEnd
  0
BLOCK
  5
498
330
497
100
AcDbEntity
  8
0
100
AcDbBlockBegin
  2
*D7
 70
     1
 10
0.0
 20
0.0
 30
0.0
  3
*D7
  1

  0
LINE
  5
58A
330
497
100
AcDbEntity
  8
Dimensions(ISO)
  6
Continuous
 62
     7
370
    25
100
AcDbLine
 10
144.2319631881558
 20
111.7354552524839
 30
0.0
 11
144.2319631881558
 21
96.52921533721396
 31
0.0
  0
LINE
  5
58B
330
497
100
AcDbEntity
  8
Dimensions(ISO)
  6
Continuous
 62
     7
370
    25
100
AcDbLine
 10
137.8319631881558
 20
111.7354552524839
 30
0.0
 11
137.8319631881558
 21
96.52921533721396
 31
0.0
  0
LINE
  5
58C
330
497
100
AcDbEntity
  8
Dimensions(ISO)
  6
Continuous
 62
     7
370
    25
100
AcDbLine
 10
146.7319631881558
 20
99.70421533721395
 30
0.0
 11
149.2319631881558
 21
99.70421533721395
 31
0.0
  0
LINE
  5
58D
330
497
100
AcDbEntity
  8
Dimensions(ISO)
  6
Continuous
 62
     7
370
    25
100
AcDbLine
 10
135.3319631881558
 20
99.70421533721395
 30
0.0
 11
132.8319631881558
 21
99.70421533721395
 31
0.0
  0
LINE
  5
58E
330
497
100
AcDbEntity
  8
Dimensions(ISO)
  6
Continuous
 62
     7
370
    25
100
AcDbLine
 10
144.2319631881558
 20
99.70421533721395
 30
0.0
 11
137.8319631881558
 21
99.70421533721395
 31
0.0
  0
SOLID
  5
58F
330
497
100
AcDbEntity
  8
Dimensions(ISO)
  6
Continuous
 62
     7
100
AcDbTrace
 10
146.7319631881558
 20
100.1208820038806
 30
0.0
 11
146.7319631881558
 21
99.28754867054728
 31
0.0
 12
144.2319631881558
 22
99.70421533721395
 32
0.0
 13
144.2319631881558
 23
99.70421533721395
 33
0.0
  0
SOLID
  5
590
330
497
100
AcDbEntity
  8
Dimensions(ISO)
  6
Continuous
 62
     7
100
AcDbTrace
 10
135.3319631881558
 20
100.1208820038806
 30
0.0
 11
135.3319631881558
 21
99.28754867054728
 31
0.0
 12
137.8319631881558
 22
99.70421533721395
 32
0.0
 13
137.8319631881558
 23
99.70421533721395
 33
0.0
  0
MTEXT
  5
591
330
497
100
AcDbEntity
  8
Dimensions(ISO)
  6
Continuous
 62
     7
370
    25
100
AcDbMText
 10
139.8764379494109
 20
104.0402262512658
 30
0.0
 40
3.5
 41
0.0
 71
     1
 72
     1
  1
\A1;6
  7
Current-BSI
 73
     1
 44
1.0
1001
ACAD
1000
MTEXTBEGIN
1070
    73
1070
     1
1070
    44
1040
1.0
1070
    74
1070
     0
1000
MTEXTEND
  0
POINT
  5
592
330
497
100
AcDbEntity
  8
Defpoints
  6
Continuous
 62
     0
100
AcDbPoint
 10
144.2319631881558
 20
111.7354552524839
 30
0.0
  0
POINT
  5
593
330
497
100
AcDbEntity
  8
Defpoints
  6
Continuous
 62
     0
100
AcDbPoint
 10
137.8319631881558
 20
111.7354552524839
 30
0.0
  0
POINT
  5
594
330
497
100
AcDbEntity
  8
Defpoints
  6
Continuous
 62
     0
100
AcDbPoint
 10
137.8319631881558
 20
99.70421533721395
 30
0.0
  0
ENDBLK
  5
499
330
497
100
AcDbEntity
  8
0
100
AcDbBlockEnd
  0
BLOCK
  5
597
330
596
100
AcDbEntity
  8
0
100
AcDbBlockBegin
  2
*D8
 70
     1
 10
0.0
 20
0.0
 30
0.0
  3
*D8
  1

  0
LINE
  5
66E
330
596
100
AcDbEntity
  8
Dimensions(ISO)
  6
Continuous
 62
     7
370
    25
100
AcDbLine
 10
85.89797984579181
 20
111.7354552524839
 30
0.0
 11
85.89797984579181
 21
95.69841260363146
 31
0.0
  0
LINE
  5
66F
330
596
100
AcDbEntity
  8
Dimensions(ISO)
  6
Continuous
 62
     7
370
    25
100
AcDbLine
 10
71.59797984579181
 20
111.7354552524839
 30
0.0
 11
71.59797984579181
 21
95.69841260363146
 31
0.0
  0
LINE
  5
670
330
596
100
AcDbEntity
  8
Dimensions(ISO)
  6
Continuous
 62
     7
370
    25
100
AcDbLine
 10
83.39797984579181
 20
98.87341260363145
 30
0.0
 11
74.09797984579181
 21
98.87341260363145
 31
0.0
  0
SOLID
  5
671
330
596
100
AcDbEntity
  8
Dimensions(ISO)
  6
Continuous
 62
     7
100
AcDbTrace
 10
83.39797984579181
 20
99.29007927029813
 30
0.0
 11
83.39797984579181
 21
98.45674593696479
 31
0.0
 12
85.89797984579181
 22
98.87341260363145
 32
0.0
 13
85.89797984579181
 23
98.87341260363145
 33
0.0
  0
SOLID
  5
672
330
596
100
AcDbEntity
  8
Dimensions(ISO)
  6
Continuous
 62
     7
100
AcDbTrace
 10
74.09797984579181
 20
99.29007927029813
 30
0.0
 11
74.09797984579181
 21
98.45674593696479
 31
0.0
 12
71.59797984579181
 22
98.87341260363145
 32
0.0
 13
71.59797984579181
 23
98.87341260363145
 33
0.0
  0
MTEXT
  5
673
330
596
100
AcDbEntity
  8
Dimensions(ISO)
  6
Continuous
 62
     7
370
    25
100
AcDbMText
 10
76.41305487989822
 20
103.1497372966737
 30
0.0
 40
3.5
 41
0.0
 71
     1
 72
     1
  1
\A1;14
  7
Current-BSI
 73
     1
 44
1.0
1001
ACAD
1000
MTEXTBEGIN
1070
    73
1070
     1
1070
    44
1040
1.0
1070
    74
1070
     0
1000
MTEXTEND
  0
POINT
  5
674
330
596
100
AcDbEntity
  8
Defpoints
  6
Continuous
 62
     0
100
AcDbPoint
 10
85.89797984579181
 20
111.7354552524839
 30
0.0
  0
POINT
  5
675
330
596
100
AcDbEntity
  8
Defpoints
  6
Continuous
 62
     0
100
AcDbPoint
 10
71.59797984579181
 20
111.7354552524839
 30
0.0
  0
POINT
  5
676
330
596
100
AcDbEntity
  8
Defpoints
  6
Continuous
 62
     0
100
AcDbPoint
 10
71.59797984579181
 20
98.87341260363145
 30
0.0
  0
ENDBLK
  5
598
330
596
100
AcDbEntity
  8
0
100
AcDbBlockEnd
  0
BLOCK
  5
679
330
678
100
AcDbEntity
  8
0
100
AcDbBlockBegin
  2
*D9
 70
     1
 10
0.0
 20
0.0
 30
0.0
  3
*D9
  1

  0
LINE
  5
750
330
678
100
AcDbEntity
  8
Dimensions(ISO)
  6
Continuous
 62
     7
370
    25
100
AcDbLine
 10
144.2319631881558
 20
111.7354552524839
 30
0.0
 11
172.9062659451602
 21
111.7354552524839
 31
0.0
  0
LINE
  5
751
330
678
100
AcDbEntity
  8
Dimensions(ISO)
  6
Continuous
 62
     7
370
    25
100
AcDbLine
 10
144.2319631881545
 20
149.7354552524839
 30
0.0
 11
172.9062659451602
 21
149.7354552524839
 31
0.0
  0
LINE
  5
752
330
678
100
AcDbEntity
  8
Dimensions(ISO)
  6
Continuous
 62
     7
370
    25
100
AcDbLine
 10
169.7312659451601
 20
114.2354552524839
 30
0.0
 11
169.7312659451601
 21
147.2354552524839
 31
0.0
  0
SOLID
  5
753
330
678
100
AcDbEntity
  8
Dimensions(ISO)
  6
Continuous
 62
     7
100
AcDbTrace
 10
169.3145992784935
 20
114.2354552524839
 30
0.0
 11
170.1479326118268
 21
114.2354552524839
 31
0.0
 12
169.7312659451601
 22
111.7354552524839
 32
0.0
 13
169.7312659451601
 23
111.7354552524839
 33
0.0
  0
SOLID
  5
754
330
678
100
AcDbEntity
  8
Dimensions(ISO)
  6
Continuous
 62
     7
100
AcDbTrace
 10
169.3145992784935
 20
147.2354552524839
 30
0.0
 11
170.1479326118268
 21
147.2354552524839
 31
0.0
 12
169.7312659451601
 22
149.7354552524839
 32
0.0
 13
169.7312659451601
 23
149.7354552524839
 33
0.0
  0
MTEXT
  5
755
330
678
100
AcDbEntity
  8
Dimensions(ISO)
  6
Continuous
 62
     7
370
    25
100
AcDbMText
 10
165.3928675822679
 20
128.2262465212424
 30
0.0
 40
3.5
 41
0.0
 71
     1
 72
     1
  1
\A1;38
  7
Current-BSI
 11
0.0000000000000001
 21
1.0
 31
0.0
 73
     1
 44
1.0
1001
ACAD
1000
MTEXTBEGIN
1070
    73
1070
     1
1070
    44
1040
1.0
1070
    74
1070
     0
1000
MTEXTEND
  0
POINT
  5
756
330
678
100
AcDbEntity
  8
Defpoints
  6
Continuous
 62
     0
100
AcDbPoint
 10
144.2319631881558
 20
111.7354552524839
 30
0.0
  0
POINT
  5
757
330
678
100
AcDbEntity
  8
Defpoints
  6
Continuous
 62
     0
100
AcDbPoint
 10
144.2319631881545
 20
149.7354552524839
 30
0.0
  0
POINT
  5
758
330
678
100
AcDbEntity
  8
Defpoints
  6
Continuous
 62
     0
100
AcDbPoint
 10
169.7312659451601
 20
149.7354552524839
 30
0.0
  0
ENDBLK
  5
67A
330
678
100
AcDbEntity
  8
0
100
AcDbBlockEnd
  0
BLOCK
  5
75B
330
75A
100
AcDbEntity
  8
0
100
AcDbBlockBegin
  2
*D10
 70
     1
 10
0.0
 20
0.0
 30
0.0
  3
*D10
  1

  0
LINE
  5
84C
330
75A
100
AcDbEntity
  8
Dimensions(ISO)
  6
Continuous
 62
     7
370
    25
100
AcDbLine
 10
81.4979798457918
 20
149.7354552524839
 30
0.0
 11
81.4979798457918
 21
164.3586173428963
 31
0.0
  0
LINE
  5
84D
330
75A
100
AcDbEntity
  8
Dimensions(ISO)
  6
Continuous
 62
     7
370
    25
100
AcDbLine
 10
75.9979798457918
 20
149.7354552524839
 30
0.0
 11
75.9979798457918
 21
164.3586173428963
 31
0.0
  0
LINE
  5
84E
330
75A
100
AcDbEntity
  8
Dimensions(ISO)
  6
Continuous
 62
     7
370
    25
100
AcDbLine
 10
83.9979798457918
 20
161.1836173428963
 30
0.0
 11
86.4979798457918
 21
161.1836173428963
 31
0.0
  0
LINE
  5
84F
330
75A
100
AcDbEntity
  8
Dimensions(ISO)
  6
Continuous
 62
     7
370
    25
100
AcDbLine
 10
73.4979798457918
 20
161.1836173428963
 30
0.0
 11
70.9979798457918
 21
161.1836173428963
 31
0.0
  0
LINE
  5
850
330
75A
100
AcDbEntity
  8
Dimensions(ISO)
  6
Continuous
 62
     7
370
    25
100
AcDbLine
 10
81.4979798457918
 20
161.1836173428963
 30
0.0
 11
75.9979798457918
 21
161.1836173428963
 31
0.0
  0
SOLID
  5
851
330
75A
100
AcDbEntity
  8
Dimensions(ISO)
  6
Continuous
 62
     7
100
AcDbTrace
 10
83.9979798457918
 20
161.600284009563
 30
0.0
 11
83.9979798457918
 21
160.7669506762297
 31
0.0
 12
81.4979798457918
 22
161.1836173428963
 32
0.0
 13
81.4979798457918
 23
161.1836173428963
 33
0.0
  0
SOLID
  5
852
330
75A
100
AcDbEntity
  8
Dimensions(ISO)
  6
Continuous
 62
     7
100
AcDbTrace
 10
73.4979798457918
 20
161.600284009563
 30
0.0
 11
73.4979798457918
 21
160.7669506762297
 31
0.0
 12
75.9979798457918
 22
161.1836173428963
 32
0.0
 13
75.9979798457918
 23
161.1836173428963
 33
0.0
  0
MTEXT
  5
853
330
75A
100
AcDbEntity
  8
Dimensions(ISO)
  6
Continuous
 62
     7
370
    25
100
AcDbMText
 10
75.54879839967994
 20
166.1379775066071
 30
0.0
 40
3.5
 41
0.0
 71
     1
 72
     1
  1
\A1;5,5
  7
Current-BSI
 73
     1
 44
1.0
1001
ACAD
1000
MTEXTBEGIN
1070
    73
1070
     1
1070
    44
1040
1.0
1070
    74
1070
     0
1000
MTEXTEND
  0
POINT
  5
854
330
75A
100
AcDbEntity
  8
Defpoints
  6
Continuous
 62
     0
100
AcDbPoint
 10
81.4979798457918
 20
149.7354552524839
 30
0.0
  0
POINT
  5
855
330
75A
100
AcDbEntity
  8
Defpoints
  6
Continuous
 62
     0
100
AcDbPoint
 10
75.9979798457918
 20
149.7354552524839
 30
0.0
  0
POINT
  5
856
330
75A
100
AcDbEntity
  8
Defpoints
  6
Continuous
 62
     0
100
AcDbPoint
 10
75.9979798457918
 20
161.1836173428963
 30
0.0
  0
ENDBLK
  5
75C
330
75A
100
AcDbEntity
  8
0
100
AcDbBlockEnd
  0
BLOCK
  5
859
330
858
100
AcDbEntity
  8
0
100
AcDbBlockBegin
  2
*D11
 70
     1
 10
0.0
 20
0.0
 30
0.0
  3
*D11
  1

  0
LINE
  5
931
330
858
100
AcDbEntity
  8
Dimensions(ISO)
  6
Continuous
 62
     7
370
    25
100
AcDbLine
 10
85.89797984579181
 20
141.7354552524839
 30
0.0
 11
106.6729798457918
 21
141.7354552524839
 31
0.0
  0
LINE
  5
932
330
858
100
AcDbEntity
  8
Dimensions(ISO)
  6
Continuous
 62
     7
370
    25
100
AcDbLine
 10
81.4979798457918
 20
149.7354552524839
 30
0.0
 11
106.6729798457918
 21
149.7354552524839
 31
0.0
  0
LINE
  5
933
330
858
100
AcDbEntity
  8
Dimensions(ISO)
  6
Continuous
 62
     7
370
    25
100
AcDbLine
 10
103.4979798457918
 20
144.2354552524839
 30
0.0
 11
103.4979798457918
 21
147.2354552524839
 31
0.0
  0
SOLID
  5
934
330
858
100
AcDbEntity
  8
Dimensions(ISO)
  6
Continuous
 62
     7
100
AcDbTrace
 10
103.0813131791251
 20
144.2354552524839
 30
0.0
 11
103.9146465124585
 21
144.2354552524839
 31
0.0
 12
103.4979798457918
 22
141.7354552524839
 32
0.0
 13
103.4979798457918
 23
141.7354552524839
 33
0.0
  0
SOLID
  5
935
330
858
100
AcDbEntity
  8
Dimensions(ISO)
  6
Continuous
 62
     7
100
AcDbTrace
 10
103.0813131791251
 20
147.2354552524839
 30
0.0
 11
103.9146465124585
 21
147.2354552524839
 31
0.0
 12
103.4979798457918
 22
149.7354552524839
 32
0.0
 13
103.4979798457918
 23
149.7354552524839
 33
0.0
  0
MTEXT
  5
936
330
858
100
AcDbEntity
  8
Dimensions(ISO)
  6
Continuous
 62
     7
370
    25
100
AcDbMText
 10
99.16196893173996
 20
144.5823174625794
 30
0.0
 40
3.5
 41
0.0
 71
     1
 72
     1
  1
\A1;8
  7
Current-BSI
 11
0.0000000000000001
 21
1.0
 31
0.0
 73
     1
 44
1.0
1001
ACAD
1000
MTEXTBEGIN
1070
    73
1070
     1
1070
    44
1040
1.0
1070
    74
1070
     0
1000
MTEXTEND
  0
POINT
  5
937
330
858
100
AcDbEntity
  8
Defpoints
  6
Continuous
 62
     0
100
AcDbPoint
 10
85.89797984579181
 20
141.7354552524839
 30
0.0
  0
POINT
  5
938
330
858
100
AcDbEntity
  8
Defpoints
  6
Continuous
 62
     0
100
AcDbPoint
 10
81.4979798457918
 20
149.7354552524839
 30
0.0
  0
POINT
  5
939
330
858
100
AcDbEntity
  8
Defpoints
  6
Continuous
 62
     0
100
AcDbPoint
 10
103.4979798457918
 20
149.7354552524839
 30
0.0
  0
ENDBLK
  5
85A
330
858
100
AcDbEntity
  8
0
100
AcDbBlockEnd
  0
BLOCK
  5
93C
330
93B
100
AcDbEntity
  8
0
100
AcDbBlockBegin
  2
*D12
 70
     1
 10
0.0
 20
0.0
 30
0.0
  3
*D12
  1

  0
LINE
  5
9DA
330
93B
100
AcDbEntity
  8
Dimensions(ISO)
  6
Continuous
 62
     7
370
    25
100
AcDbLine
 10
80.89797984579053
 20
129.0354572524839
 30
0.0
 11
83.39797984579053
 21
129.0354572524839
 31
0.0
  0
LINE
  5
9DB
330
93B
100
AcDbEntity
  8
Dimensions(ISO)
  6
Continuous
 62
     7
370
    25
100
AcDbLine
 10
71.89797984579252
 20
129.0354572524839
 30
0.0
 11
47.7851171976435
 21
129.0354572524839
 31
0.0
  0
LINE
  5
9DC
330
93B
100
AcDbEntity
  8
Dimensions(ISO)
  6
Continuous
 62
     7
370
    25
100
AcDbLine
 10
78.39797984579053
 20
129.0354572524839
 30
0.0
 11
74.39797984579252
 21
129.0354532524839
 31
0.0
  0
SOLID
  5
9DD
330
93B
100
AcDbEntity
  8
Dimensions(ISO)
  6
Continuous
 62
     7
100
AcDbTrace
 10
80.89797984579053
 20
129.4521239191505
 30
0.0
 11
80.89797984579053
 21
128.6187905858172
 31
0.0
 12
78.39797984579053
 22
129.0354572524839
 32
0.0
 13
78.39797984579053
 23
129.0354572524839
 33
0.0
  0
SOLID
  5
9DE
330
93B
100
AcDbEntity
  8
Dimensions(ISO)
  6
Continuous
 62
     7
100
AcDbTrace
 10
71.89797984579252
 20
129.4521199191506
 30
0.0
 11
71.89797984579252
 21
128.6187865858172
 31
0.0
 12
74.39797984579252
 22
129.0354532524839
 32
0.0
 13
74.39797984579252
 23
129.0354532524839
 33
0.0
  0
MTEXT
  5
9DF
102
{ACAD_XDICTIONARY
360
AD6
102
}
330
93B
100
AcDbEntity
  8
Dimensions(ISO)
  6
Continuous
 62
     7
370
    25
100
AcDbMText
 10
48.54711719764351
 20
133.5672121645816
 30
0.0
 40
3.5
 41
0.0
 71
     1
 72
     1
  1
\A1;\U+22054
  7
Current-BSI
 73
     1
 44
1.0
1001
ACAD
1000
MTEXTBEGIN
1070
    73
1070
     1
1070
    44
1040
1.0
1070
    74
1070
     0
1000
MTEXTEND
  0
POINT
  5
9E0
330
93B
100
AcDbEntity
  8
Defpoints
  6
Continuous
 62
     0
100
AcDbPoint
 10
74.39797984579252
 20
129.0354532524839
 30
0.0
  0
POINT
  5
9E1
330
93B
100
AcDbEntity
  8
Defpoints
  6
Continuous
 62
     0
100
AcDbPoint
 10
78.39797984579053
 20
129.0354572524839
 30
0.0
  0
ENDBLK
  5
93D
330
93B
100
AcDbEntity
  8
0
100
AcDbBlockEnd
  0
BLOCK
  5
9E4
330
9E3
100
AcDbEntity
  8
0
100
AcDbBlockBegin
  2
*D13
 70
     1
 10
0.0
 20
0.0
 30
0.0
  3
*D13
  1

  0
LINE
  5
A80
330
9E3
100
AcDbEntity
  8
Dimensions(ISO)
  6
Continuous
 62
     7
370
    25
100
AcDbLine
 10
80.14797984579233
 20
116.3354563024833
 30
0.0
 11
82.24797984579103
 21
116.3354542024833
 31
0.0
  0
LINE
  5
A81
330
9E3
100
AcDbEntity
  8
Dimensions(ISO)
  6
Continuous
 62
     7
370
    25
100
AcDbLine
 10
84.74797984578977
 20
116.3354517024834
 30
0.0
 11
101.2645859645423
 21
116.3354351858778
 31
0.0
  0
SOLID
  5
A82
330
9E3
100
AcDbEntity
  8
Dimensions(ISO)
  6
Continuous
 62
     7
100
AcDbTrace
 10
80.14798026245898
 20
116.7521229691498
 30
0.0
 11
80.14797942912569
 21
115.9187896358168
 31
0.0
 12
77.64797984579359
 22
116.3354588024832
 32
0.0
 13
77.64797984579359
 23
116.3354588024832
 33
0.0
  0
SOLID
  5
A83
330
9E3
100
AcDbEntity
  8
Dimensions(ISO)
  6
Continuous
 62
     7
100
AcDbTrace
 10
82.24798026245768
 20
116.7521208691498
 30
0.0
 11
82.24797942912436
 21
115.9187875358169
 31
0.0
 12
84.74797984578977
 22
116.3354517024834
 32
0.0
 13
84.74797984578977
 23
116.3354517024834
 33
0.0
  0
MTEXT
  5
A84
102
{ACAD_XDICTIONARY
360
AD8
102
}
330
9E3
100
AcDbEntity
  8
Dimensions(ISO)
  6
Continuous
 62
     7
370
    25
100
AcDbMText
 10
94.40027126031102
 20
120.8672237691577
 30
0.0
 40
3.5
 41
0.0
 71
     1
 72
     1
  1
\A1;\U+22057
  7
Current-BSI
 11
0.9999999999995001
 21
-0.0000009999999691
 31
0.0
 73
     1
 44
1.0
1001
ACAD
1000
MTEXTBEGIN
1070
    73
1070
     1
1070
    44
1040
1.0
1070
    74
1070
     0
1000
MTEXTEND
  0
POINT
  5
A85
330
9E3
100
AcDbEntity
  8
Defpoints
  6
Continuous
 62
     0
100
AcDbPoint
 10
84.74797984578977
 20
116.3354517024834
 30
0.0
  0
POINT
  5
A86
330
9E3
100
AcDbEntity
  8
Defpoints
  6
Continuous
 62
     0
100
AcDbPoint
 10
77.64797984579359
 20
116.3354588024832
 30
0.0
  0
ENDBLK
  5
9E5
330
9E3
100
AcDbEntity
  8
0
100
AcDbBlockEnd
  0
ENDSEC
  0
SECTION
  2
ENTITIES
  0
INSERT
  5
464
330
6C
100
AcDbEntity
  8
0
100
AcDbBlockReference
  2
Borders PCH WEB A4
 10
0.0
 20
0.0
 30
0.0
  0
MTEXT
  5
465
330
6C
100
AcDbEntity
  8
Symbols(ISO)
 62
     7
100
AcDbMText
 10
45.4107118555023
 20
28.1132740857965
 30
0.0
 40
2.5
 41
14.59265112876892
 71
     7
 72
     1
  1
{\fRomanS|b0|i0;\H2.5000;741156}
 73
     1
 44
1.0
1001
ACAD
1000
MTEXTBEGIN
1070
    73
1070
     1
1070
    44
1040
1.0
1070
    74
1070
     0
1000
MTEXTEND
  0
MTEXT
  5
468
330
6C
100
AcDbEntity
  8
Symbols(ISO)
 62
     7
100
AcDbMText
 10
45.41071185550234
 20
14.25994205041998
 30
0.0
 40
2.5
 41
0.0
 71
     1
 72
     1
  1
{\fRomanS|b0|i0;\H2.5000;A}
 73
     1
 44
1.0
1001
ACAD
1000
MTEXTBEGIN
1070
    73
1070
     1
1070
    44
1040
1.0
1070
    74
1070
     0
1000
MTEXTEND
  0
MTEXT
  5
469
330
6C
100
AcDbEntity
  8
Symbols(ISO)
 62
     7
100
AcDbMText
 10
45.41071185550234
 20
19.88822693112647
 30
0.0
 40
2.5
 41
0.0
 71
     1
 72
     1
  1
{\fRomanS|b0|i0;\H2.5000;A4}
 73
     1
 44
1.0
1001
ACAD
1000
MTEXTBEGIN
1070
    73
1070
     1
1070
    44
1040
1.0
1070
    74
1070
     0
1000
MTEXTEND
  0
MTEXT
  5
46A
330
6C
100
AcDbEntity
  8
Symbols(ISO)
 62
     7
100
AcDbMText
 10
45.41071185550234
 20
25.04884285713633
 30
0.0
 40
2.5
 41
12.58785963058471
 71
     1
 72
     1
  1
{\fRomanS|b0|i0;\H2.5000;----}
 73
     1
 44
1.0
1001
ACAD
1000
MTEXTBEGIN
1070
    73
1070
     1
1070
    44
1040
1.0
1070
    74
1070
     0
1000
MTEXTEND
  0
MTEXT
  5
46B
330
6C
100
AcDbEntity
  8
Symbols(ISO)
 62
     7
100
AcDbMText
 10
17.86650672838029
 20
38.53729916311604
 30
0.0
 40
3.499999940395355
 41
43.27755451202392
 71
     1
 72
     1
  1
{\fRomanS|b0|i0;\H3.5000;113/81X GUIDE}
 73
     1
 44
1.0
1001
ACAD
1000
MTEXTBEGIN
1070
    73
1070
     1
1070
    44
1040
1.0
1070
    74
1070
     0
1000
MTEXTEND
  0
CIRCLE
  5
46C
330
6C
100
AcDbEntity
  8
Visible Edges(ISO)
100
AcDbCircle
 10
76.39797984579181
 20
129.0354552524839
 30
0.0
 40
3.549999999999999
  0
CIRCLE
  5
46D
330
6C
100
AcDbEntity
  8
Visible Edges(ISO)
100
AcDbCircle
 10
76.39797984579181
 20
129.0354552524839
 30
0.0
 40
2.0
  0
CIRCLE
  5
46E
330
6C
100
AcDbEntity
  8
Visible Edges(ISO)
100
AcDbCircle
 10
81.19797984579182
 20
116.3354552524839
 30
0.0
 40
3.549999999999999
  0
CIRCLE
  5
46F
330
6C
100
AcDbEntity
  8
Visible Edges(ISO)
100
AcDbCircle
 10
81.19797984579182
 20
116.3354552524839
 30
0.0
 40
2.0
  0
LINE
  5
470
330
6C
100
AcDbEntity
  8
Visible Edges(ISO)
100
AcDbLine
 10
71.59797984579182
 20
111.7354552524839
 30
0.0
 11
71.59797984579181
 21
141.7354552524839
 31
0.0
  0
LINE
  5
471
330
6C
100
AcDbEntity
  8
Visible Edges(ISO)
100
AcDbLine
 10
71.59797984579181
 20
141.7354552524839
 30
0.0
 11
75.99797984579182
 21
141.7354552524839
 31
0.0
  0
LINE
  5
472
330
6C
100
AcDbEntity
  8
Visible Edges(ISO)
100
AcDbLine
 10
75.99797984579182
 20
141.7354552524839
 30
0.0
 11
75.9979798457918
 21
149.7354552524839
 31
0.0
  0
LINE
  5
473
330
6C
100
AcDbEntity
  8
Visible Edges(ISO)
100
AcDbLine
 10
75.9979798457918
 20
149.7354552524839
 30
0.0
 11
81.4979798457918
 21
149.7354552524839
 31
0.0
  0
LINE
  5
474
330
6C
100
AcDbEntity
  8
Visible Edges(ISO)
100
AcDbLine
 10
81.4979798457918
 20
149.7354552524839
 30
0.0
 11
81.4979798457918
 21
141.7354552524839
 31
0.0
  0
LINE
  5
475
330
6C
100
AcDbEntity
  8
Visible Edges(ISO)
100
AcDbLine
 10
81.4979798457918
 20
141.7354552524839
 30
0.0
 11
85.89797984579181
 21
141.7354552524839
 31
0.0
  0
LINE
  5
476
330
6C
100
AcDbEntity
  8
Visible Edges(ISO)
100
AcDbLine
 10
85.89797984579181
 20
141.7354552524839
 30
0.0
 11
85.89797984579181
 21
111.7354552524839
 31
0.0
  0
LINE
  5
477
330
6C
100
AcDbEntity
  8
Visible Edges(ISO)
100
AcDbLine
 10
85.89797984579181
 20
111.7354552524839
 30
0.0
 11
71.59797984579182
 21
111.7354552524839
 31
0.0
  0
LINE
  5
478
330
6C
100
AcDbEntity
  8
Visible Edges(ISO)
100
AcDbLine
 10
144.2319631881545
 20
149.7354552524839
 30
0.0
 11
137.8319631881545
 21
149.7354552524839
 31
0.0
  0
LINE
  5
479
330
6C
100
AcDbEntity
  8
Visible Edges(ISO)
100
AcDbLine
 10
137.8319631881545
 20
149.7354552524839
 30
0.0
 11
137.8319631881545
 21
141.7354552524839
 31
0.0
  0
LINE
  5
47A
330
6C
100
AcDbEntity
  8
Visible Edges(ISO)
100
AcDbLine
 10
144.2319631881545
 20
141.7354552524839
 30
0.0
 11
144.2319631881545
 21
149.7354552524839
 31
0.0
  0
LINE
  5
47B
330
6C
100
AcDbEntity
  8
Visible Edges(ISO)
100
AcDbLine
 10
144.2319631881558
 20
141.7354552524839
 30
0.0
 11
137.8319631881558
 21
141.7354552524839
 31
0.0
  0
LINE
  5
47C
330
6C
100
AcDbEntity
  8
Visible Edges(ISO)
100
AcDbLine
 10
137.8319631881558
 20
141.7354552524839
 30
0.0
 11
137.8319631881558
 21
111.7354552524839
 31
0.0
  0
LINE
  5
47D
330
6C
100
AcDbEntity
  8
Visible Edges(ISO)
100
AcDbLine
 10
144.2319631881558
 20
111.7354552524839
 30
0.0
 11
137.8319631881558
 21
111.7354552524839
 31
0.0
  0
LINE
  5
47E
330
6C
100
AcDbEntity
  8
Visible Edges(ISO)
100
AcDbLine
 10
144.2319631881558
 20
111.7354552524839
 30
0.0
 11
144.2319631881558
 21
141.7354552524839
 31
0.0
  0
ELLIPSE
  5
47F
330
6C
100
AcDbEntity
  8
Visible Edges(ISO)
100
AcDbEllipse
 10
145.0193064858937
 20
235.9060888625046
 30
0.0
 11
-1.771564351124636
 21
3.076371198315371
 31
0.0
210
0.0
220
0.0
230
1.0
 40
0.5780931159158105
 41
0.0
 42
6.283185307179586
  0
ELLIPSE
  5
480
330
6C
100
AcDbEntity
  8
Visible Edges(ISO)
100
AcDbEllipse
 10
146.1153219967327
 20
236.5372422188828
 30
0.0
 11
-0.998064423168809
 21
1.733166872290349
 31
0.0
210
0.0
220
0.0
230
1.0
 40
0.5780931159158105
 41
5.83197518018068
 42
9.875988087768298
  0
ELLIPSE
  5
481
330
6C
100
AcDbEntity
  8
Visible Edges(ISO)
100
AcDbEllipse
 10
148.4134190355896
 20
223.5687009508014
 30
0.0
 11
-1.771564351124636
 21
3.076371198315371
 31
0.0
210
0.0
220
0.0
230
1.0
 40
0.5780931159158105
 41
0.0
 42
6.283185307179586
  0
ELLIPSE
  5
482
330
6C
100
AcDbEntity
  8
Visible Edges(ISO)
100
AcDbEllipse
 10
149.5094345464286
 20
224.1998543071796
 30
0.0
 11
-0.9980644231688099
 21
1.73316687229035
 31
0.0
210
0.0
220
0.0
230
1.0
 40
0.5780931159158105
 41
5.83197518018068
 42
9.875988087768298
  0
LINE
  5
483
330
6C
100
AcDbEntity
  8
Visible Edges(ISO)
100
AcDbLine
 10
141.6251939361978
 20
223.7170630289316
 30
0.0
 11
141.6251939361978
 21
248.2434767742077
 31
0.0
  0
LINE
  5
484
330
6C
100
AcDbEntity
  8
Visible Edges(ISO)
100
AcDbLine
 10
144.7364637734191
 20
250.0351379148948
 30
0.0
 11
141.6251939361978
 21
248.2434767742077
 31
0.0
  0
LINE
  5
485
330
6C
100
AcDbEntity
  8
Visible Edges(ISO)
100
AcDbLine
 10
141.6251939361978
 20
248.2434767742077
 30
0.0
 11
144.7364637734191
 21
246.4518156335217
 31
0.0
  0
LINE
  5
486
330
6C
100
AcDbEntity
  8
Visible Edges(ISO)
100
AcDbLine
 10
144.7364637734191
 20
246.4518156335217
 30
0.0
 11
144.7364637734191
 21
252.9921926322621
 31
0.0
  0
LINE
  5
487
330
6C
100
AcDbEntity
  8
Visible Edges(ISO)
100
AcDbLine
 10
149.2619471730123
 20
255.5982452005334
 30
0.0
 11
144.7364637734191
 21
252.9921926322621
 31
0.0
  0
LINE
  5
488
330
6C
100
AcDbEntity
  8
Visible Edges(ISO)
100
AcDbLine
 10
144.7364637734191
 20
252.9921926322621
 30
0.0
 11
148.6255510699456
 21
250.7526162064045
 31
0.0
  0
LINE
  5
489
330
6C
100
AcDbEntity
  8
Visible Edges(ISO)
100
AcDbLine
 10
153.1510344695389
 20
253.3586687746759
 30
0.0
 11
148.6255510699456
 21
250.7526162064045
 31
0.0
  0
LINE
  5
48A
330
6C
100
AcDbEntity
  8
Visible Edges(ISO)
100
AcDbLine
 10
153.1510344695389
 20
253.3586687746759
 30
0.0
 11
149.2619471730123
 21
255.5982452005334
 31
0.0
  0
LINE
  5
48B
330
6C
100
AcDbEntity
  8
Visible Edges(ISO)
100
AcDbLine
 10
148.6255510699456
 20
250.7526162064045
 30
0.0
 11
148.6255510699456
 21
244.2122392076642
 31
0.0
  0
LINE
  5
48C
330
6C
100
AcDbEntity
  8
Visible Edges(ISO)
100
AcDbLine
 10
153.1510344695389
 20
246.8182917759356
 30
0.0
 11
148.6255510699456
 21
244.2122392076642
 31
0.0
  0
LINE
  5
48D
330
6C
100
AcDbEntity
  8
Visible Edges(ISO)
100
AcDbLine
 10
153.1510344695389
 20
246.8182917759356
 30
0.0
 11
153.1510344695389
 21
253.3586687746759
 31
0.0
  0
LINE
  5
48E
330
6C
100
AcDbEntity
  8
Visible Edges(ISO)
100
AcDbLine
 10
148.6255510699456
 20
244.2122392076642
 30
0.0
 11
151.7368209071669
 21
242.4205780669782
 31
0.0
  0
LINE
  5
48F
330
6C
100
AcDbEntity
  8
Visible Edges(ISO)
100
AcDbLine
 10
156.2623043067602
 20
245.0266306352495
 30
0.0
 11
151.7368209071669
 21
242.4205780669782
 31
0.0
  0
LINE
  5
490
330
6C
100
AcDbEntity
  8
Visible Edges(ISO)
100
AcDbLine
 10
156.2623043067602
 20
245.0266306352495
 30
0.0
 11
153.1510344695389
 21
246.8182917759356
 31
0.0
  0
LINE
  5
491
330
6C
100
AcDbEntity
  8
Visible Edges(ISO)
100
AcDbLine
 10
151.7368209071669
 20
242.4205780669782
 30
0.0
 11
151.7368209071669
 21
217.894164321702
 31
0.0
  0
LINE
  5
492
330
6C
100
AcDbEntity
  8
Visible Edges(ISO)
100
AcDbLine
 10
156.2623043067602
 20
220.5002168899734
 30
0.0
 11
151.7368209071669
 21
217.894164321702
 31
0.0
  0
LINE
  5
493
330
6C
100
AcDbEntity
  8
Visible Edges(ISO)
100
AcDbLine
 10
156.2623043067602
 20
220.5002168899734
 30
0.0
 11
156.2623043067602
 21
245.0266306352495
 31
0.0
  0
LINE
  5
494
330
6C
100
AcDbEntity
  8
Visible Edges(ISO)
100
AcDbLine
 10
151.7368209071669
 20
217.894164321702
 30
0.0
 11
141.6251939361978
 21
223.7170630289316
 31
0.0
  0
DIMENSION
  5
495
330
6C
100
AcDbEntity
  8
Dimensions(ISO)
  6
Continuous
 62
     7
370
    25
100
AcDbDimension
  2
*D7
 10
137.8319631881558
 20
99.70421533721395
 30
0.0
 11
141.0319631881558
 21
99.70421533721395
 31
0.0
 70
   160
  1
<>
 42
6.399999999999977
  3
DEFAULT-ISO
100
AcDbAlignedDimension
 13
144.2319631881558
 23
111.7354552524839
 33
0.0
 14
137.8319631881558
 24
111.7354552524839
 34
0.0
 50
180.0
100
AcDbRotatedDimension
1001
ACAD
1000
DSTYLE
1002
{
1070
   172
1070
     1
1070
   289
1070
     1
1070
   271
1070
     0
1070
   272
1070
     2
1070
    48
1040
0.0
1070
    47
1040
0.0
1002
}
  0
DIMENSION
  5
595
330
6C
100
AcDbEntity
  8
Dimensions(ISO)
  6
Continuous
 62
     7
370
    25
100
AcDbDimension
  2
*D8
 10
71.59797984579181
 20
98.87341260363145
 30
0.0
 11
78.74797984579181
 21
98.87341260363145
 31
0.0
 70
   160
  1
<>
 42
14.29999999999999
  3
DEFAULT-ISO
100
AcDbAlignedDimension
 13
85.89797984579181
 23
111.7354552524839
 33
0.0
 14
71.59797984579181
 24
111.7354552524839
 34
0.0
 50
180.0
100
AcDbRotatedDimension
1001
ACAD
1000
DSTYLE
1002
{
1070
   172
1070
     0
1070
   289
1070
     1
1070
   271
1070
     0
1070
   272
1070
     2
1070
    48
1040
0.0
1070
    47
1040
0.0
1002
}
  0
DIMENSION
  5
677
330
6C
100
AcDbEntity
  8
Dimensions(ISO)
  6
Continuous
 62
     7
370
    25
100
AcDbDimension
  2
*D9
 10
169.7312659451601
 20
149.7354552524839
 30
0.0
 11
169.7312659451601
 21
130.7354552524839
 31
0.0
 70
   160
  1
<>
 42
38.0
  3
DEFAULT-ISO
100
AcDbAlignedDimension
 13
144.2319631881558
 23
111.7354552524839
 33
0.0
 14
144.2319631881545
 24
149.7354552524839
 34
0.0
 50
90.0
100
AcDbRotatedDimension
1001
ACAD
1000
DSTYLE
1002
{
1070
   172
1070
     0
1070
   289
1070
     1
1070
   271
1070
     0
1070
   272
1070
     2
1070
    48
1040
0.0
1070
    47
1040
0.0
1002
}
  0
DIMENSION
  5
759
330
6C
100
AcDbEntity
  8
Dimensions(ISO)
  6
Continuous
 62
     7
370
    25
100
AcDbDimension
  2
*D10
 10
75.9979798457918
 20
161.1836173428963
 30
0.0
 11
78.7479798457918
 21
161.1836173428963
 31
0.0
 70
   160
  1
<>
 42
5.5
  3
DEFAULT-ISO
100
AcDbAlignedDimension
 13
81.4979798457918
 23
149.7354552524839
 33
0.0
 14
75.9979798457918
 24
149.7354552524839
 34
0.0
 50
180.0
100
AcDbRotatedDimension
1001
ACAD
1000
DSTYLE
1002
{
1070
   172
1070
     1
1070
   289
1070
     1
1070
   271
1070
     1
1070
   272
1070
     2
1070
    48
1040
0.0
1070
    47
1040
0.0
1002
}
  0
DIMENSION
  5
857
330
6C
100
AcDbEntity
  8
Dimensions(ISO)
  6
Continuous
 62
     7
370
    25
100
AcDbDimension
  2
*D11
 10
103.4979798457918
 20
149.7354552524839
 30
0.0
 11
103.4979798457918
 21
145.7354552524839
 31
0.0
 70
   160
  1
<>
 42
8.0
  3
DEFAULT-ISO
100
AcDbAlignedDimension
 13
85.89797984579181
 23
141.7354552524839
 33
0.0
 14
81.4979798457918
 24
149.7354552524839
 34
0.0
 50
90.0
100
AcDbRotatedDimension
1001
ACAD
1000
DSTYLE
1002
{
1070
   172
1070
     0
1070
   289
1070
     1
1070
   271
1070
     0
1070
   272
1070
     2
1070
    48
1040
0.0
1070
    47
1040
0.0
1002
}
  0
DIMENSION
  5
93A
330
6C
100
AcDbEntity
  8
Dimensions(ISO)
  6
Continuous
 62
     7
370
    25
100
AcDbDimension
  2
*D12
 10
78.39797984579053
 20
129.0354572524839
 30
0.0
 11
51.59111446913055
 21
129.0354304456184
 31
0.0
 70
   163
  1
<>
 42
4.00000000000001
  3
DEFAULT-ISO
100
AcDbDiametricDimension
 15
74.39797984579252
 25
129.0354532524839
 35
0.0
 40
0.0
1001
ACAD
1000
DSTYLE
1002
{
1070
   144
1040
1.0
1070
   289
1070
     2
1070
   271
1070
     0
1070
   272
1070
     2
1070
    48
1040
0.0
1070
    47
1040
0.0
1002
}
1001
ACAD_DSTYLE_DIMRADIAL_EXTENSION
1070
   387
1070
     1
1070
   388
1040
0.0
1070
   390
1040
0.0
  0
DIMENSION
  5
9E2
330
6C
100
AcDbEntity
  8
Dimensions(ISO)
  6
Continuous
 62
     7
370
    25
100
AcDbDimension
  2
*D13
 10
77.64797984579359
 20
116.3354588024832
 30
0.0
 11
97.4514263465361
 21
116.3354389990373
 31
0.0
 70
   163
  1
<>
 42
7.1
  3
DEFAULT-ISO
100
AcDbDiametricDimension
 15
84.74797984578977
 25
116.3354517024834
 35
0.0
 40
0.0
1001
ACAD
1000
DSTYLE
1002
{
1070
   144
1040
1.000000000000036
1070
   289
1070
     2
1070
   271
1070
     0
1070
   272
1070
     2
1070
    48
1040
0.0
1070
    47
1040
0.0
1002
}
1001
ACAD_DSTYLE_DIMRADIAL_EXTENSION
1070
   387
1070
     1
1070
   388
1040
0.0
1070
   390
1040
0.0
  0
ENDSEC
  0
SECTION
  2
OBJECTS
  0
DICTIONARY
  5
C
330
0
100
AcDbDictionary
281
     1
  3
ACAD_CIP_PREVIOUS_PRODUCT_INFO
350
A87
  3
ACAD_COLOR
350
63
  3
ACAD_GROUP
350
D
  3
ACAD_LAYOUT
350
62
  3
ACAD_MATERIAL
350
10
  3
ACAD_MLEADERSTYLE
350
66
  3
ACAD_MLINESTYLE
350
5F
  3
ACAD_PLOTSETTINGS
350
61
  3
ACAD_PLOTSTYLENAME
350
E
  3
ACAD_SCALELIST
350
42
  3
ACAD_TABLESTYLE
350
64
  3
ACAD_VISUALSTYLE
350
29
  3
ACDB_RECOMPOSE_DATA
350
A99
  3
AcDbVariableDictionary
350
A88
  3
DWGPROPS
350
A9A
  0
DICTIONARY
  5
AD6
330
9DF
100
AcDbDictionary
280
     1
281
     1
  3
ACAD_MTEXT_RT
360
AD7
  0
DICTIONARY
  5
AD8
330
A84
100
AcDbDictionary
280
     1
281
     1
  3
ACAD_MTEXT_RT
360
AD9
  0
XRECORD
  5
A87
102
{ACAD_REACTORS
330
C
102
}
330
C
100
AcDbXrecord
280
     1
300
INVNTOR
300
2012
300
PDSP_F_S
  0
DICTIONARY
  5
63
102
{ACAD_REACTORS
330
C
102
}
330
C
100
AcDbDictionary
281
     1
  0
DICTIONARY
  5
D
102
{ACAD_REACTORS
330
C
102
}
330
C
100
AcDbDictionary
281
     1
  0
DICTIONARY
  5
62
102
{ACAD_REACTORS
330
C
102
}
330
C
100
AcDbDictionary
281
     1
  3
Layout1
350
6B
  3
Layout2
350
73
  3
Model
350
6F
  0
DICTIONARY
  5
10
102
{ACAD_REACTORS
330
C
102
}
330
C
100
AcDbDictionary
281
     1
  3
ByBlock
350
19
  3
ByLayer
350
11
  3
Global
350
21
  0
DICTIONARY
  5
66
102
{ACAD_REACTORS
330
C
102
}
330
C
100
AcDbDictionary
281
     1
  3
Standard
350
67
  0
DICTIONARY
  5
5F
102
{ACAD_REACTORS
330
C
102
}
330
C
100
AcDbDictionary
281
     1
  3
Standard
350
60
  0
DICTIONARY
  5
61
102
{ACAD_REACTORS
330
C
102
}
330
C
100
AcDbDictionary
281
     1
  0
ACDBDICTIONARYWDFLT
  5
E
102
{ACAD_REACTORS
330
C
102
}
330
C
100
AcDbDictionary
281
     1
  3
Normal
350
F
100
AcDbDictionaryWithDefault
340
F
  0
DICTIONARY
  5
42
102
{ACAD_REACTORS
330
C
102
}
330
C
100
AcDbDictionary
281
     1
  3
A0
350
43
  3
A1
350
44
  3
A2
350
45
  3
A3
350
46
  3
A4
350
47
  3
A5
350
48
  3
A6
350
49
  3
A7
350
4A
  3
A8
350
4B
  3
A9
350
4C
  3
B0
350
4D
  3
B1
350
4E
  3
B2
350
4F
  3
B3
350
50
  3
B4
350
51
  3
B5
350
52
  3
B6
350
53
  0
DICTIONARY
  5
64
102
{ACAD_REACTORS
330
C
102
}
330
C
100
AcDbDictionary
281
     1
  3
Standard
350
65
  0
DICTIONARY
  5
29
102
{ACAD_REACTORS
330
C
102
}
330
C
100
AcDbDictionary
281
     1
  3
2dWireframe
350
2F
  3
Basic
350
2E
  3
Brighten
350
35
  3
ColorChange
350
39
  3
Conceptual
350
32
  3
Dim
350
34
  3
EdgeColorOff
350
41
  3
Facepattern
350
38
  3
Flat
350
2A
  3
FlatWithEdges
350
2B
  3
Gouraud
350
2C
  3
GouraudWithEdges
350
2D
  3
Hidden
350
31
  3
JitterOff
350
3F
  3
Linepattern
350
37
  3
OverhangOff
350
40
  3
Realistic
350
33
  3
Shaded
350
3E
  3
Shaded with edges
350
3D
  3
Shades of Gray
350
3A
  3
Sketchy
350
3B
  3
Thicken
350
36
  3
Wireframe
350
30
  3
X-Ray
350
3C
  0
XRECORD
  5
A99
102
{ACAD_REACTORS
330
C
102
}
330
C
100
AcDbXrecord
280
     1
 90
        1
330
65
330
93A
330
9E2
  0
DICTIONARY
  5
A88
102
{ACAD_REACTORS
330
C
102
}
330
C
100
AcDbDictionary
281
     1
  3
CANNOSCALE
350
A8C
  3
CMLEADERSTYLE
350
A8A
  3
CTABLESTYLE
350
A89
  3
DIMASSOC
350
A93
  3
HIDETEXT
350
A92
  3
INDEXCTL
350
A91
  3
LAYEREVAL
350
A8E
  3
LAYERNOTIFY
350
A8F
  3
LIGHTINGUNITS
350
A8D
  3
MSLTSCALE
350
A8B
  3
SORTENTS
350
A90
  3
XCLIPFRAME
350
A94
  0
XRECORD
  5
A9A
102
{ACAD_REACTORS
330
C
102
}
330
C
100
AcDbXrecord
280
     1
  1
DWGPROPS COOKIE
  2

  3

  4
davidp
  6

  7

  8

  9

300
Manager=
301
Company=
302
Category=
303
Part Number=113 81X- GUIDE LVL A
304
Description=
305
Project=
306
Designer=davidp
307
Engineer=
308
Authority=
309
Cost Center=
 40
0.0000408680555556
 41
2456345.384367396
 42
2456345.384367396
  1

 90
       16
300
Vendor=
300
User Status=
300
Design Status=WorkInProgress
300
Checked by=
300
Engr Approved by=
300
Mfg Approved by=
  0
XRECORD
  5
AD7
102
{ACAD_REACTORS
330
AD6
102
}
330
AD6
100
AcDbXrecord
280
     1
 40
4413.0
  1
\A1;\U+22054
  0
XRECORD
  5
AD9
102
{ACAD_REACTORS
330
AD8
102
}
330
AD8
100
AcDbXrecord
280
     1
 40
4449.0
  1
\A1;\U+22057
  0
LAYOUT
  5
6B
102
{ACAD_XDICTIONARY
360
AD0
102
}
102
{ACAD_REACTORS
330
62
102
}
330
62
100
AcDbPlotSettings
  1

  2

  4

  6

 40
0.0
 41
0.0
 42
0.0
 43
0.0
 44
0.0
 45
0.0
 46
0.0
 47
0.0
 48
0.0
 49
0.0
140
0.0
141
0.0
142
1.0
143
1.0
 70
   688
 72
     0
 73
     0
 74
     5
  7

 75
    16
147
1.0
148
0.0
149
0.0
100
AcDbLayout
  1
Layout1
 70
     1
 71
     1
 10
0.0
 20
0.0
 11
12.0
 21
9.0
 12
0.0
 22
0.0
 32
0.0
 14
0.0
 24
0.0
 34
0.0
 15
0.0
 25
0.0
 35
0.0
146
0.0
 13
0.0
 23
0.0
 33
0.0
 16
1.0
 26
0.0
 36
0.0
 17
0.0
 27
1.0
 37
0.0
 76
     0
330
68
  0
LAYOUT
  5
73
102
{ACAD_XDICTIONARY
360
AD4
102
}
102
{ACAD_REACTORS
330
62
102
}
330
62
100
AcDbPlotSettings
  1

  2

  4

  6

 40
0.0
 41
0.0
 42
0.0
 43
0.0
 44
0.0
 45
0.0
 46
0.0
 47
0.0
 48
0.0
 49
0.0
140
0.0
141
0.0
142
1.0
143
1.0
 70
   688
 72
     0
 73
     0
 74
     5
  7

 75
    16
147
1.0
148
0.0
149
0.0
100
AcDbLayout
  1
Layout2
 70
     1
 71
     2
 10
0.0
 20
0.0
 11
12.0
 21
9.0
 12
0.0
 22
0.0
 32
0.0
 14
0.0
 24
0.0
 34
0.0
 15
0.0
 25
0.0
 35
0.0
146
0.0
 13
0.0
 23
0.0
 33
0.0
 16
1.0
 26
0.0
 36
0.0
 17
0.0
 27
1.0
 37
0.0
 76
     0
330
70
  0
LAYOUT
  5
6F
102
{ACAD_XDICTIONARY
360
AD2
102
}
102
{ACAD_REACTORS
330
62
102
}
330
62
100
AcDbPlotSettings
  1

  2

  4

  6

 40
0.0
 41
0.0
 42
0.0
 43
0.0
 44
0.0
 45
0.0
 46
0.0
 47
0.0
 48
0.0
 49
0.0
140
0.0
141
0.0
142
1.0
143
1.0
 70
  1712
 72
     0
 73
     0
 74
     0
  7

 75
     0
147
1.0
148
0.0
149
0.0
100
AcDbLayout
  1
Model
 70
     1
 71
     0
 10
0.0
 20
0.0
 11
12.0
 21
9.0
 12
0.0
 22
0.0
 32
0.0
 14
0.0
 24
0.0
 34
0.0
 15
0.0
 25
0.0
 35
0.0
146
0.0
 13
0.0
 23
0.0
 33
0.0
 16
1.0
 26
0.0
 36
0.0
 17
0.0
 27
1.0
 37
0.0
 76
     0
330
6C
  0
MATERIAL
  5
19
102
{ACAD_XDICTIONARY
360
1A
102
}
102
{ACAD_REACTORS
330
10
102
}
330
10
100
AcDbMaterial
  1
ByBlock
 72
     0
 43
0.0208333333333333
 43
0.0
 43
0.0
 43
0.0
 43
0.0
 43
0.0208333333333333
 43
0.0
 43
0.0
 43
0.0
 43
0.0
 43
1.0
 43
0.0
 43
0.0
 43
0.0
 43
0.0
 43
1.0
 77
     0
 47
0.0208333333333333
 47
0.0
 47
0.0
 47
0.0
 47
0.0
 47
0.0208333333333333
 47
0.0
 47
0.0
 47
0.0
 47
0.0
 47
1.0
 47
0.0
 47
0.0
 47
0.0
 47
0.0
 47
1.0
171
     0
 49
0.0208333333333333
 49
0.0
 49
0.0
 49
0.0
 49
0.0
 49
0.0208333333333333
 49
0.0
 49
0.0
 49
0.0
 49
0.0
 49
1.0
 49
0.0
 49
0.0
 49
0.0
 49
0.0
 49
1.0
175
     0
142
0.0208333333333333
142
0.0
142
0.0
142
0.0
142
0.0
142
0.0208333333333333
142
0.0
142
0.0
142
0.0
142
0.0
142
1.0
142
0.0
142
0.0
142
0.0
142
0.0
142
1.0
179
     0
144
0.0208333333333333
144
0.0
144
0.0
144
0.0
144
0.0
144
0.0208333333333333
144
0.0
144
0.0
144
0.0
144
0.0
144
1.0
144
0.0
144
0.0
144
0.0
144
0.0
144
1.0
147
0.0208333333333333
147
0.0
147
0.0
147
0.0
147
0.0
147
0.0208333333333333
147
0.0
147
0.0
147
0.0
147
0.0
147
1.0
147
0.0
147
0.0
147
0.0
147
0.0
147
1.0
  0
MATERIAL
  5
11
102
{ACAD_XDICTIONARY
360
12
102
}
102
{ACAD_REACTORS
330
10
102
}
330
10
100
AcDbMaterial
  1
ByLayer
 72
     0
 43
0.0208333333333333
 43
0.0
 43
0.0
 43
0.0
 43
0.0
 43
0.0208333333333333
 43
0.0
 43
0.0
 43
0.0
 43
0.0
 43
1.0
 43
0.0
 43
0.0
 43
0.0
 43
0.0
 43
1.0
 77
     0
 47
0.0208333333333333
 47
0.0
 47
0.0
 47
0.0
 47
0.0
 47
0.0208333333333333
 47
0.0
 47
0.0
 47
0.0
 47
0.0
 47
1.0
 47
0.0
 47
0.0
 47
0.0
 47
0.0
 47
1.0
171
     0
 49
0.0208333333333333
 49
0.0
 49
0.0
 49
0.0
 49
0.0
 49
0.0208333333333333
 49
0.0
 49
0.0
 49
0.0
 49
0.0
 49
1.0
 49
0.0
 49
0.0
 49
0.0
 49
0.0
 49
1.0
175
     0
142
0.0208333333333333
142
0.0
142
0.0
142
0.0
142
0.0
142
0.0208333333333333
142
0.0
142
0.0
142
0.0
142
0.0
142
1.0
142
0.0
142
0.0
142
0.0
142
0.0
142
1.0
179
     0
144
0.0208333333333333
144
0.0
144
0.0
144
0.0
144
0.0
144
0.0208333333333333
144
0.0
144
0.0
144
0.0
144
0.0
144
1.0
144
0.0
144
0.0
144
0.0
144
0.0
144
1.0
147
0.0208333333333333
147
0.0
147
0.0
147
0.0
147
0.0
147
0.0208333333333333
147
0.0
147
0.0
147
0.0
147
0.0
147
1.0
147
0.0
147
0.0
147
0.0
147
0.0
147
1.0
  0
MATERIAL
  5
21
102
{ACAD_XDICTIONARY
360
22
102
}
102
{ACAD_REACTORS
330
10
102
}
330
10
100
AcDbMaterial
  1
Global
 72
     0
 43
0.0208333333333333
 43
0.0
 43
0.0
 43
0.0
 43
0.0
 43
0.0208333333333333
 43
0.0
 43
0.0
 43
0.0
 43
0.0
 43
1.0
 43
0.0
 43
0.0
 43
0.0
 43
0.0
 43
1.0
 77
     0
 47
0.0208333333333333
 47
0.0
 47
0.0
 47
0.0
 47
0.0
 47
0.0208333333333333
 47
0.0
 47
0.0
 47
0.0
 47
0.0
 47
1.0
 47
0.0
 47
0.0
 47
0.0
 47
0.0
 47
1.0
171
     0
 49
0.0208333333333333
 49
0.0
 49
0.0
 49
0.0
 49
0.0
 49
0.0208333333333333
 49
0.0
 49
0.0
 49
0.0
 49
0.0
 49
1.0
 49
0.0
 49
0.0
 49
0.0
 49
0.0
 49
1.0
175
     0
142
0.0208333333333333
142
0.0
142
0.0
142
0.0
142
0.0
142
0.0208333333333333
142
0.0
142
0.0
142
0.0
142
0.0
142
1.0
142
0.0
142
0.0
142
0.0
142
0.0
142
1.0
179
     0
144
0.0208333333333333
144
0.0
144
0.0
144
0.0
144
0.0
144
0.0208333333333333
144
0.0
144
0.0
144
0.0
144
0.0
144
1.0
144
0.0
144
0.0
144
0.0
144
0.0
144
1.0
147
0.0208333333333333
147
0.0
147
0.0
147
0.0
147
0.0
147
0.0208333333333333
147
0.0
147
0.0
147
0.0
147
0.0
147
1.0
147
0.0
147
0.0
147
0.0
147
0.0
147
1.0
  0
MLEADERSTYLE
  5
67
102
{ACAD_XDICTIONARY
360
A97
102
}
102
{ACAD_REACTORS
330
66
102
}
330
66
100
AcDbMLeaderStyle
170
     2
171
     1
172
     0
 90
        2
 40
0.0
 41
0.0
173
     1
 91
-1056964608
340
5B
 92
       -2
290
     1
 42
0.09
291
     1
 43
0.36
  3
Standard
 44
0.18
300

342
55
174
     1
178
     6
175
     1
176
     0
 93
-1056964608
 45
0.18
292
     0
297
     0
 46
0.18
 94
-1056964608
 47
1.0
 49
1.0
140
1.0
293
     1
141
0.0
294
     1
177
     0
142
1.0
295
     0
296
     0
143
0.125
1001
ACAD_MLEADERVER
1070
     2
  0
MLINESTYLE
  5
60
102
{ACAD_REACTORS
330
5F
102
}
330
5F
100
AcDbMlineStyle
  2
STANDARD
 70
     0
  3

 62
   256
 51
90.0
 52
90.0
 71
     2
 49
0.5
 62
   256
  6
BYLAYER
 49
-0.5
 62
   256
  6
BYLAYER
  0
ACDBPLACEHOLDER
  5
F
102
{ACAD_REACTORS
330
E
102
}
330
E
  0
SCALE
  5
43
102
{ACAD_REACTORS
330
42
102
}
330
42
100
AcDbScale
 70
     0
300
1:1
140
1.0
141
1.0
290
     1
  0
SCALE
  5
44
102
{ACAD_REACTORS
330
42
102
}
330
42
100
AcDbScale
 70
     0
300
1/128" = 1'-0"
140
0.0078125
141
12.0
290
     0
  0
SCALE
  5
45
102
{ACAD_REACTORS
330
42
102
}
330
42
100
AcDbScale
 70
     0
300
1/64" = 1'-0"
140
0.015625
141
12.0
290
     0
  0
SCALE
  5
46
102
{ACAD_REACTORS
330
42
102
}
330
42
100
AcDbScale
 70
     0
300
1/32" = 1'-0"
140
0.03125
141
12.0
290
     0
  0
SCALE
  5
47
102
{ACAD_REACTORS
330
42
102
}
330
42
100
AcDbScale
 70
     0
300
1/16" = 1'-0"
140
0.0625
141
12.0
290
     0
  0
SCALE
  5
48
102
{ACAD_REACTORS
330
42
102
}
330
42
100
AcDbScale
 70
     0
300
3/32" = 1'-0"
140
0.09375
141
12.0
290
     0
  0
SCALE
  5
49
102
{ACAD_REACTORS
330
42
102
}
330
42
100
AcDbScale
 70
     0
300
1/8" = 1'-0"
140
0.125
141
12.0
290
     0
  0
SCALE
  5
4A
102
{ACAD_REACTORS
330
42
102
}
330
42
100
AcDbScale
 70
     0
300
3/16" = 1'-0"
140
0.1875
141
12.0
290
     0
  0
SCALE
  5
4B
102
{ACAD_REACTORS
330
42
102
}
330
42
100
AcDbScale
 70
     0
300
1/4" = 1'-0"
140
0.25
141
12.0
290
     0
  0
SCALE
  5
4C
102
{ACAD_REACTORS
330
42
102
}
330
42
100
AcDbScale
 70
     0
300
3/8" = 1'-0"
140
0.375
141
12.0
290
     0
  0
SCALE
  5
4D
102
{ACAD_REACTORS
330
42
102
}
330
42
100
AcDbScale
 70
     0
300
1/2" = 1'-0"
140
0.5
141
12.0
290
     0
  0
SCALE
  5
4E
102
{ACAD_REACTORS
330
42
102
}
330
42
100
AcDbScale
 70
     0
300
3/4" = 1'-0"
140
0.75
141
12.0
290
     0
  0
SCALE
  5
4F
102
{ACAD_REACTORS
330
42
102
}
330
42
100
AcDbScale
 70
     0
300
1" = 1'-0"
140
1.0
141
12.0
290
     0
  0
SCALE
  5
50
102
{ACAD_REACTORS
330
42
102
}
330
42
100
AcDbScale
 70
     0
300
1-1/2" = 1'-0"
140
1.5
141
12.0
290
     0
  0
SCALE
  5
51
102
{ACAD_REACTORS
330
42
102
}
330
42
100
AcDbScale
 70
     0
300
3" = 1'-0"
140
3.0
141
12.0
290
     0
  0
SCALE
  5
52
102
{ACAD_REACTORS
330
42
102
}
330
42
100
AcDbScale
 70
     0
300
6" = 1'-0"
140
6.0
141
12.0
290
     0
  0
SCALE
  5
53
102
{ACAD_REACTORS
330
42
102
}
330
42
100
AcDbScale
 70
     0
300
1'-0" = 1'-0"
140
12.0
141
12.0
290
     0
  0
TABLESTYLE
  5
65
102
{ACAD_XDICTIONARY
360
A95
102
}
102
{ACAD_REACTORS
330
64
102
}
330
64
100
AcDbTableStyle
  3
Standard
 70
     0
 71
     0
 40
0.06
 41
0.06
280
     0
281
     0
  7
Standard
140
0.18
170
     2
 62
     0
 63
     7
283
     0
274
    -2
284
     1
 64
     0
275
    -2
285
     1
 65
     0
276
    -2
286
     1
 66
     0
277
    -2
287
     1
 67
     0
278
    -2
288
     1
 68
     0
279
    -2
289
     1
 69
     0
  7
Standard
140
0.25
170
     5
 62
     0
 63
     7
283
     0
274
    -2
284
     1
 64
     0
275
    -2
285
     1
 65
     0
276
    -2
286
     1
 66
     0
277
    -2
287
     1
 67
     0
278
    -2
288
     1
 68
     0
279
    -2
289
     1
 69
     0
  7
Standard
140
0.18
170
     5
 62
     0
 63
     7
283
     0
274
    -2
284
     1
 64
     0
275
    -2
285
     1
 65
     0
276
    -2
286
     1
 66
     0
277
    -2
287
     1
 67
     0
278
    -2
288
     1
 68
     0
279
    -2
289
     1
 69
     0
  0
VISUALSTYLE
  5
2F
102
{ACAD_XDICTIONARY
360
AA8
102
}
102
{ACAD_REACTORS
330
29
102
}
330
29
100
AcDbVisualStyle
  2
2dWireframe
 70
     4
 71
     0
 72
     2
 73
     0
 90
        0
 40
-0.6
 41
-30.0
 62
     5
 63
     7
 74
     1
 91
        4
 64
     7
 65
   257
 75
     1
175
     1
 42
1.0
 92
        0
 66
   257
 43
1.0
 76
     1
 77
     6
 78
     2
 67
     7
 79
     5
170
     0
171
     0
290
     0
174
     0
 93
        1
 44
0.0
173
     0
291
     0
 45
0.0
1001
ACAD
1000
AcDbSavedByObjectVersion
1070
     0
  0
VISUALSTYLE
  5
2E
102
{ACAD_XDICTIONARY
360
AA6
102
}
102
{ACAD_REACTORS
330
29
102
}
330
29
100
AcDbVisualStyle
  2
Basic
 70
     7
 71
     1
 72
     0
 73
     1
 90
        0
 40
-0.6
 41
-30.0
 62
     5
 63
     7
 74
     0
 91
        4
 64
     7
 65
   257
 75
     1
175
     1
 42
1.0
 92
        8
 66
     7
 43
1.0
 76
     1
 77
     6
 78
     2
 67
     7
 79
     5
170
     0
171
     0
290
     0
174
     0
 93
        1
 44
0.0
173
     0
291
     1
 45
0.0
1001
ACAD
1000
AcDbSavedByObjectVersion
1070
     0
  0
VISUALSTYLE
  5
35
102
{ACAD_XDICTIONARY
360
AB4
102
}
102
{ACAD_REACTORS
330
29
102
}
330
29
100
AcDbVisualStyle
  2
Brighten
 70
    12
 71
     2
 72
     2
 73
     0
 90
        0
 40
-0.6
 41
-30.0
 62
     5
 63
     7
 74
     1
 91
        4
 64
     7
 65
   257
 75
     1
175
     1
 42
1.0
 92
        8
 66
     7
 43
1.0
 76
     1
 77
     6
 78
     2
 67
     7
 79
     5
170
     0
171
     0
290
     0
174
     0
 93
        1
 44
50.0
173
     0
291
     1
 45
0.0
1001
ACAD
1000
AcDbSavedByObjectVersion
1070
     0
  0
VISUALSTYLE
  5
39
102
{ACAD_XDICTIONARY
360
ABC
102
}
102
{ACAD_REACTORS
330
29
102
}
330
29
100
AcDbVisualStyle
  2
ColorChange
 70
    16
 71
     2
 72
     2
 73
     3
 90
        0
 40
-0.6
 41
-30.0
 62
     5
 63
     8
 74
     1
 91
        4
 64
     7
 65
   257
 75
     1
175
     1
 42
1.0
 92
        8
 66
     8
 43
1.0
 76
     1
 77
     6
 78
     2
 67
     7
 79
     5
170
     0
171
     0
290
     0
174
     0
 93
        1
 44
0.0
173
     0
291
     1
 45
0.0
1001
ACAD
1000
AcDbSavedByObjectVersion
1070
     0
  0
VISUALSTYLE
  5
32
102
{ACAD_XDICTIONARY
360
AAE
102
}
102
{ACAD_REACTORS
330
29
102
}
330
29
100
AcDbVisualStyle
  2
Conceptual
 70
     9
 71
     3
 72
     2
 73
     0
 90
        0
 40
-0.6
 41
-30.0
 62
     5
 63
     7
 74
     2
 91
        2
 64
     7
 65
   257
 75
     1
175
     1
 42
179.0
 92
        8
 66
     7
 43
1.0
 76
     1
 77
     6
 78
     2
 67
     7
 79
     3
170
     0
171
     0
290
     0
174
     0
 93
        1
 44
0.0
173
     0
291
     0
 45
0.0
1001
ACAD
1000
AcDbSavedByObjectVersion
1070
     0
  0
VISUALSTYLE
  5
34
102
{ACAD_XDICTIONARY
360
AB2
102
}
102
{ACAD_REACTORS
330
29
102
}
330
29
100
AcDbVisualStyle
  2
Dim
 70
    11
 71
     2
 72
     2
 73
     0
 90
        0
 40
-0.6
 41
-30.0
 62
     5
 63
     7
 74
     1
 91
        4
 64
     7
 65
   257
 75
     1
175
     1
 42
1.0
 92
        8
 66
     7
 43
1.0
 76
     1
 77
     6
 78
     2
 67
     7
 79
     5
170
     0
171
     0
290
     0
174
     0
 93
        1
 44
-50.0
173
     0
291
     1
 45
0.0
1001
ACAD
1000
AcDbSavedByObjectVersion
1070
     0
  0
VISUALSTYLE
  5
41
102
{ACAD_XDICTIONARY
360
ACC
102
}
102
{ACAD_REACTORS
330
29
102
}
330
29
100
AcDbVisualStyle
  2
EdgeColorOff
 70
    22
 71
     2
 72
     2
 73
     0
 90
        0
 40
-0.6
 41
-30.0
 62
     5
 63
     7
 74
     1
 91
        4
 64
     7
 65
   257
 75
     1
175
     1
 42
1.0
 92
        8
 66
     7
 43
1.0
 76
     1
 77
     6
 78
     2
 67
     7
 79
     5
170
     0
171
     0
290
     0
174
     0
 93
        1
 44
0.0
173
     0
291
     1
 45
0.0
1001
ACAD
1000
AcDbSavedByObjectVersion
1070
     0
  0
VISUALSTYLE
  5
38
102
{ACAD_XDICTIONARY
360
ABA
102
}
102
{ACAD_REACTORS
330
29
102
}
330
29
100
AcDbVisualStyle
  2
Facepattern
 70
    15
 71
     2
 72
     2
 73
     0
 90
        0
 40
-0.6
 41
-30.0
 62
     5
 63
     7
 74
     1
 91
        4
 64
     7
 65
   257
 75
     1
175
     1
 42
1.0
 92
        8
 66
     7
 43
1.0
 76
     1
 77
     6
 78
     2
 67
     7
 79
     5
170
     0
171
     0
290
     0
174
     0
 93
        1
 44
0.0
173
     0
291
     1
 45
0.0
1001
ACAD
1000
AcDbSavedByObjectVersion
1070
     0
  0
VISUALSTYLE
  5
2A
102
{ACAD_XDICTIONARY
360
A9E
102
}
102
{ACAD_REACTORS
330
29
102
}
330
29
100
AcDbVisualStyle
  2
Flat
 70
     0
 71
     2
 72
     1
 73
     1
 90
        2
 40
-0.6
 41
30.0
 62
     5
 63
     7
 74
     0
 91
        0
 64
     7
 65
   257
 75
     1
175
     1
 42
1.0
 92
        8
 66
     7
 43
1.0
 76
     1
 77
     6
 78
     2
 67
     7
 79
     5
170
     0
171
     0
290
     0
174
     0
 93
       13
 44
0.0
173
     0
291
     1
 45
0.0
1001
ACAD
1000
AcDbSavedByObjectVersion
1070
     0
  0
VISUALSTYLE
  5
2B
102
{ACAD_XDICTIONARY
360
AA0
102
}
102
{ACAD_REACTORS
330
29
102
}
330
29
100
AcDbVisualStyle
  2
FlatWithEdges
 70
     1
 71
     2
 72
     1
 73
     1
 90
        2
 40
-0.6
 41
30.0
 62
     5
 63
     7
 74
     1
 91
        0
 64
     7
 65
   257
 75
     1
175
     1
 42
1.0
 92
        0
 66
   257
 43
1.0
 76
     1
 77
     6
 78
     2
 67
     7
 79
     5
170
     0
171
     0
290
     0
174
     0
 93
       13
 44
0.0
173
     0
291
     1
 45
0.0
1001
ACAD
1000
AcDbSavedByObjectVersion
1070
     0
  0
VISUALSTYLE
  5
2C
102
{ACAD_XDICTIONARY
360
AA2
102
}
102
{ACAD_REACTORS
330
29
102
}
330
29
100
AcDbVisualStyle
  2
Gouraud
 70
     2
 71
     2
 72
     2
 73
     1
 90
        2
 40
-0.6
 41
30.0
 62
     5
 63
     7
 74
     0
 91
        0
 64
     7
 65
   257
 75
     1
175
     1
 42
1.0
 92
        0
 66
     7
 43
1.0
 76
     1
 77
     6
 78
     2
 67
     7
 79
     5
170
     0
171
     0
290
     0
174
     0
 93
       13
 44
0.0
173
     0
291
     1
 45
0.0
1001
ACAD
1000
AcDbSavedByObjectVersion
1070
     0
  0
VISUALSTYLE
  5
2D
102
{ACAD_XDICTIONARY
360
AA4
102
}
102
{ACAD_REACTORS
330
29
102
}
330
29
100
AcDbVisualStyle
  2
GouraudWithEdges
 70
     3
 71
     2
 72
     2
 73
     1
 90
        2
 40
-0.6
 41
30.0
 62
     5
 63
     7
 74
     1
 91
        0
 64
     7
 65
   257
 75
     1
175
     1
 42
1.0
 92
        0
 66
   257
 43
1.0
 76
     1
 77
     6
 78
     2
 67
     7
 79
     5
170
     0
171
     0
290
     0
174
     0
 93
       13
 44
0.0
173
     0
291
     1
 45
0.0
1001
ACAD
1000
AcDbSavedByObjectVersion
1070
     0
  0
VISUALSTYLE
  5
31
102
{ACAD_XDICTIONARY
360
AAC
102
}
102
{ACAD_REACTORS
330
29
102
}
330
29
100
AcDbVisualStyle
  2
Hidden
 70
     6
 71
     1
 72
     2
 73
     2
 90
        0
 40
-0.6
 41
-30.0
 62
     5
 63
     7
 74
     2
 91
        2
 64
     7
 65
   257
 75
     2
175
     1
 42
40.0
 92
        0
 66
   257
 43
1.0
 76
     1
 77
     6
 78
     2
 67
     7
 79
     3
170
     0
171
     0
290
     0
174
     0
 93
        1
 44
0.0
173
     0
291
     0
 45
0.0
1001
ACAD
1000
AcDbSavedByObjectVersion
1070
     0
  0
VISUALSTYLE
  5
3F
102
{ACAD_XDICTIONARY
360
AC8
102
}
102
{ACAD_REACTORS
330
29
102
}
330
29
100
AcDbVisualStyle
  2
JitterOff
 70
    20
 71
     2
 72
     2
 73
     0
 90
        0
 40
-0.6
 41
-30.0
 62
     5
 63
     7
 74
     1
 91
        4
 64
     7
 65
   257
 75
     1
175
     1
 42
1.0
 92
       10
 66
     7
 43
1.0
 76
     1
 77
     6
 78
     2
 67
     7
 79
     5
170
     0
171
     0
290
     0
174
     0
 93
        1
 44
0.0
173
     0
291
     1
 45
0.0
1001
ACAD
1000
AcDbSavedByObjectVersion
1070
     0
  0
VISUALSTYLE
  5
37
102
{ACAD_XDICTIONARY
360
AB8
102
}
102
{ACAD_REACTORS
330
29
102
}
330
29
100
AcDbVisualStyle
  2
Linepattern
 70
    14
 71
     2
 72
     2
 73
     0
 90
        0
 40
-0.6
 41
-30.0
 62
     5
 63
     7
 74
     1
 91
        4
 64
     7
 65
   257
 75
     7
175
     7
 42
1.0
 92
        8
 66
     7
 43
1.0
 76
     1
 77
     6
 78
     2
 67
     7
 79
     5
170
     0
171
     0
290
     0
174
     0
 93
        1
 44
0.0
173
     0
291
     1
 45
0.0
1001
ACAD
1000
AcDbSavedByObjectVersion
1070
     0
  0
VISUALSTYLE
  5
40
102
{ACAD_XDICTIONARY
360
ACA
102
}
102
{ACAD_REACTORS
330
29
102
}
330
29
100
AcDbVisualStyle
  2
OverhangOff
 70
    21
 71
     2
 72
     2
 73
     0
 90
        0
 40
-0.6
 41
-30.0
 62
     5
 63
     7
 74
     1
 91
        4
 64
     7
 65
   257
 75
     1
175
     1
 42
1.0
 92
        9
 66
     7
 43
1.0
 76
     1
 77
     6
 78
     2
 67
     7
 79
     5
170
     0
171
     0
290
     0
174
     0
 93
        1
 44
0.0
173
     0
291
     1
 45
0.0
1001
ACAD
1000
AcDbSavedByObjectVersion
1070
     0
  0
VISUALSTYLE
  5
33
102
{ACAD_XDICTIONARY
360
AB0
102
}
102
{ACAD_REACTORS
330
29
102
}
330
29
100
AcDbVisualStyle
  2
Realistic
 70
     8
 71
     2
 72
     3
 73
     0
 90
        2
 40
-0.6
 41
30.0
 62
     5
 63
     7
 74
     0
 91
        0
 64
     7
 65
   257
 75
     1
175
     1
 42
1.0
 92
        8
 66
   257
 43
1.0
 76
     1
 77
     6
 78
     2
 67
     7
 79
     3
170
     0
171
     0
290
     0
174
     0
 93
       13
 44
0.0
173
     0
291
     0
 45
0.0
1001
ACAD
1000
AcDbSavedByObjectVersion
1070
     0
  0
VISUALSTYLE
  5
3E
102
{ACAD_XDICTIONARY
360
AC6
102
}
102
{ACAD_REACTORS
330
29
102
}
330
29
100
AcDbVisualStyle
  2
Shaded
 70
    27
 71
     2
 72
     2
 73
     1
 90
        2
 40
-0.6
 41
30.0
 62
     5
 63
     7
 74
     0
 91
        4
 64
     7
 65
   257
 75
     1
175
     1
 42
1.0
 92
        8
 66
   257
 43
1.0
 76
     1
 77
     6
 78
     2
 67
     8
 79
     3
170
     0
171
     0
290
     0
174
     0
 93
        5
 44
0.0
173
     0
291
     0
 45
0.0
1001
ACAD
1000
AcDbSavedByObjectVersion
1070
     0
  0
VISUALSTYLE
  5
3D
102
{ACAD_XDICTIONARY
360
AC4
102
}
102
{ACAD_REACTORS
330
29
102
}
330
29
100
AcDbVisualStyle
  2
Shaded with edges
 70
    26
 71
     2
 72
     2
 73
     1
 90
        2
 40
-0.6
 41
30.0
 62
     5
 63
     7
 74
     1
 91
       10
 64
     7
 65
   257
 75
     2
175
     1
 42
1.0
 92
        8
 66
   257
 43
1.0
 76
     1
 77
     6
 78
     2
 67
     7
 79
     3
170
     0
171
     0
290
     0
174
     0
 93
        5
 44
0.0
173
     0
291
     0
 45
0.0
1001
ACAD
1000
AcDbSavedByObjectVersion
1070
     0
  0
VISUALSTYLE
  5
3A
102
{ACAD_XDICTIONARY
360
ABE
102
}
102
{ACAD_REACTORS
330
29
102
}
330
29
100
AcDbVisualStyle
  2
Shades of Gray
 70
    23
 71
     2
 72
     2
 73
     3
 90
        0
 40
-0.6
 41
-30.0
 62
     5
 63
     7
 74
     2
 91
        2
 64
     7
 65
     7
 75
     1
175
     1
 42
40.0
 92
        8
 66
     7
 43
1.0
 76
     1
 77
     6
 78
     2
 67
     7
 79
     3
170
     0
171
     0
290
     0
174
     0
 93
        1
 44
0.0
173
     0
291
     0
 45
0.0
1001
ACAD
1000
AcDbSavedByObjectVersion
1070
     0
  0
VISUALSTYLE
  5
3B
102
{ACAD_XDICTIONARY
360
AC0
102
}
102
{ACAD_REACTORS
330
29
102
}
330
29
100
AcDbVisualStyle
  2
Sketchy
 70
    24
 71
     1
 72
     2
 73
     2
 90
        0
 40
-0.6
 41
-30.0
 62
     5
 63
     7
 74
     2
 91
        2
 64
     7
 65
     7
 75
     1
175
     1
 42
40.0
 92
       11
 66
     7
 43
1.0
 76
     1
 77
     6
 78
     2
 67
     7
 79
     6
170
     0
171
     0
290
     0
174
     0
 93
        1
 44
0.0
173
     0
291
     0
 45
0.0
1001
ACAD
1000
AcDbSavedByObjectVersion
1070
     0
  0
VISUALSTYLE
  5
36
102
{ACAD_XDICTIONARY
360
AB6
102
}
102
{ACAD_REACTORS
330
29
102
}
330
29
100
AcDbVisualStyle
  2
Thicken
 70
    13
 71
     2
 72
     2
 73
     0
 90
        0
 40
-0.6
 41
-30.0
 62
     5
 63
     7
 74
     1
 91
        4
 64
     7
 65
   257
 75
     1
175
     1
 42
1.0
 92
       12
 66
     7
 43
1.0
 76
     1
 77
     6
 78
     2
 67
     7
 79
     5
170
     0
171
     0
290
     0
174
     0
 93
        1
 44
0.0
173
     0
291
     1
 45
0.0
1001
ACAD
1000
AcDbSavedByObjectVersion
1070
     0
  0
VISUALSTYLE
  5
30
102
{ACAD_XDICTIONARY
360
AAA
102
}
102
{ACAD_REACTORS
330
29
102
}
330
29
100
AcDbVisualStyle
  2
Wireframe
 70
     5
 71
     0
 72
     2
 73
     0
 90
        0
 40
-0.6
 41
-30.0
 62
     5
 63
     7
 74
     1
 91
        4
 64
     7
 65
   257
 75
     1
175
     1
 42
1.0
 92
        0
 66
   257
 43
1.0
 76
     1
 77
     6
 78
     2
 67
     7
 79
     3
170
     0
171
     0
290
     0
174
     0
 93
        1
 44
0.0
173
     0
291
     0
 45
0.0
1001
ACAD
1000
AcDbSavedByObjectVersion
1070
     0
  0
VISUALSTYLE
  5
3C
102
{ACAD_XDICTIONARY
360
AC2
102
}
102
{ACAD_REACTORS
330
29
102
}
330
29
100
AcDbVisualStyle
  2
X-Ray
 70
    25
 71
     2
 72
     2
 73
     1
 90
        1
 40
0.5
 41
-30.0
 62
     5
 63
     7
 74
     1
 91
        0
 64
     7
 65
   257
 75
     1
175
     1
 42
1.0
 92
        8
 66
     7
 43
1.0
 76
     1
 77
     6
 78
     2
 67
     7
 79
     3
170
     0
171
     0
290
     0
174
     0
 93
       13
 44
0.0
173
     0
291
     0
 45
0.0
1001
ACAD
1000
AcDbSavedByObjectVersion
1070
     0
  0
DICTIONARYVAR
  5
A8C
102
{ACAD_REACTORS
330
A88
102
}
330
A88
100
DictionaryVariables
280
     0
  1
1:1
  0
DICTIONARYVAR
  5
A8A
102
{ACAD_REACTORS
330
A88
102
}
330
A88
100
DictionaryVariables
280
     0
  1
STANDARD
  0
DICTIONARYVAR
  5
A89
102
{ACAD_REACTORS
330
A88
102
}
330
A88
100
DictionaryVariables
280
     0
  1
STANDARD
  0
DICTIONARYVAR
  5
A93
102
{ACAD_REACTORS
330
A88
102
}
330
A88
100
DictionaryVariables
280
     0
  1
1
  0
DICTIONARYVAR
  5
A92
102
{ACAD_REACTORS
330
A88
102
}
330
A88
100
DictionaryVariables
280
     0
  1
1
  0
DICTIONARYVAR
  5
A91
102
{ACAD_REACTORS
330
A88
102
}
330
A88
100
DictionaryVariables
280
     0
  1
0
  0
DICTIONARYVAR
  5
A8E
102
{ACAD_REACTORS
330
A88
102
}
330
A88
100
DictionaryVariables
280
     0
  1
0
  0
DICTIONARYVAR
  5
A8F
102
{ACAD_REACTORS
330
A88
102
}
330
A88
100
DictionaryVariables
280
     0
  1
0
  0
DICTIONARYVAR
  5
A8D
102
{ACAD_REACTORS
330
A88
102
}
330
A88
100
DictionaryVariables
280
     0
  1
2
  0
DICTIONARYVAR
  5
A8B
102
{ACAD_REACTORS
330
A88
102
}
330
A88
100
DictionaryVariables
280
     0
  1
1
  0
DICTIONARYVAR
  5
A90
102
{ACAD_REACTORS
330
A88
102
}
330
A88
100
DictionaryVariables
280
     0
  1
127
  0
DICTIONARYVAR
  5
A94
102
{ACAD_REACTORS
330
A88
102
}
330
A88
100
DictionaryVariables
280
     0
  1
2
  0
DICTIONARY
  5
AD0
330
6B
100
AcDbDictionary
280
     1
281
     1
  3
ACAD_XREC_ROUNDTRIP
360
AD1
  0
DICTIONARY
  5
AD4
330
73
100
AcDbDictionary
280
     1
281
     1
  3
ACAD_XREC_ROUNDTRIP
360
AD5
  0
DICTIONARY
  5
AD2
330
6F
100
AcDbDictionary
280
     1
281
     1
  3
ACAD_XREC_ROUNDTRIP
360
AD3
  0
DICTIONARY
  5
1A
330
19
100
AcDbDictionary
280
     1
281
     1
  3
ACAD_XREC_ROUNDTRIP
360
A9C
  3
BUMPTILE
360
1C
  3
DIFFUSETILE
360
1B
  3
OPACITYTILE
360
1F
  3
REFLECTIONTILE
360
1E
  3
REFRACTIONTILE
360
20
  3
SPECULARTILE
360
1D
  0
DICTIONARY
  5
12
330
11
100
AcDbDictionary
280
     1
281
     1
  3
ACAD_XREC_ROUNDTRIP
360
A9B
  3
BUMPTILE
360
14
  3
DIFFUSETILE
360
13
  3
FBXASSET
360
1B7
  3
OPACITYTILE
360
17
  3
REFLECTIONTILE
360
16
  3
REFRACTIONTILE
360
18
  3
SPECULARTILE
360
15
  0
DICTIONARY
  5
22
330
21
100
AcDbDictionary
280
     1
281
     1
  3
ACAD_XREC_ROUNDTRIP
360
A9D
  3
BUMPTILE
360
24
  3
DIFFUSETILE
360
23
  3
OPACITYTILE
360
27
  3
REFLECTIONTILE
360
26
  3
REFRACTIONTILE
360
28
  3
SPECULARTILE
360
25
  0
DICTIONARY
  5
A97
330
67
100
AcDbDictionary
280
     1
281
     1
  3
ACAD_XREC_ROUNDTRIP
360
A98
  0
DICTIONARY
  5
A95
330
65
100
AcDbDictionary
280
     1
281
     1
  3
ACAD_ROUNDTRIP_2008_TABLESTYLE_CELLSTYLEMAP
360
A96
  3
ACAD_XREC_ROUNDTRIP
360
ACE
  0
DICTIONARY
  5
AA8
330
2F
100
AcDbDictionary
280
     1
281
     1
  3
ACAD_XREC_ROUNDTRIP
360
AA9
  0
DICTIONARY
  5
AA6
330
2E
100
AcDbDictionary
280
     1
281
     1
  3
ACAD_XREC_ROUNDTRIP
360
AA7
  0
DICTIONARY
  5
AB4
330
35
100
AcDbDictionary
280
     1
281
     1
  3
ACAD_XREC_ROUNDTRIP
360
AB5
  0
DICTIONARY
  5
ABC
330
39
100
AcDbDictionary
280
     1
281
     1
  3
ACAD_XREC_ROUNDTRIP
360
ABD
  0
DICTIONARY
  5
AAE
330
32
100
AcDbDictionary
280
     1
281
     1
  3
ACAD_XREC_ROUNDTRIP
360
AAF
  0
DICTIONARY
  5
AB2
330
34
100
AcDbDictionary
280
     1
281
     1
  3
ACAD_XREC_ROUNDTRIP
360
AB3
  0
DICTIONARY
  5
ACC
330
41
100
AcDbDictionary
280
     1
281
     1
  3
ACAD_XREC_ROUNDTRIP
360
ACD
  0
DICTIONARY
  5
ABA
330
38
100
AcDbDictionary
280
     1
281
     1
  3
ACAD_XREC_ROUNDTRIP
360
ABB
  0
DICTIONARY
  5
A9E
330
2A
100
AcDbDictionary
280
     1
281
     1
  3
ACAD_XREC_ROUNDTRIP
360
A9F
  0
DICTIONARY
  5
AA0
330
2B
100
AcDbDictionary
280
     1
281
     1
  3
ACAD_XREC_ROUNDTRIP
360
AA1
  0
DICTIONARY
  5
AA2
330
2C
100
AcDbDictionary
280
     1
281
     1
  3
ACAD_XREC_ROUNDTRIP
360
AA3
  0
DICTIONARY
  5
AA4
330
2D
100
AcDbDictionary
280
     1
281
     1
  3
ACAD_XREC_ROUNDTRIP
360
AA5
  0
DICTIONARY
  5
AAC
330
31
100
AcDbDictionary
280
     1
281
     1
  3
ACAD_XREC_ROUNDTRIP
360
AAD
  0
DICTIONARY
  5
AC8
330
3F
100
AcDbDictionary
280
     1
281
     1
  3
ACAD_XREC_ROUNDTRIP
360
AC9
  0
DICTIONARY
  5
AB8
330
37
100
AcDbDictionary
280
     1
281
     1
  3
ACAD_XREC_ROUNDTRIP
360
AB9
  0
DICTIONARY
  5
ACA
330
40
100
AcDbDictionary
280
     1
281
     1
  3
ACAD_XREC_ROUNDTRIP
360
ACB
  0
DICTIONARY
  5
AB0
330
33
100
AcDbDictionary
280
     1
281
     1
  3
ACAD_XREC_ROUNDTRIP
360
AB1
  0
DICTIONARY
  5
AC6
330
3E
100
AcDbDictionary
280
     1
281
     1
  3
ACAD_XREC_ROUNDTRIP
360
AC7
  0
DICTIONARY
  5
AC4
330
3D
100
AcDbDictionary
280
     1
281
     1
  3
ACAD_XREC_ROUNDTRIP
360
AC5
  0
DICTIONARY
  5
ABE
330
3A
100
AcDbDictionary
280
     1
281
     1
  3
ACAD_XREC_ROUNDTRIP
360
ABF
  0
DICTIONARY
  5
AC0
330
3B
100
AcDbDictionary
280
     1
281
     1
  3
ACAD_XREC_ROUNDTRIP
360
AC1
  0
DICTIONARY
  5
AB6
330
36
100
AcDbDictionary
280
     1
281
     1
  3
ACAD_XREC_ROUNDTRIP
360
AB7
  0
DICTIONARY
  5
AAA
330
30
100
AcDbDictionary
280
     1
281
     1
  3
ACAD_XREC_ROUNDTRIP
360
AAB
  0
DICTIONARY
  5
AC2
330
3C
100
AcDbDictionary
280
     1
281
     1
  3
ACAD_XREC_ROUNDTRIP
360
AC3
  0
XRECORD
  5
AD1
102
{ACAD_REACTORS
330
AD0
102
}
330
AD0
100
AcDbXrecord
280
     1
102
SHADEPLOT
 70
     0
102
SHADEPLOTRESLEVEL
 70
     2
102
SHADEPLOTCUSTOMDPI
 70
   300
  0
XRECORD
  5
AD5
102
{ACAD_REACTORS
330
AD4
102
}
330
AD4
100
AcDbXrecord
280
     1
102
SHADEPLOT
 70
     0
102
SHADEPLOTRESLEVEL
 70
     2
102
SHADEPLOTCUSTOMDPI
 70
   300
  0
XRECORD
  5
AD3
102
{ACAD_REACTORS
330
AD2
102
}
330
AD2
100
AcDbXrecord
280
     1
102
SHADEPLOT
 70
     0
102
SHADEPLOTRESLEVEL
 70
     2
102
SHADEPLOTCUSTOMDPI
 70
   300
  0
XRECORD
  5
A9C
102
{ACAD_REACTORS
330
1A
102
}
330
1A
100
AcDbXrecord
280
     1
102
MATERIAL
148
0.0
149
0.0
149
0.0
 93
        0
 94
      127
282
     0
 72
     0
 77
     0
171
     0
175
     0
179
     0
273
     0
  0
XRECORD
  5
1C
102
{ACAD_REACTORS
330
1A
102
}
330
1A
100
AcDbXrecord
280
     1
270
     1
271
     1
  0
XRECORD
  5
1B
102
{ACAD_REACTORS
330
1A
102
}
330
1A
100
AcDbXrecord
280
     1
270
     1
271
     1
  0
XRECORD
  5
1F
102
{ACAD_REACTORS
330
1A
102
}
330
1A
100
AcDbXrecord
280
     1
270
     1
271
     1
  0
XRECORD
  5
1E
102
{ACAD_REACTORS
330
1A
102
}
330
1A
100
AcDbXrecord
280
     1
270
     1
271
     1
  0
XRECORD
  5
20
102
{ACAD_REACTORS
330
1A
102
}
330
1A
100
AcDbXrecord
280
     1
270
     1
271
     1
  0
XRECORD
  5
1D
102
{ACAD_REACTORS
330
1A
102
}
330
1A
100
AcDbXrecord
280
     1
270
     1
271
     1
  0
XRECORD
  5
A9B
102
{ACAD_REACTORS
330
12
102
}
330
12
100
AcDbXrecord
280
     1
102
MATERIAL
148
0.0
149
0.0
149
0.0
 93
        0
 94
      127
282
     0
 72
     0
 77
     0
171
     0
175
     0
179
     0
273
     0
  0
XRECORD
  5
14
102
{ACAD_REACTORS
330
12
102
}
330
12
100
AcDbXrecord
280
     1
270
     1
271
     1
  0
XRECORD
  5
13
102
{ACAD_REACTORS
330
12
102
}
330
12
100
AcDbXrecord
280
     1
270
     1
271
     1
  0
XRECORD
  5
1B7
102
{ACAD_REACTORS
330
12
102
}
330
12
100
AcDbXrecord
280
     1
 70
     1
 90
1959938040
 71
     1
  1
80FDF243-52E8-4FB6-8C70-9C932512D3F6
311
504B03040A0000080000B04955423DEE336E79000000790000001B0000006175746F6465736B2D64657369676E2D7061636B6167652E786D6C3C3F786D6C2076657273696F6E3D22312E302220656E636F64696E673D227574662D3822203F3E3C666F726D6174733E3C666F726D61743E687474703A2F2F736368656D612E
311
6175746F6465736B2E636F6D2F64657369676E2D7061636B6167652F323030393C2F666F726D61743E3C2F666F726D6174733E504B0304140006080800B0495542D486FD9CA0000000F4000000130000005B436F6E74656E745F54797065735D2E786D6C7D8EC10E82300C865F65E91D8A1E8C310C0EEA1BF002731658846E
311
D98AC1B77784ABF1D8FE5FBFBF75BBCE937A534CCEB38643598122B6FEE978D0B0485F9C41B54DDD7D022595594E1A469170414C76A4D9A4D207E29CF43ECE46F218070CC6BECC4078ACAA135ACF422C856C0E68EA1BF5669944DDD7BCDE7B1F8E415D77AECB980613C2E4AC91FC167A2B244592486606FC29C8FD7F045B9A
311
EF7053A7E60B504B0304140006080800B04955423810B0E9EB0000007C01000008000000636F72652E786D6C8D90416EC3201045AF82665B61038E15DBC2444D1A9FA01740405C94182C03518F5F9C3852BBEB6A467FFE9B197D7EF89E6EE86E9660BDEB8116049071CA6BEBC61E52BCE006D041F0C5FBF8CB06C8C9C9F4B0
311
CA20F8B8F8346F92F22E1A17B3EABC369B2843301190BAE5A687A0BECC240B996276846B314B7595A329E8ABCB704A56A3E711ABF33E7BB1660141F6BBA17E6F5A7CDE1F19DE0D1F14B7E766C0AC69EB53DB0CA7A1AA79B9C282473BBDEEABC5C868340846688509C38C7E92B6A35557B137423B4278B9DAFF4069D6FF8492
311
75B162DBBB4F2C80A0F991C740F072CD22974750B9AEB9891F504B0304140006080800B049554255019EA25F0000007C00000007000000636E782E786D6C4DCB3B0E80201045D1AD90E915ED2CF8AC45050C11660C8261F98AB1B07AC9C97D42D718D865D3E909258CFD00CCE24AC6E326A164D74DC0B4128928FF32603847
311
2BA13128B1252AC747C6BAB984FC68F0B87FE8960A5C09FE86CFB69FBA01504B0304140006080800B04955421017E6CD68010000020300000C0000006662782F636F72652E786D6C8D525B6E833010BC8AE5DFCAD840A240641CB56938412FE0804351C046C646397E9747445345518564AC999DDDD9017EB8B50D1A94ED6B
311
A3331C060C23A50B53D6BACAB0771792607410DC1AE37E9561A465AB323CC258F0CA1ADF2D5061B453DA01AA4DA91650F6BD7218150D5C32DC17DFAA9581F40E2AFA6BD0C9E22A2B158401D0502778EF2C1840F390F1C4E272BE713AE3827B5F970B5B9730ADBED4CA62C1769B7CFB9EA4E4B4FB88C826FF0C497A4A721225
311
E9F69826F9318FB79C8E62C15DDDDEDD155649A74A2C2216C68445240ABF58BA0FE37D1CBDB170CF18A763F983C877E53F45BED62E8E16BBB3ACC722042313F1675B88C8A15E0EE0870A4EC710E13525FC18340402213B796EEE7B5C011A54E18CDD00531ABF52836CBC82A90C4D0FA7330B9DA706B0D9D33ED18B3EAF7BC0
311
0794BA026BD2C1F5ECDD389DCF5397283A65C9E06E481BDBCA6635375B5CCF75D05379611A63FFA3A6CBAA7409938E7FAFF801504B0304140006080800B0495542D75A38A37C0000009D0000000B0000006662782F636E782E786D6C4DCCD10AC2201886E15B91FFDCB654C4401DA9741FA3B921390DD3E8F2DB62071D7DF0
311
F0F1CAE1B346F4F6E5157252703EF5807CBAE729A44541AB331680062D4BCEF5EF06288DAB57B03368B994DC9E074D7E1E5BAC9BC6901E07322EB8B386E29B1157CC28A5F8220CC7BD23D659C28CA0043A2DBB5F69DB3DACBF504B0304140006080800B0495542F7F568772C01000014020000310000006662782F34363836
311
444342332D464238412D343333332D393842362D3044324344433234423833322F636F72652E786D6C8D515B6EC32010BC8AC557AA0A9B87E33A1126AA13F504BD0001E2A2C460F1A872FCE2DA91DABFFCB068766676B4CB0EF7F1567C6B1F8CB31DC0250285B6D22963870EA478812D280E9C79E7E21F1A28AC1875076618
311
70367897A61592CE466D6346AD537A0545083A8242DEF2A703417EE9519422C5CC08D77212F22A065DE232B7338FB3107D0E502C43E617F0BA699BD3B1A7F0A36FDF614D2985BBB66F203A91E3E948EABEA584558B90B3948C5AE546E538E662B47FD664167316CDF8882FBD16512BC009C214220209FE44BB3DA67B4A5E11
311
DE23C4AA99FE4F9426F5A428191B2959E32EB2003866D5D2E04CB974BE3DC2E8FBE47C2CE6799BA0E50BE0A84498A0DDB67E63D542CD0BC89E4DBD7A86E87C5EF0E67ACE6CBC5D8C9B9AB36ABE512EBF07CC75BE27FF01504B0304140006080800B049554291DE37174E01000033030000300000006662782F343638364443
311
42332D464238412D343333332D393842362D3044324344433234423833322F636E782E786D6CD593CD6EC32010845F0571ADFC831D456D8489D4439FA0875E316C121A0C16E0AA79FB2E094973C9A1C75E90353BCCAC3E61BEFD9E2CF982108D770365754B0938E5B571FB812E69573D53B2153C789FEE6C943839C140B34C
311
05DF07BFCC45D2B0938B4DA85AE38E450C10FD12144494F34D62BD921603C0550B8A308DA035687233E2D70E02AE82E27822E900E4EDF583F8F113548ABCC9298237B943F07C96A63B1325CACA18071AD5012659CB25790DF1586B9964CDEA6BD7839D7E9348BE70AD5C8221B97CA0F9A4A26C542347DEE050F09802D22BA6
311
749A810A39CFD62899107273365E3C822FC6A5F5AA780D820FE866EB7EB5C2B0F34CF06426280E154026D054742DEBABB6AB3AF6DEBE6C58BFE9BBA7966DDA9637D92EF8E8BD2D973006829F89F22E814B5430DEE4F1237CC547B409C8DA87D31F402280D27AA173CBF8CF7C9AF3FB465C01FF02F103504B03041400060808
311
00B0495542330B48879B0500007B100000340000006662782F34363836444342332D464238412D343333332D393842362D3044324344433234423833322F6F626A656374732E786D6CAD575D739B3814FD2B0CFB6C6C6C274D76089DC4AE3B9E6EDA4E3DEDEC43663C0204D146084612A9D35FBF472030B876EADDE90B2021
311
5DDD7BEEB91F0ADEEE72EE3C53A958216E5CDF9BB80E1571913091DDB8954E4757AEF3360C6451E8DE32D71124A737AE9976C320934555DAA984A6A4E2FA607675F7B7A3622AA8EBC49C2875E3AAF891E6C423952E12AA9EBC8468E265E9CEF3BD66E1506C2649F97820B424920A0D4D312F20C56994F287C3893B0E83B1F9
311
1F06E66957CD4EAF1AD7F60CCF67426922E29F0E3B1033F3E7CB77D38BEBD1C57C3E1BCD2FA7FEE86E75B71CF96F6693C5E562717DFBEE1A072B2D21C96A2269EA86EF818D6471306E7E8541C5849E4DED12EBA0B1A4CFCC78CA0DA78E1F8C9B359D75D6C863EAC7851034AEB1021AB57D5674424B2A12F89C5105CD7A084D
311
8643DFE0D8FB3D33637B647FFA3C04FA3B7A825ADDDB775FD322FA0726A873182415350C6CB0B486365C9DEC118E8A82DB7F4C3939D15432C21DCE2249E48B1B62A9591206033186C9D24483B1C00DE185E6F7902E08A35FF3FC989669C5B9A1B11BD651B045AC50AD6ACDD80F2AF7DAF791814EF09561C3953548BF94D40D
311
AF1B8A5C1DB0A901D24939C9E072986976CEA607862E4C9CAE976EF86115ED3626768F1F5ECAA2A4521BFA805AADE3DAB741C9EAE49FE539B3C13D50650FCA1720FF11A1BE57057E936C37DFCDED295A12A1D242E6F08D337146133C268E5F3FCD77EF2B18779B87DE3B85279C6DA0FA0D780E6DE8FBB20767183C83F0859C
311
59D33631E1481BF74C00204312871798421E4EA39D1BAE91E59095B18BF0D087C950F7199FC1D88A41A2A84FEABD05B03C488B672468C05633126A34E4B70AEEFDF4533AAB0FB6CB4EC17BF15BE87ABBDC7CD854322531BDB731BDA429134CA3C4ED79D3576880F9C0A227FAF2BD90090CFD19EF4D1FEFDC1EA580B6C1DC00
311
9FB539DD0CF6270F0E88B12F2B4CBA097E71028C3085B527FF9EA998724E042DAAF6DC57EB07CA4603B10976C3E4AEC0EC0B0B48D3FC39884114E958B2D280D855AB2E697A27ACFBBAFE0846BAE1DDCB5FE4A59FBDA27DEE8D0B5EC86DF4B26DD2D251A8BF0DB96D31181B29A07B1D246DFC5BD0B7094BD34A21091EC1F5DB
311
7AD1F79D490B4811ADD4265AE6B01FC145A4256D2B17D55A1254D2426C19EA26E2EEE8017DF980D432A016784A634579BA659C57F936651CD5689B93F2041CFF5FFFA8CACB2DC98B4AE813B207AAA33A0C751FB0577D273A7E74C34DFD1EDD21F72634394106534B8E603570EDD564B55C4DD13A5D4CDF5D8DE6ABBBCBD1D5
311
E2CD6474BDB89E4D2FFCE972B6BA6CFDD46812066DA9E94734BC84D216549259F77D5D237E6C1270C37BA2D5C3FB263CDBF7D7B5875E3818630FEA65B7F1367946DF47935F0BD8AF3C2A689D979CE654686262E8DE7CF02F047DC64099667E9D938C9E21E5D3FBCD8131983963DF6713EFF4FBC15E3BBB30017954887EACF2
311
4810C60F36660D925E29328B5FEB93EEDD149A766846D631E84C55C159823C9838192D72AA910DCF284232A70AD4EBF7F489BD7B9CB1FBB9E9103589386D3579246892B94258805A55AC87F3CE1F68EA4C5F75E3A2DC7A4F78D84CE13AE0CC8D8B265DB3982A2F428136AD502D1C5CEA77F268FC89C8387AED665337EE7619
311
6C0625B95B724EFF64ED6A52B8350069A444DF808608DEA99509835A37FB3FFE4F86B7EA3844E333AA7467CB7EA233A63E0621DA18656F0B68629EECD13B04EAEB66F95EBD6680C859B7AC5749D0481D6922B3FAA660F4B32ADD2E3F8FD1A138EB4F4EC9AB0CBE3C5FD2485290B932010E16811556664934A8BAF8F3E1B32C
311
7093CD9D1503051E16459E17C20E6EED4DD8D93CE25E9B3C202D507321510FD3893F7DA82F02F66EB28D88A21E49D41326E053C93A88078E07239BDB222A50F3A35B37364E38E0E67AE9D8923687504B947E5635B0A0E510D441F498CBA48995FE82F2D5BBC0B85E0A1524BAF8F05F504B0304140006080000B04955420000
311
00000000000000000000350000006662782F34363836444342332D464238412D343333332D393842362D3044324344433234423833322F76657274696365732E62696E504B0304140006080800B0495542F270F1330600000004000000360000006662782F34363836444342332D464238412D343333332D393842362D3044
311
324344433234423833322F747269616E676C65732E62696E636660600000504B0304140006080000B0495542000000000000000000000000370000006662782F34363836444342332D464238412D343333332D393842362D3044324344433234423833322F617474726962757465732E62696E504B0304140006080800B049
311
5542D5987DFC8F00000041010000360000006662782F34363836444342332D464238412D343333332D393842362D3044324344433234423833322F6469726563746F72792E786D6C858F410EC2201045AF4266AF15DDB800BA74E7C21B903225242D6328188F2FA5C4183471359997F9FF81E89FF3C41E1816475E02DF1F80
311
A11FC8386F25A438EECEC07A250251FC3803E6F58C12560C4AD840E95E91C151A72936F496F35732D860FE635F62C8F2DA16B505C545B74125BAA2FA9E05D7CC053D063734D5C7665FD55B6B8D15D5E9BFEAFD8490FFA45E504B0304140006080800B04955422BBB9E71FE000000A00100003B0000006662782F3436383644
311
4342332D464238412D343333332D393842362D3044324344433234423833322F7265736F75726365732F636F72652E786D6C8D504B6E833010BD0A9A6D65B04D500019476D1A4ED00B586692580976E44FD5E3D7042AB5BB6E6646EFA3797AE2F035DF8B4FF4C1383B002B291468B59B8CBD0C90E299B4501CA4F0CEC55F32
311
28AC9A71800506292EDEA5C706696723DA9851EB26DC4015024628F43D1F03047DC559952AC5AC08B7F2A1F44D5DB06465A6B34E8A107D0E50AC4F9609D26370C96B0CA25A59295232D3A63153FE69CE063D48BADF8DCD6BDB92D3FE8D93DDF8CE48776A47C2DBAE3976ED781CEB46548B598A68E69F8CDAA38A3881E494D5
311
8472C2D907ED7A56F7357FA1ACA754548BFC8F293DA67F9A92B1B1E65BDCD51640B21CE44948512D7DE5F52C33EFA55BF90D504B010214000A0000080000B04955423DEE336E79000000790000001B00000000000000000000000000000000006175746F6465736B2D64657369676E2D7061636B6167652E786D6C504B0102
311
1400140006080800B0495542D486FD9CA0000000F40000001300000000000000000000000000B20000005B436F6E74656E745F54797065735D2E786D6C504B01021400140006080800B04955423810B0E9EB0000007C010000080000000000000000000000000083010000636F72652E786D6C504B01021400140006080800
311
B049554255019EA25F0000007C000000070000000000000000000000000094020000636E782E786D6C504B01021400140006080800B04955421017E6CD68010000020300000C00000000000000000000000000180300006662782F636F72652E786D6C504B01021400140006080800B0495542D75A38A37C0000009D000000
311
0B00000000000000000000000000AA0400006662782F636E782E786D6C504B01021400140006080800B0495542F7F568772C0100001402000031000000000000000000000000004F0500006662782F34363836444342332D464238412D343333332D393842362D3044324344433234423833322F636F72652E786D6C504B01
311
021400140006080800B049554291DE37174E010000330300003000000000000000000000000000CA0600006662782F34363836444342332D464238412D343333332D393842362D3044324344433234423833322F636E782E786D6C504B01021400140006080800B0495542330B48879B0500007B1000003400000000000000
311
000000000000660800006662782F34363836444342332D464238412D343333332D393842362D3044324344433234423833322F6F626A656374732E786D6C504B01021400140006080000B04955420000000000000000000000003500000000000000000000000000530E00006662782F34363836444342332D464238412D34
311
3333332D393842362D3044324344433234423833322F76657274696365732E62696E504B01021400140006080800B0495542F270F13306000000040000003600000000000000000000000000A60E00006662782F34363836444342332D464238412D343333332D393842362D3044324344433234423833322F747269616E67
311
6C65732E62696E504B01021400140006080000B04955420000000000000000000000003700000000000000000000000000000F00006662782F34363836444342332D464238412D343333332D393842362D3044324344433234423833322F617474726962757465732E62696E504B01021400140006080800B0495542D5987D
311
FC8F000000410100003600000000000000000000000000550F00006662782F34363836444342332D464238412D343333332D393842362D3044324344433234423833322F6469726563746F72792E786D6C504B01021400140006080800B04955422BBB9E71FE000000A00100003B0000000000000000000000000038100000
311
6662782F34363836444342332D464238412D343333332D393842362D3044324344433234423833322F7265736F75726365732F636F72652E786D6C504B0506000000000E000E00800400008F1100000000
310
504B03040A0000080000B04955423DEE336E79000000790000001B0000006175746F6465736B2D64657369676E2D7061636B6167652E786D6C3C3F786D6C2076657273696F6E3D22312E302220656E636F64696E673D227574662D3822203F3E3C666F726D6174733E3C666F726D61743E687474703A2F2F736368656D612E
310
6175746F6465736B2E636F6D2F64657369676E2D7061636B6167652F323030393C2F666F726D61743E3C2F666F726D6174733E504B0304140006080800B0495542D486FD9CA0000000F4000000130000005B436F6E74656E745F54797065735D2E786D6C7D8EC10E82300C865F65E91D8A1E8C310C0EEA1BF002731658846E
310
D98AC1B77784ABF1D8FE5FBFBF75BBCE937A534CCEB38643598122B6FEE978D0B0485F9C41B54DDD7D022595594E1A469170414C76A4D9A4D207E29CF43ECE46F218070CC6BECC4078ACAA135ACF422C856C0E68EA1BF5669944DDD7BCDE7B1F8E415D77AECB980613C2E4AC91FC167A2B244592486606FC29C8FD7F045B9A
310
EF7053A7E60B504B0304140006080800B04955427E33D702EA0000007C01000008000000636F72652E786D6C8D90516EC3201044AF82F8ADB00123A7B63051A22627E805106C1C94182C03558F5F9C3852FBD7AF5D0DF3D8D1C8FDF774475FB04417FC80594531026F82757E1C704E17F28ED15EC92584F4CB8691D7130C78
310
95B192E312F2BC4926F8043E15D5070B9BA863848491B99765C0D15C61D295CEA938E2AD9AB5B9E9112AF6DA0A9CB3B3E879C4D9F29FBB3858B06242D0333B09C25B7624A23D53D29D44470EBB6E77ECDA83E01FADAC5758C9E4A6D77DB3804E60B1E294358472C2D927ED7AD6F40D7FA3ACA754D6ABFD0F9467FB4F283B9F
310
1ABEC57D62B1642D411E0F4AD66B17653C8A2A73ED4DFD00504B0304140006080800B049554255019EA25F0000007C00000007000000636E782E786D6C4DCB3B0E80201045D1AD90E915ED2CF8AC45050C11660C8261F98AB1B07AC9C97D42D718D865D3E909258CFD00CCE24AC6E326A164D74DC0B4128928FF326038472B
310
A13128B1252AC747C6BAB984FC68F0B87FE8960A5C09FE86CFB69FBA01504B0304140006080800B0495542704C102B66010000020300000C0000006662782F636F72652E786D6C8D52ED8A8330107C9590BF872651B16789292DD73EC1BD40AAA927D54462227DFC5B3F8AD7A39422C430B3B33B3BCA77B7B64183B27D6D74
310
8E59483152BA3065ADAB1C7B77093E31DA096E8D717FCA30D2B255391E612C78658DEF16A830DA29ED00D5A6540B28FB5E398C8A062E39EE8B1FD5CA507A0715FD35EC647195950A590834D409DE3B0B06D03C643CB1B89C6F9CCCB8E0DED7E5C2D6254CAB2FB5B258B024A127764C8228658720494F34C88E4916EC37D9E6
310
90A5FB24FA4A3919C582BBBABDBB2BAC924E95584494C5018D82887DD36CCBE26D1C7D50B6A59493B1FC41E4BBF24D91AFB58BA3C5EE2CEBC12B1899887FDB42440EF572003F4470328608AF29E1C7A0211008D9C97373DFE30AD0A00A676C024C69FC4A0DB2F10AA652343D9CCC2C749E1AC0664FFB442FFABCEE011F50EA
310
0AAC4907D7B377E3743E4F5DA2E8940D067743DAD85636ABB9D9E27AAE839ECA0BD318FB8E9A2CAB92254C32FEBDE217504B0304140006080800B0495542FF75712C7E0000009D0000000B0000006662782F636E782E786D6C4DCCD10A83201886E15B91FFDCA5AE96033552B6FB886521990EA76397BF1A1DECE883878F57
310
749FD5A3B74D2F1783047A22806C78C4D1855942C913E6803A25528CF9EF06280CAB95B0332831A7589E078D761A8ACF9B7A179603AF94D60DA12D660DBBE0FAD633ACCDBDC586686DCEB4E75C1BA894A87EA56DF7B0FA02504B0304140006080800B049554245AFF7532B01000014020000310000006662782F3931313435
310
3031372D323532362D344541322D424346372D4330424243333141383842432F636F72652E786D6C8D515B6EC32010BC0AE22B55850DD8711EC244B1D59EA0177030495162B07854397ED7B123B57FF961D1ECCCEC68571CEEC30DFD681F8CB3356619C5485BE57A632F354EF14CB6181DA4F0CEC53F348C6C37E81A4F3096
310
E2E25D1A1748391BB58D805AD7EB05EC42D0112375834F8D83FAD64397752902235CB3B153D7EEA23396411B785284E821009A874C2F963BC6CA35651BC2D7BC22E5C79193A6FDDC9096364D5BB0E376DBB4220F0FA11429997E919B1EE298B3D1FE5593492C4534C333BEF2BA8BBAC792535610CA09675F74B767C5BEE0EF
310
94ED2915F944FF274A63FFA228191B0BBEC49D65014B26F2B92145EFD2E9F60CA3EFA3F3114DF35641AB372C6906B12A0ACB11F94C85058067552E9E213A0F0B5E5D4FC02E16E3AA94229F6E04E57140A8D33DE52F504B0304140006080800B0495542F779F8005601000033030000300000006662782F3931313435303137
310
2D323532362D344541322D424346372D4330424243333141383842432F636E782E786D6CBD93CD6EC32010845F0571ADFC831D45698489D4439FA0875E096C121A0C16E0AA79FB2E094973C9A152D50BB2668799D527CC375FA3259F10A2F16EA0AC6E2901A7BC366E3FD039EDAA15251BC183F7E9CE468993230C34CB54F0
310
7DF0F354240D3B39DB84AA35EE58C400D1CF41414439DF24D62B6931005C35A308E316B4064D6E46FCDA41C05550DC9E483A00797D79277EFB012A45DEE414C19BDC21783E4BD39D891265658C038DEA00A3ACE59CBC8678ACB54CB266F5B5EBC14E3F49245FB856CEC1905C3ED07C525136AA91236F7028784C01E915533A
310
4D40859C266B944C08B9391B2F1EC167E3D27251BC06C10774F7DD72B5C2B0F34CF06446280E154026D054742DEBABB6AB3AF6D63EAF59BFEEBBA796ADDB9637D92EF8D67B5B2E610C043F11E55D0297A860BCC9E347F88A8F681390B50FA75F804400A5F542E796F1977CD8B25F2CFE914F737EDF882BE05F20BE01504B03
310
04140006080800B0495542619DE3BE5A070000941B0000340000006662782F39313134353031372D323532362D344541322D424346372D4330424243333141383842432F6F626A656374732E786D6CED59DD739B3810FF5718EED9D8D84E9ADC103A89DD743CBDB49DFADAB987CC3032C8441721184924F1FDF5B7FA000331
310
09BEE6DEFA6003425AEDFEF6534BF0FE29A3CE03E682E4ECC2F5BD89EB6016E70961E9855BCAEDE8CC75DE8701CF73D998E63A0C65F8C255C36E18A43C2F0B3B94E02D2AA9EC8C5E5FFDE5881833EC3A3145425CB822BEC319F25029F3048B7B2F411279E9F6C9F33D33B14D36E5A8B8EB102D10C74C02A730CE808A6398F2
310
DB8F13771C0663F53E0CD4BF9D351B346BDE3F6BACA56E7349989088C5CF58EA90990D6269E6CF971FA627E7A393F97C369A9F4EFDD1D5F5D572E4BF9B4D16A78BC5F9E58773606F93E7D4CA94E002B304F4B773433F18AB37B5E81681435CC7396338D64002545AAC2E4182056CD5806FD27EF495448DD75AC2C6F35CBDB7
310
2C3486676D2A7DB38601D1A20B82D8ED2A89AB6B53BE7CF337082E861825175802B74272D0AE85878357B8E124189BD130D8EC7541849321893941D4A164C31107A5C05435250CCC024B46390707528E92406BCEBC6EDB1678E6EBAE7388CB6D49A9F20C37D48E1581FB61293467E41FCCF7DC3791019E40DA92307966B994
310
BB02BBE17930D68361A02EB3A97D698074B614A5422362DE76045D28D75F2DDDF0D3F5E669ADC2C1E1CD0B9E17984B65744A8F9A2F30647B5528D96DFD419A530B401803AA5DB907E51B20FF19A2C79E15D01B274FF3A7B99D2B3962629BF30C74E34C9CD104FE268EAFFFD57DE32E18D78BDBDAEBC313DC544175F6F378B6
310
65D05859FE1B7086C103187CCE67F6D53A4614ECF986300048198943731882D0BEDD3CB9E10A0227047A588568E883C8C0EE03DC06634B66AF95CABDACD73140D4EE311BA224804D5B24B0D1A3A78F903D3889F76A6A8AD807EFC99B98EBE572FD695DF22D8AF18DF5E925DE12462464CDC30CB5306F49748F778F394F40D0
310
E778AF9B7867762B01682BCC15F06905827AD8EFDCDA20867569AEC24DF0CA0E2084CAD50DFA3744C49852C4705E56FBD6D14D196AEDF1B66670C3A9817836ED9830C70F445515E034FB192D4621EFC79C140A4437FC6824AB83A6D723DDF7D567B0C87A7ECFAC1583D0CB10FD5307AD0338B42CBB42DA02510BBCD987F338
310
A7398F36BBC8443A176A0960A3ED2D3F5A4421D61B25292AE041DAEFAA90921A69A3846CB7A580B87A80C51FAB45D31C26DECC3F719AFF1D679C43B405DF45DCFA5D678F886428C5D116257DDB3577AB690B4DB28734C75B0A72910722771192D124C1E931D01C45FCFC4DA9A7341782302C205F1D04BF89C6C4834062B459
310
B1ACB4DA019A8828C312D1631050647AC0D56947D7B831940EAFF3585BEF4B1A6B12FD9F2C8223A82573161128452187BCCAB8EF9D400C69A36B50EEE00BD656D1D662D0124A8878173D6292DEC9635037E47B708FE14852CA282F500C663D80EC335F514AEDF0BE41F1BDCA1F515CD2B7321081E93622949659043FC2E0E4
310
31C4B5EBC0F4220A0DE226F6499C41518664C9876C727A3279B68FA919BA21B0B1D1965008DB51868A1ED45B0151D7234E0DBEA5DEA3D44D991511CAF2920D32146FD6F5264BBEAB56457620BFAA5484B2B1226C09860161B2CEAA55CC0653D78115DC4807AA5D24505650730A7B25F1F8B53769CABD1B70EBA76FBB410685
310
5F8FF69A11755EC160796C1506E211C9F8CE0DD7FA3ABA82FA3BC1C93ED557B566B30204C454242F39B12AFABE82F2C6D6686E7883A4B8FD68B26E75FDBEF2A0FB118C610DD42EF5C295023AC34C225599DCA81BFA0D41086ED130E32B95538FA1729924BA6A44F49AF4A9B35546B436CD8857DC619667F063B784C5B44CF0
310
2D4AC47D742369B4268A752BA597910AE31705FCF271DD8107460688F4551578F8B1B3D68E2E54B9749088BC2BB30D430482604BB4D4E8C62B586A355269B9BEAA3305D45D606056C5F35F278B663BE2D7C922B586F153278BABDD1F68D7EC8B34D279ACECFAA863409D9F1495B73806E8B6434DB5CE2226995BF9AD334510
310
14AB283FB81AAB828621D8C7F17FCEDA7D59D06CD7E1FFB8ACED3FAB388ECA2AADC9AA4B75A0725D3573D8D9E47A793D85DEECC9F4C3D9687E7D753A3A5BBC9B8CCE17E7B3E9893F5DCEAE4F6B34B5A386411DCC74EE826713D4AA61F5643180AEACC82949E0349F382986982FE14C3FA07DCE332C2079369BDD896DCA0F58
310
FD60FA9C126D28AE38B943D020A602D23A6054C6B23DEEFC06AD490907ED0B179A46DE3DFC59AB741DC83C172EB40A2489B1F036D066520D3D4D1C52AECEFD9618E08358AA52A259543FD7AB1436ADF05F4F199206AC5CAD1E06146E0574BF5A1D0ACD9BE5293E4AF08A1D0749B8DD9412AA3523CB7EA016466FB357BF918D
310
12766FB77E02D77D592CDFD3735A880CFA64F0A21118AA238978AAFBDD8A31CBD2E5F2EB18FA6CCEEA8B53D032055D0EA734E2188CB954051558115885A5592009A6BAF8FDF62BCFE1134FE6E8AAE876916759CEECC3259CC712F844E4ACEFE0834F720B6503566D75713B9DF8D35BDDCEB61DF6688304F6543D04035519A1
310
44E8181B58E4B3D6946D5C8E95123AD3574BC7864F6803180B7AD6DD359FB71CF01EF52145F98AF6F04ACE173BDA633D15AC81432F3AFC17504B0304140006080000B0495542000000000000000000000000350000006662782F39313134353031372D323532362D344541322D424346372D4330424243333141383842432F
310
76657274696365732E62696E504B0304140006080800B0495542F270F1330600000004000000360000006662782F39313134353031372D323532362D344541322D424346372D4330424243333141383842432F747269616E676C65732E62696E636660600000504B0304140006080000B04955420000000000000000000000
310
00370000006662782F39313134353031372D323532362D344541322D424346372D4330424243333141383842432F617474726962757465732E62696E504B0304140006080800B0495542D5987DFC8F00000041010000360000006662782F39313134353031372D323532362D344541322D424346372D433042424333314138
310
3842432F6469726563746F72792E786D6C858F410EC2201045AF4266AF15DDB800BA74E7C21B903225242D6328188F2FA5C4183471359997F9FF81E89FF3C41E1816475E02DF1F80A11FC8386F25A438EECEC07A250251FC3803E6F58C12560C4AD840E95E91C151A72936F496F35732D860FE635F62C8F2DA16B505C545B7
310
4125BAA2FA9E05D7CC053D063734D5C7665FD55B6B8D15D5E9BFEAFD8490FFA45E504B0304140006080800B0495542A15D1DBAFD000000A00100003B0000006662782F39313134353031372D323532362D344541322D424346372D4330424243333141383842432F7265736F75726365732F636F72652E786D6C8D504B6EC3
310
2010BD8AC5B6C2066C39B58589123539412F8060E2A2C460F1A97AFC42EC4AEDAE9B99D1FB689E1E3F7E2D8FEA137C30CE4E88D604556095D3C6CE134AF1865F517514DC3B177FC95065E502132A30127CF62EAD3BA49C8D606346ADD3B083320488A8528F7C4C28A80F58642D53CC8A70AF57A9EE72869AD699CE3AC143F4
310
3940B53D2913090FC125AF20F06663054FC9E85D6374FE696E063C12B4EBC8955E5ACC7A7AC65D7F2578B874033E1D86C379E84F1D7BEB7953CC8247B3FC64541E64048D0423B4C5846146DFC930D2766CD90BA12321BC29F23FA6B4EA7F9A92B1B1657BDCCD1672D61CE44908DE94BEF27A969977E9567C03504B01021400
310
0A0000080000B04955423DEE336E79000000790000001B00000000000000000000000000000000006175746F6465736B2D64657369676E2D7061636B6167652E786D6C504B01021400140006080800B0495542D486FD9CA0000000F40000001300000000000000000000000000B20000005B436F6E74656E745F5479706573
310
5D2E786D6C504B01021400140006080800B04955427E33D702EA0000007C010000080000000000000000000000000083010000636F72652E786D6C504B01021400140006080800B049554255019EA25F0000007C000000070000000000000000000000000093020000636E782E786D6C504B01021400140006080800B04955
310
42704C102B66010000020300000C00000000000000000000000000170300006662782F636F72652E786D6C504B01021400140006080800B0495542FF75712C7E0000009D0000000B00000000000000000000000000A70400006662782F636E782E786D6C504B01021400140006080800B049554245AFF7532B010000140200
310
0031000000000000000000000000004E0500006662782F39313134353031372D323532362D344541322D424346372D4330424243333141383842432F636F72652E786D6C504B01021400140006080800B0495542F779F80056010000330300003000000000000000000000000000C80600006662782F39313134353031372D
310
323532362D344541322D424346372D4330424243333141383842432F636E782E786D6C504B01021400140006080800B0495542619DE3BE5A070000941B000034000000000000000000000000006C0800006662782F39313134353031372D323532362D344541322D424346372D4330424243333141383842432F6F626A6563
310
74732E786D6C504B01021400140006080000B04955420000000000000000000000003500000000000000000000000000181000006662782F39313134353031372D323532362D344541322D424346372D4330424243333141383842432F76657274696365732E62696E504B01021400140006080800B0495542F270F1330600
310
00000400000036000000000000000000000000006B1000006662782F39313134353031372D323532362D344541322D424346372D4330424243333141383842432F747269616E676C65732E62696E504B01021400140006080000B04955420000000000000000000000003700000000000000000000000000C5100000666278
310
2F39313134353031372D323532362D344541322D424346372D4330424243333141383842432F617474726962757465732E62696E504B01021400140006080800B0495542D5987DFC8F0000004101000036000000000000000000000000001A1100006662782F39313134353031372D323532362D344541322D424346372D43
310
30424243333141383842432F6469726563746F72792E786D6C504B01021400140006080800B0495542A15D1DBAFD000000A00100003B00000000000000000000000000FD1100006662782F39313134353031372D323532362D344541322D424346372D4330424243333141383842432F7265736F75726365732F636F72652E
310
786D6C504B0506000000000E000E0080040000531300000000
  0
XRECORD
  5
17
102
{ACAD_REACTORS
330
12
102
}
330
12
100
AcDbXrecord
280
     1
270
     1
271
     1
  0
XRECORD
  5
16
102
{ACAD_REACTORS
330
12
102
}
330
12
100
AcDbXrecord
280
     1
270
     1
271
     1
  0
XRECORD
  5
18
102
{ACAD_REACTORS
330
12
102
}
330
12
100
AcDbXrecord
280
     1
270
     1
271
     1
  0
XRECORD
  5
15
102
{ACAD_REACTORS
330
12
102
}
330
12
100
AcDbXrecord
280
     1
270
     1
271
     1
  0
XRECORD
  5
A9D
102
{ACAD_REACTORS
330
22
102
}
330
22
100
AcDbXrecord
280
     1
102
MATERIAL
148
0.0
149
0.0
149
0.0
 93
        0
 94
      127
282
     0
 72
     0
 77
     0
171
     0
175
     0
179
     0
273
     0
  0
XRECORD
  5
24
102
{ACAD_REACTORS
330
22
102
}
330
22
100
AcDbXrecord
280
     1
270
     1
271
     1
  0
XRECORD
  5
23
102
{ACAD_REACTORS
330
22
102
}
330
22
100
AcDbXrecord
280
     1
270
     1
271
     1
  0
XRECORD
  5
27
102
{ACAD_REACTORS
330
22
102
}
330
22
100
AcDbXrecord
280
     1
270
     1
271
     1
  0
XRECORD
  5
26
102
{ACAD_REACTORS
330
22
102
}
330
22
100
AcDbXrecord
280
     1
270
     1
271
     1
  0
XRECORD
  5
28
102
{ACAD_REACTORS
330
22
102
}
330
22
100
AcDbXrecord
280
     1
270
     1
271
     1
  0
XRECORD
  5
25
102
{ACAD_REACTORS
330
22
102
}
330
22
100
AcDbXrecord
280
     1
270
     1
271
     1
  0
XRECORD
  5
A98
102
{ACAD_REACTORS
330
A97
102
}
330
A97
100
AcDbXrecord
280
     1
102
ACAD_ROUNDTRIP_2012_MLEADER_STYLE
298
     1
  0
CELLSTYLEMAP
  5
A96
102
{ACAD_REACTORS
330
A95
102
}
330
A95
100
AcDbCellStyleMap
 90
        3
300
CELLSTYLE
  1
TABLEFORMAT_BEGIN
 90
        5
170
     1
 91
        0
 92
    32768
 62
   257
 93
        1
300
CONTENTFORMAT
  1
CONTENTFORMAT_BEGIN
 90
        0
 91
        0
 92
      512
 93
        0
300

 40
0.0
140
1.0
 94
        5
 62
     0
340
55
144
0.25
309
CONTENTFORMAT_END
171
     0
 94
        0
309
TABLEFORMAT_END
  1
CELLSTYLE_BEGIN
 90
        1
 91
        1
300
_TITLE
309
CELLSTYLE_END
300
CELLSTYLE
  1
TABLEFORMAT_BEGIN
 90
        5
170
     1
 91
        0
 92
        0
 62
   257
 93
        1
300
CONTENTFORMAT
  1
CONTENTFORMAT_BEGIN
 90
        0
 91
        0
 92
      512
 93
        0
300

 40
0.0
140
1.0
 94
        5
 62
     0
340
55
144
0.18
309
CONTENTFORMAT_END
171
     0
 94
        0
309
TABLEFORMAT_END
  1
CELLSTYLE_BEGIN
 90
        2
 91
        1
300
_HEADER
309
CELLSTYLE_END
300
CELLSTYLE
  1
TABLEFORMAT_BEGIN
 90
        5
170
     1
 91
        0
 92
        0
 62
   257
 93
        1
300
CONTENTFORMAT
  1
CONTENTFORMAT_BEGIN
 90
        0
 91
        0
 92
      512
 93
        0
300

 40
0.0
140
1.0
 94
        2
 62
     0
340
55
144
0.18
309
CONTENTFORMAT_END
171
     0
 94
        0
309
TABLEFORMAT_END
  1
CELLSTYLE_BEGIN
 90
        3
 91
        2
300
_DATA
309
CELLSTYLE_END
  0
XRECORD
  5
ACE
102
{ACAD_REACTORS
330
A95
102
}
330
A95
100
AcDbXrecord
280
     1
102
ACAD_ROUNDTRIP_PRE2007_TABLESTYLE
 90
      512
 91
        0
  1

 92
      512
 93
        0
  2

 94
      512
 95
        0
  3

  0
XRECORD
  5
AA9
102
{ACAD_REACTORS
330
AA8
102
}
330
AA8
100
AcDbXrecord
280
     1
102
RTVSPropertyOp0
 70
     1
102
RTVSPropertyOp1
 70
     1
102
RTVSPropertyOp2
 70
     1
102
RTVSPropertyOp3
 70
     1
102
RTVSPropertyOp4
 70
     1
102
RTVSPropertyOp5
 70
     1
102
RTVSPropertyOp6
 70
     1
102
RTVSPropertyOp7
 70
     1
102
RTVSPropertyOp8
 70
     1
102
RTVSPropertyOp9
 70
     1
102
RTVSPropertyOp10
 70
     1
102
RTVSPropertyOp11
 70
     1
102
RTVSPropertyOp12
 70
     1
102
RTVSPropertyOp13
 70
     1
102
RTVSPropertyOp14
 70
     1
102
RTVSPropertyOp15
 70
     1
102
RTVSPropertyOp16
 70
     1
102
RTVSPropertyOp17
 70
     1
102
RTVSPropertyOp18
 70
     1
102
RTVSPropertyOp19
 70
     1
102
RTVSPropertyOp20
 70
     1
102
RTVSPropertyOp21
 70
     1
102
RTVSPropertyOp22
 70
     1
102
RTVSPropertyOp23
 70
     1
102
RTVSPropertyOp24
 70
     1
102
RTVSPropertyOp25
 70
     1
102
RTVSPropertyOp26
 70
     1
102
RTVSPropertyOp27
 70
     1
102
RTVSPropertyOp28
 70
     1
102
RTVSPropertyOp29
 70
     1
102
RTVSPropertyOp30
 70
     1
102
RTVSPropertyOp31
 70
     1
102
RTVSPropertyOp32
 70
     1
  0
XRECORD
  5
AA7
102
{ACAD_REACTORS
330
AA6
102
}
330
AA6
100
AcDbXrecord
280
     1
102
RTVSPropertyOp0
 70
     1
102
RTVSPropertyOp1
 70
     1
102
RTVSPropertyOp2
 70
     1
102
RTVSPropertyOp3
 70
     1
102
RTVSPropertyOp4
 70
     1
102
RTVSPropertyOp5
 70
     1
102
RTVSPropertyOp6
 70
     1
102
RTVSPropertyOp7
 70
     1
102
RTVSPropertyOp8
 70
     1
102
RTVSPropertyOp9
 70
     1
102
RTVSPropertyOp10
 70
     1
102
RTVSPropertyOp11
 70
     1
102
RTVSPropertyOp12
 70
     1
102
RTVSPropertyOp13
 70
     1
102
RTVSPropertyOp14
 70
     1
102
RTVSPropertyOp15
 70
     1
102
RTVSPropertyOp16
 70
     1
102
RTVSPropertyOp17
 70
     1
102
RTVSPropertyOp18
 70
     1
102
RTVSPropertyOp19
 70
     1
102
RTVSPropertyOp20
 70
     1
102
RTVSPropertyOp21
 70
     1
102
RTVSPropertyOp22
 70
     1
102
RTVSPropertyOp23
 70
     1
102
RTVSPropertyOp24
 70
     1
102
RTVSPropertyOp25
 70
     1
102
RTVSPropertyOp26
 70
     1
102
RTVSPropertyOp27
 70
     1
102
RTVSPropertyOp28
 70
     1
102
RTVSPropertyOp29
 70
     1
102
RTVSPropertyOp30
 70
     1
102
RTVSPropertyOp31
 70
     1
102
RTVSPropertyOp32
 70
     1
  0
XRECORD
  5
AB5
102
{ACAD_REACTORS
330
AB4
102
}
330
AB4
100
AcDbXrecord
280
     1
102
RTVSPropertyOp0
 70
     1
102
RTVSPropertyOp1
 70
     1
102
RTVSPropertyOp2
 70
     1
102
RTVSPropertyOp3
 70
     1
102
RTVSPropertyOp4
 70
     1
102
RTVSPropertyOp5
 70
     1
102
RTVSPropertyOp6
 70
     1
102
RTVSPropertyOp7
 70
     1
102
RTVSPropertyOp8
 70
     1
102
RTVSPropertyOp9
 70
     1
102
RTVSPropertyOp10
 70
     1
102
RTVSPropertyOp11
 70
     1
102
RTVSPropertyOp12
 70
     1
102
RTVSPropertyOp13
 70
     1
102
RTVSPropertyOp14
 70
     1
102
RTVSPropertyOp15
 70
     1
102
RTVSPropertyOp16
 70
     1
102
RTVSPropertyOp17
 70
     1
102
RTVSPropertyOp18
 70
     1
102
RTVSPropertyOp19
 70
     1
102
RTVSPropertyOp20
 70
     1
102
RTVSPropertyOp21
 70
     1
102
RTVSPropertyOp22
 70
     1
102
RTVSPropertyOp23
 70
     1
102
RTVSPropertyOp24
 70
     1
102
RTVSPropertyOp25
 70
     1
102
RTVSPropertyOp26
 70
     1
102
RTVSPropertyOp27
 70
     1
102
RTVSPropertyOp28
 70
     1
102
RTVSPropertyOp29
 70
     1
102
RTVSPropertyOp30
 70
     1
102
RTVSPropertyOp31
 70
     1
102
RTVSPropertyOp32
 70
     1
  0
XRECORD
  5
ABD
102
{ACAD_REACTORS
330
ABC
102
}
330
ABC
100
AcDbXrecord
280
     1
102
RTVSPropertyOp0
 70
     1
102
RTVSPropertyOp1
 70
     1
102
RTVSPropertyOp2
 70
     1
102
RTVSPropertyOp3
 70
     1
102
RTVSPropertyOp4
 70
     1
102
RTVSPropertyOp5
 70
     1
102
RTVSPropertyOp6
 70
     1
102
RTVSPropertyOp7
 70
     1
102
RTVSPropertyOp8
 70
     1
102
RTVSPropertyOp9
 70
     1
102
RTVSPropertyOp10
 70
     1
102
RTVSPropertyOp11
 70
     1
102
RTVSPropertyOp12
 70
     1
102
RTVSPropertyOp13
 70
     1
102
RTVSPropertyOp14
 70
     1
102
RTVSPropertyOp15
 70
     1
102
RTVSPropertyOp16
 70
     1
102
RTVSPropertyOp17
 70
     1
102
RTVSPropertyOp18
 70
     1
102
RTVSPropertyOp19
 70
     1
102
RTVSPropertyOp20
 70
     1
102
RTVSPropertyOp21
 70
     1
102
RTVSPropertyOp22
 70
     1
102
RTVSPropertyOp23
 70
     1
102
RTVSPropertyOp24
 70
     1
102
RTVSPropertyOp25
 70
     1
102
RTVSPropertyOp26
 70
     1
102
RTVSPropertyOp27
 70
     1
102
RTVSPropertyOp28
 70
     1
102
RTVSPropertyOp29
 70
     1
102
RTVSPropertyOp30
 70
     1
102
RTVSPropertyOp31
 70
     1
102
RTVSPropertyOp32
 70
     1
  0
XRECORD
  5
AAF
102
{ACAD_REACTORS
330
AAE
102
}
330
AAE
100
AcDbXrecord
280
     1
102
RTVSPropertyOp0
 70
     1
102
RTVSPropertyOp1
 70
     1
102
RTVSPropertyOp2
 70
     1
102
RTVSPropertyOp3
 70
     1
102
RTVSPropertyOp4
 70
     1
102
RTVSPropertyOp5
 70
     1
102
RTVSPropertyOp6
 70
     1
102
RTVSPropertyOp7
 70
     1
102
RTVSPropertyOp8
 70
     1
102
RTVSPropertyOp9
 70
     1
102
RTVSPropertyOp10
 70
     1
102
RTVSPropertyOp11
 70
     1
102
RTVSPropertyOp12
 70
     1
102
RTVSPropertyOp13
 70
     1
102
RTVSPropertyOp14
 70
     1
102
RTVSPropertyOp15
 70
     1
102
RTVSPropertyOp16
 70
     1
102
RTVSPropertyOp17
 70
     1
102
RTVSPropertyOp18
 70
     1
102
RTVSPropertyOp19
 70
     1
102
RTVSPropertyOp20
 70
     1
102
RTVSPropertyOp21
 70
     1
102
RTVSPropertyOp22
 70
     1
102
RTVSPropertyOp23
 70
     1
102
RTVSPropertyOp24
 70
     1
102
RTVSPropertyOp25
 70
     1
102
RTVSPropertyOp26
 70
     1
102
RTVSPropertyOp27
 70
     1
102
RTVSPropertyOp28
 70
     1
102
RTVSPropertyOp29
 70
     1
102
RTVSPropertyOp30
 70
     1
102
RTVSPropertyOp31
 70
     1
102
RTVSPropertyOp32
 70
     1
  0
XRECORD
  5
AB3
102
{ACAD_REACTORS
330
AB2
102
}
330
AB2
100
AcDbXrecord
280
     1
102
RTVSPropertyOp0
 70
     1
102
RTVSPropertyOp1
 70
     1
102
RTVSPropertyOp2
 70
     1
102
RTVSPropertyOp3
 70
     1
102
RTVSPropertyOp4
 70
     1
102
RTVSPropertyOp5
 70
     1
102
RTVSPropertyOp6
 70
     1
102
RTVSPropertyOp7
 70
     1
102
RTVSPropertyOp8
 70
     1
102
RTVSPropertyOp9
 70
     1
102
RTVSPropertyOp10
 70
     1
102
RTVSPropertyOp11
 70
     1
102
RTVSPropertyOp12
 70
     1
102
RTVSPropertyOp13
 70
     1
102
RTVSPropertyOp14
 70
     1
102
RTVSPropertyOp15
 70
     1
102
RTVSPropertyOp16
 70
     1
102
RTVSPropertyOp17
 70
     1
102
RTVSPropertyOp18
 70
     1
102
RTVSPropertyOp19
 70
     1
102
RTVSPropertyOp20
 70
     1
102
RTVSPropertyOp21
 70
     1
102
RTVSPropertyOp22
 70
     1
102
RTVSPropertyOp23
 70
     1
102
RTVSPropertyOp24
 70
     1
102
RTVSPropertyOp25
 70
     1
102
RTVSPropertyOp26
 70
     1
102
RTVSPropertyOp27
 70
     1
102
RTVSPropertyOp28
 70
     1
102
RTVSPropertyOp29
 70
     1
102
RTVSPropertyOp30
 70
     1
102
RTVSPropertyOp31
 70
     1
102
RTVSPropertyOp32
 70
     1
  0
XRECORD
  5
ACD
102
{ACAD_REACTORS
330
ACC
102
}
330
ACC
100
AcDbXrecord
280
     1
102
RTVSPropertyOp0
 70
     0
102
RTVSPropertyOp1
 70
     0
102
RTVSPropertyOp2
 70
     0
102
RTVSPropertyOp3
 70
     0
102
RTVSPropertyOp4
 70
     0
102
RTVSPropertyOp5
 70
     0
102
RTVSPropertyOp6
 70
     0
102
RTVSPropertyOp7
 70
     0
102
RTVSPropertyOp8
 70
     0
102
RTVSPropertyOp9
 70
     0
102
RTVSPropertyOp10
 70
     0
102
RTVSPropertyOp11
 70
     0
102
RTVSPropertyOp12
 70
     0
102
RTVSPropertyOp13
 70
     0
102
RTVSPropertyOp14
 70
     2
102
RTVSPropertyOp15
 70
     0
102
RTVSPropertyOp16
 70
     0
102
RTVSPropertyOp17
 70
     0
102
RTVSPropertyOp18
 70
     0
102
RTVSPropertyOp19
 70
     0
102
RTVSPropertyOp20
 70
     0
102
RTVSPropertyOp21
 70
     0
102
RTVSPropertyOp22
 70
     0
102
RTVSPropertyOp23
 70
     0
102
RTVSPropertyOp24
 70
     0
102
RTVSPropertyOp25
 70
     0
102
RTVSPropertyOp26
 70
     0
102
RTVSPropertyOp27
 70
     0
102
RTVSPropertyOp28
 70
     0
102
RTVSPropertyOp29
 70
     0
102
RTVSPropertyOp30
 70
     0
102
RTVSPropertyOp31
 70
     0
102
RTVSPropertyOp32
 70
     0
  0
XRECORD
  5
ABB
102
{ACAD_REACTORS
330
ABA
102
}
330
ABA
100
AcDbXrecord
280
     1
102
RTVSPropertyOp0
 70
     1
102
RTVSPropertyOp1
 70
     1
102
RTVSPropertyOp2
 70
     1
102
RTVSPropertyOp3
 70
     1
102
RTVSPropertyOp4
 70
     1
102
RTVSPropertyOp5
 70
     1
102
RTVSPropertyOp6
 70
     1
102
RTVSPropertyOp7
 70
     1
102
RTVSPropertyOp8
 70
     1
102
RTVSPropertyOp9
 70
     1
102
RTVSPropertyOp10
 70
     1
102
RTVSPropertyOp11
 70
     1
102
RTVSPropertyOp12
 70
     1
102
RTVSPropertyOp13
 70
     1
102
RTVSPropertyOp14
 70
     1
102
RTVSPropertyOp15
 70
     1
102
RTVSPropertyOp16
 70
     1
102
RTVSPropertyOp17
 70
     1
102
RTVSPropertyOp18
 70
     1
102
RTVSPropertyOp19
 70
     1
102
RTVSPropertyOp20
 70
     1
102
RTVSPropertyOp21
 70
     1
102
RTVSPropertyOp22
 70
     1
102
RTVSPropertyOp23
 70
     1
102
RTVSPropertyOp24
 70
     1
102
RTVSPropertyOp25
 70
     1
102
RTVSPropertyOp26
 70
     1
102
RTVSPropertyOp27
 70
     1
102
RTVSPropertyOp28
 70
     1
102
RTVSPropertyOp29
 70
     1
102
RTVSPropertyOp30
 70
     1
102
RTVSPropertyOp31
 70
     1
102
RTVSPropertyOp32
 70
     1
  0
XRECORD
  5
A9F
102
{ACAD_REACTORS
330
A9E
102
}
330
A9E
100
AcDbXrecord
280
     1
102
RTVSPropertyOp0
 70
     1
102
RTVSPropertyOp1
 70
     1
102
RTVSPropertyOp2
 70
     1
102
RTVSPropertyOp3
 70
     1
102
RTVSPropertyOp4
 70
     1
102
RTVSPropertyOp5
 70
     1
102
RTVSPropertyOp6
 70
     1
102
RTVSPropertyOp7
 70
     1
102
RTVSPropertyOp8
 70
     1
102
RTVSPropertyOp9
 70
     1
102
RTVSPropertyOp10
 70
     1
102
RTVSPropertyOp11
 70
     1
102
RTVSPropertyOp12
 70
     1
102
RTVSPropertyOp13
 70
     1
102
RTVSPropertyOp14
 70
     1
102
RTVSPropertyOp15
 70
     1
102
RTVSPropertyOp16
 70
     1
102
RTVSPropertyOp17
 70
     1
102
RTVSPropertyOp18
 70
     1
102
RTVSPropertyOp19
 70
     1
102
RTVSPropertyOp20
 70
     1
102
RTVSPropertyOp21
 70
     1
102
RTVSPropertyOp22
 70
     1
102
RTVSPropertyOp23
 70
     1
102
RTVSPropertyOp24
 70
     1
102
RTVSPropertyOp25
 70
     1
102
RTVSPropertyOp26
 70
     1
102
RTVSPropertyOp27
 70
     1
102
RTVSPropertyOp28
 70
     1
102
RTVSPropertyOp29
 70
     1
102
RTVSPropertyOp30
 70
     1
102
RTVSPropertyOp31
 70
     1
102
RTVSPropertyOp32
 70
     1
  0
XRECORD
  5
AA1
102
{ACAD_REACTORS
330
AA0
102
}
330
AA0
100
AcDbXrecord
280
     1
102
RTVSPropertyOp0
 70
     1
102
RTVSPropertyOp1
 70
     1
102
RTVSPropertyOp2
 70
     1
102
RTVSPropertyOp3
 70
     1
102
RTVSPropertyOp4
 70
     1
102
RTVSPropertyOp5
 70
     1
102
RTVSPropertyOp6
 70
     1
102
RTVSPropertyOp7
 70
     1
102
RTVSPropertyOp8
 70
     1
102
RTVSPropertyOp9
 70
     1
102
RTVSPropertyOp10
 70
     1
102
RTVSPropertyOp11
 70
     1
102
RTVSPropertyOp12
 70
     1
102
RTVSPropertyOp13
 70
     1
102
RTVSPropertyOp14
 70
     1
102
RTVSPropertyOp15
 70
     1
102
RTVSPropertyOp16
 70
     1
102
RTVSPropertyOp17
 70
     1
102
RTVSPropertyOp18
 70
     1
102
RTVSPropertyOp19
 70
     1
102
RTVSPropertyOp20
 70
     1
102
RTVSPropertyOp21
 70
     1
102
RTVSPropertyOp22
 70
     1
102
RTVSPropertyOp23
 70
     1
102
RTVSPropertyOp24
 70
     1
102
RTVSPropertyOp25
 70
     1
102
RTVSPropertyOp26
 70
     1
102
RTVSPropertyOp27
 70
     1
102
RTVSPropertyOp28
 70
     1
102
RTVSPropertyOp29
 70
     1
102
RTVSPropertyOp30
 70
     1
102
RTVSPropertyOp31
 70
     1
102
RTVSPropertyOp32
 70
     1
  0
XRECORD
  5
AA3
102
{ACAD_REACTORS
330
AA2
102
}
330
AA2
100
AcDbXrecord
280
     1
102
RTVSPropertyOp0
 70
     1
102
RTVSPropertyOp1
 70
     1
102
RTVSPropertyOp2
 70
     1
102
RTVSPropertyOp3
 70
     1
102
RTVSPropertyOp4
 70
     1
102
RTVSPropertyOp5
 70
     1
102
RTVSPropertyOp6
 70
     1
102
RTVSPropertyOp7
 70
     1
102
RTVSPropertyOp8
 70
     1
102
RTVSPropertyOp9
 70
     1
102
RTVSPropertyOp10
 70
     1
102
RTVSPropertyOp11
 70
     1
102
RTVSPropertyOp12
 70
     1
102
RTVSPropertyOp13
 70
     1
102
RTVSPropertyOp14
 70
     1
102
RTVSPropertyOp15
 70
     1
102
RTVSPropertyOp16
 70
     1
102
RTVSPropertyOp17
 70
     1
102
RTVSPropertyOp18
 70
     1
102
RTVSPropertyOp19
 70
     1
102
RTVSPropertyOp20
 70
     1
102
RTVSPropertyOp21
 70
     1
102
RTVSPropertyOp22
 70
     1
102
RTVSPropertyOp23
 70
     1
102
RTVSPropertyOp24
 70
     1
102
RTVSPropertyOp25
 70
     1
102
RTVSPropertyOp26
 70
     1
102
RTVSPropertyOp27
 70
     1
102
RTVSPropertyOp28
 70
     1
102
RTVSPropertyOp29
 70
     1
102
RTVSPropertyOp30
 70
     1
102
RTVSPropertyOp31
 70
     1
102
RTVSPropertyOp32
 70
     1
  0
XRECORD
  5
AA5
102
{ACAD_REACTORS
330
AA4
102
}
330
AA4
100
AcDbXrecord
280
     1
102
RTVSPropertyOp0
 70
     1
102
RTVSPropertyOp1
 70
     1
102
RTVSPropertyOp2
 70
     1
102
RTVSPropertyOp3
 70
     1
102
RTVSPropertyOp4
 70
     1
102
RTVSPropertyOp5
 70
     1
102
RTVSPropertyOp6
 70
     1
102
RTVSPropertyOp7
 70
     1
102
RTVSPropertyOp8
 70
     1
102
RTVSPropertyOp9
 70
     1
102
RTVSPropertyOp10
 70
     1
102
RTVSPropertyOp11
 70
     1
102
RTVSPropertyOp12
 70
     1
102
RTVSPropertyOp13
 70
     1
102
RTVSPropertyOp14
 70
     1
102
RTVSPropertyOp15
 70
     1
102
RTVSPropertyOp16
 70
     1
102
RTVSPropertyOp17
 70
     1
102
RTVSPropertyOp18
 70
     1
102
RTVSPropertyOp19
 70
     1
102
RTVSPropertyOp20
 70
     1
102
RTVSPropertyOp21
 70
     1
102
RTVSPropertyOp22
 70
     1
102
RTVSPropertyOp23
 70
     1
102
RTVSPropertyOp24
 70
     1
102
RTVSPropertyOp25
 70
     1
102
RTVSPropertyOp26
 70
     1
102
RTVSPropertyOp27
 70
     1
102
RTVSPropertyOp28
 70
     1
102
RTVSPropertyOp29
 70
     1
102
RTVSPropertyOp30
 70
     1
102
RTVSPropertyOp31
 70
     1
102
RTVSPropertyOp32
 70
     1
  0
XRECORD
  5
AAD
102
{ACAD_REACTORS
330
AAC
102
}
330
AAC
100
AcDbXrecord
280
     1
102
RTVSPropertyOp0
 70
     1
102
RTVSPropertyOp1
 70
     1
102
RTVSPropertyOp2
 70
     1
102
RTVSPropertyOp3
 70
     1
102
RTVSPropertyOp4
 70
     1
102
RTVSPropertyOp5
 70
     1
102
RTVSPropertyOp6
 70
     1
102
RTVSPropertyOp7
 70
     1
102
RTVSPropertyOp8
 70
     1
102
RTVSPropertyOp9
 70
     1
102
RTVSPropertyOp10
 70
     1
102
RTVSPropertyOp11
 70
     1
102
RTVSPropertyOp12
 70
     1
102
RTVSPropertyOp13
 70
     1
102
RTVSPropertyOp14
 70
     1
102
RTVSPropertyOp15
 70
     1
102
RTVSPropertyOp16
 70
     1
102
RTVSPropertyOp17
 70
     1
102
RTVSPropertyOp18
 70
     1
102
RTVSPropertyOp19
 70
     1
102
RTVSPropertyOp20
 70
     1
102
RTVSPropertyOp21
 70
     1
102
RTVSPropertyOp22
 70
     1
102
RTVSPropertyOp23
 70
     1
102
RTVSPropertyOp24
 70
     1
102
RTVSPropertyOp25
 70
     1
102
RTVSPropertyOp26
 70
     1
102
RTVSPropertyOp27
 70
     1
102
RTVSPropertyOp28
 70
     1
102
RTVSPropertyOp29
 70
     1
102
RTVSPropertyOp30
 70
     1
102
RTVSPropertyOp31
 70
     1
102
RTVSPropertyOp32
 70
     1
  0
XRECORD
  5
AC9
102
{ACAD_REACTORS
330
AC8
102
}
330
AC8
100
AcDbXrecord
280
     1
102
RTVSPropertyOp0
 70
     0
102
RTVSPropertyOp1
 70
     0
102
RTVSPropertyOp2
 70
     0
102
RTVSPropertyOp3
 70
     0
102
RTVSPropertyOp4
 70
     0
102
RTVSPropertyOp5
 70
     0
102
RTVSPropertyOp6
 70
     0
102
RTVSPropertyOp7
 70
     0
102
RTVSPropertyOp8
 70
     0
102
RTVSPropertyOp9
 70
     0
102
RTVSPropertyOp10
 70
     0
102
RTVSPropertyOp11
 70
     0
102
RTVSPropertyOp12
 70
     0
102
RTVSPropertyOp13
 70
     0
102
RTVSPropertyOp14
 70
     2
102
RTVSPropertyOp15
 70
     0
102
RTVSPropertyOp16
 70
     0
102
RTVSPropertyOp17
 70
     0
102
RTVSPropertyOp18
 70
     0
102
RTVSPropertyOp19
 70
     0
102
RTVSPropertyOp20
 70
     0
102
RTVSPropertyOp21
 70
     0
102
RTVSPropertyOp22
 70
     0
102
RTVSPropertyOp23
 70
     0
102
RTVSPropertyOp24
 70
     0
102
RTVSPropertyOp25
 70
     0
102
RTVSPropertyOp26
 70
     0
102
RTVSPropertyOp27
 70
     0
102
RTVSPropertyOp28
 70
     0
102
RTVSPropertyOp29
 70
     0
102
RTVSPropertyOp30
 70
     0
102
RTVSPropertyOp31
 70
     0
102
RTVSPropertyOp32
 70
     0
  0
XRECORD
  5
AB9
102
{ACAD_REACTORS
330
AB8
102
}
330
AB8
100
AcDbXrecord
280
     1
102
RTVSPropertyOp0
 70
     1
102
RTVSPropertyOp1
 70
     1
102
RTVSPropertyOp2
 70
     1
102
RTVSPropertyOp3
 70
     1
102
RTVSPropertyOp4
 70
     1
102
RTVSPropertyOp5
 70
     1
102
RTVSPropertyOp6
 70
     1
102
RTVSPropertyOp7
 70
     1
102
RTVSPropertyOp8
 70
     1
102
RTVSPropertyOp9
 70
     1
102
RTVSPropertyOp10
 70
     1
102
RTVSPropertyOp11
 70
     1
102
RTVSPropertyOp12
 70
     1
102
RTVSPropertyOp13
 70
     1
102
RTVSPropertyOp14
 70
     1
102
RTVSPropertyOp15
 70
     1
102
RTVSPropertyOp16
 70
     1
102
RTVSPropertyOp17
 70
     1
102
RTVSPropertyOp18
 70
     1
102
RTVSPropertyOp19
 70
     1
102
RTVSPropertyOp20
 70
     1
102
RTVSPropertyOp21
 70
     1
102
RTVSPropertyOp22
 70
     1
102
RTVSPropertyOp23
 70
     1
102
RTVSPropertyOp24
 70
     1
102
RTVSPropertyOp25
 70
     1
102
RTVSPropertyOp26
 70
     1
102
RTVSPropertyOp27
 70
     1
102
RTVSPropertyOp28
 70
     1
102
RTVSPropertyOp29
 70
     1
102
RTVSPropertyOp30
 70
     1
102
RTVSPropertyOp31
 70
     1
102
RTVSPropertyOp32
 70
     1
  0
XRECORD
  5
ACB
102
{ACAD_REACTORS
330
ACA
102
}
330
ACA
100
AcDbXrecord
280
     1
102
RTVSPropertyOp0
 70
     0
102
RTVSPropertyOp1
 70
     0
102
RTVSPropertyOp2
 70
     0
102
RTVSPropertyOp3
 70
     0
102
RTVSPropertyOp4
 70
     0
102
RTVSPropertyOp5
 70
     0
102
RTVSPropertyOp6
 70
     0
102
RTVSPropertyOp7
 70
     0
102
RTVSPropertyOp8
 70
     0
102
RTVSPropertyOp9
 70
     0
102
RTVSPropertyOp10
 70
     0
102
RTVSPropertyOp11
 70
     0
102
RTVSPropertyOp12
 70
     0
102
RTVSPropertyOp13
 70
     0
102
RTVSPropertyOp14
 70
     2
102
RTVSPropertyOp15
 70
     0
102
RTVSPropertyOp16
 70
     0
102
RTVSPropertyOp17
 70
     0
102
RTVSPropertyOp18
 70
     0
102
RTVSPropertyOp19
 70
     0
102
RTVSPropertyOp20
 70
     0
102
RTVSPropertyOp21
 70
     0
102
RTVSPropertyOp22
 70
     0
102
RTVSPropertyOp23
 70
     0
102
RTVSPropertyOp24
 70
     0
102
RTVSPropertyOp25
 70
     0
102
RTVSPropertyOp26
 70
     0
102
RTVSPropertyOp27
 70
     0
102
RTVSPropertyOp28
 70
     0
102
RTVSPropertyOp29
 70
     0
102
RTVSPropertyOp30
 70
     0
102
RTVSPropertyOp31
 70
     0
102
RTVSPropertyOp32
 70
     0
  0
XRECORD
  5
AB1
102
{ACAD_REACTORS
330
AB0
102
}
330
AB0
100
AcDbXrecord
280
     1
102
RTVSPropertyOp0
 70
     1
102
RTVSPropertyOp1
 70
     1
102
RTVSPropertyOp2
 70
     1
102
RTVSPropertyOp3
 70
     1
102
RTVSPropertyOp4
 70
     1
102
RTVSPropertyOp5
 70
     1
102
RTVSPropertyOp6
 70
     1
102
RTVSPropertyOp7
 70
     1
102
RTVSPropertyOp8
 70
     1
102
RTVSPropertyOp9
 70
     1
102
RTVSPropertyOp10
 70
     1
102
RTVSPropertyOp11
 70
     1
102
RTVSPropertyOp12
 70
     1
102
RTVSPropertyOp13
 70
     1
102
RTVSPropertyOp14
 70
     1
102
RTVSPropertyOp15
 70
     1
102
RTVSPropertyOp16
 70
     1
102
RTVSPropertyOp17
 70
     1
102
RTVSPropertyOp18
 70
     1
102
RTVSPropertyOp19
 70
     1
102
RTVSPropertyOp20
 70
     1
102
RTVSPropertyOp21
 70
     1
102
RTVSPropertyOp22
 70
     1
102
RTVSPropertyOp23
 70
     1
102
RTVSPropertyOp24
 70
     1
102
RTVSPropertyOp25
 70
     1
102
RTVSPropertyOp26
 70
     1
102
RTVSPropertyOp27
 70
     1
102
RTVSPropertyOp28
 70
     1
102
RTVSPropertyOp29
 70
     1
102
RTVSPropertyOp30
 70
     1
102
RTVSPropertyOp31
 70
     1
102
RTVSPropertyOp32
 70
     1
  0
XRECORD
  5
AC7
102
{ACAD_REACTORS
330
AC6
102
}
330
AC6
100
AcDbXrecord
280
     1
102
RTVSPropertyOp0
 70
     1
102
RTVSPropertyOp1
 70
     1
102
RTVSPropertyOp2
 70
     1
102
RTVSPropertyOp3
 70
     1
102
RTVSPropertyOp4
 70
     1
102
RTVSPropertyOp5
 70
     1
102
RTVSPropertyOp6
 70
     1
102
RTVSPropertyOp7
 70
     1
102
RTVSPropertyOp8
 70
     1
102
RTVSPropertyOp9
 70
     1
102
RTVSPropertyOp10
 70
     1
102
RTVSPropertyOp11
 70
     1
102
RTVSPropertyOp12
 70
     1
102
RTVSPropertyOp13
 70
     1
102
RTVSPropertyOp14
 70
     1
102
RTVSPropertyOp15
 70
     1
102
RTVSPropertyOp16
 70
     1
102
RTVSPropertyOp17
 70
     1
102
RTVSPropertyOp18
 70
     1
102
RTVSPropertyOp19
 70
     1
102
RTVSPropertyOp20
 70
     1
102
RTVSPropertyOp21
 70
     1
102
RTVSPropertyOp22
 70
     1
102
RTVSPropertyOp23
 70
     1
102
RTVSPropertyOp24
 70
     1
102
RTVSPropertyOp25
 70
     1
102
RTVSPropertyOp26
 70
     1
102
RTVSPropertyOp27
 70
     1
102
RTVSPropertyOp28
 70
     1
102
RTVSPropertyOp29
 70
     1
102
RTVSPropertyOp30
 70
     1
102
RTVSPropertyOp31
 70
     1
102
RTVSPropertyOp32
 70
     1
  0
XRECORD
  5
AC5
102
{ACAD_REACTORS
330
AC4
102
}
330
AC4
100
AcDbXrecord
280
     1
102
RTVSPropertyOp0
 70
     1
102
RTVSPropertyOp1
 70
     1
102
RTVSPropertyOp2
 70
     1
102
RTVSPropertyOp3
 70
     1
102
RTVSPropertyOp4
 70
     1
102
RTVSPropertyOp5
 70
     1
102
RTVSPropertyOp6
 70
     1
102
RTVSPropertyOp7
 70
     1
102
RTVSPropertyOp8
 70
     1
102
RTVSPropertyOp9
 70
     1
102
RTVSPropertyOp10
 70
     1
102
RTVSPropertyOp11
 70
     1
102
RTVSPropertyOp12
 70
     1
102
RTVSPropertyOp13
 70
     1
102
RTVSPropertyOp14
 70
     1
102
RTVSPropertyOp15
 70
     1
102
RTVSPropertyOp16
 70
     1
102
RTVSPropertyOp17
 70
     1
102
RTVSPropertyOp18
 70
     1
102
RTVSPropertyOp19
 70
     1
102
RTVSPropertyOp20
 70
     1
102
RTVSPropertyOp21
 70
     1
102
RTVSPropertyOp22
 70
     1
102
RTVSPropertyOp23
 70
     1
102
RTVSPropertyOp24
 70
     1
102
RTVSPropertyOp25
 70
     1
102
RTVSPropertyOp26
 70
     1
102
RTVSPropertyOp27
 70
     1
102
RTVSPropertyOp28
 70
     1
102
RTVSPropertyOp29
 70
     1
102
RTVSPropertyOp30
 70
     1
102
RTVSPropertyOp31
 70
     1
102
RTVSPropertyOp32
 70
     1
  0
XRECORD
  5
ABF
102
{ACAD_REACTORS
330
ABE
102
}
330
ABE
100
AcDbXrecord
280
     1
102
RTVSPropertyOp0
 70
     1
102
RTVSPropertyOp1
 70
     1
102
RTVSPropertyOp2
 70
     1
102
RTVSPropertyOp3
 70
     1
102
RTVSPropertyOp4
 70
     1
102
RTVSPropertyOp5
 70
     1
102
RTVSPropertyOp6
 70
     1
102
RTVSPropertyOp7
 70
     1
102
RTVSPropertyOp8
 70
     1
102
RTVSPropertyOp9
 70
     1
102
RTVSPropertyOp10
 70
     1
102
RTVSPropertyOp11
 70
     1
102
RTVSPropertyOp12
 70
     1
102
RTVSPropertyOp13
 70
     1
102
RTVSPropertyOp14
 70
     1
102
RTVSPropertyOp15
 70
     1
102
RTVSPropertyOp16
 70
     1
102
RTVSPropertyOp17
 70
     1
102
RTVSPropertyOp18
 70
     1
102
RTVSPropertyOp19
 70
     1
102
RTVSPropertyOp20
 70
     1
102
RTVSPropertyOp21
 70
     1
102
RTVSPropertyOp22
 70
     1
102
RTVSPropertyOp23
 70
     1
102
RTVSPropertyOp24
 70
     1
102
RTVSPropertyOp25
 70
     1
102
RTVSPropertyOp26
 70
     1
102
RTVSPropertyOp27
 70
     1
102
RTVSPropertyOp28
 70
     1
102
RTVSPropertyOp29
 70
     1
102
RTVSPropertyOp30
 70
     1
102
RTVSPropertyOp31
 70
     1
102
RTVSPropertyOp32
 70
     1
  0
XRECORD
  5
AC1
102
{ACAD_REACTORS
330
AC0
102
}
330
AC0
100
AcDbXrecord
280
     1
102
RTVSPropertyOp0
 70
     1
102
RTVSPropertyOp1
 70
     1
102
RTVSPropertyOp2
 70
     1
102
RTVSPropertyOp3
 70
     1
102
RTVSPropertyOp4
 70
     1
102
RTVSPropertyOp5
 70
     1
102
RTVSPropertyOp6
 70
     1
102
RTVSPropertyOp7
 70
     1
102
RTVSPropertyOp8
 70
     1
102
RTVSPropertyOp9
 70
     1
102
RTVSPropertyOp10
 70
     1
102
RTVSPropertyOp11
 70
     1
102
RTVSPropertyOp12
 70
     1
102
RTVSPropertyOp13
 70
     1
102
RTVSPropertyOp14
 70
     1
102
RTVSPropertyOp15
 70
     1
102
RTVSPropertyOp16
 70
     1
102
RTVSPropertyOp17
 70
     1
102
RTVSPropertyOp18
 70
     1
102
RTVSPropertyOp19
 70
     1
102
RTVSPropertyOp20
 70
     1
102
RTVSPropertyOp21
 70
     1
102
RTVSPropertyOp22
 70
     1
102
RTVSPropertyOp23
 70
     1
102
RTVSPropertyOp24
 70
     1
102
RTVSPropertyOp25
 70
     1
102
RTVSPropertyOp26
 70
     1
102
RTVSPropertyOp27
 70
     1
102
RTVSPropertyOp28
 70
     1
102
RTVSPropertyOp29
 70
     1
102
RTVSPropertyOp30
 70
     1
102
RTVSPropertyOp31
 70
     1
102
RTVSPropertyOp32
 70
     1
  0
XRECORD
  5
AB7
102
{ACAD_REACTORS
330
AB6
102
}
330
AB6
100
AcDbXrecord
280
     1
102
RTVSPropertyOp0
 70
     1
102
RTVSPropertyOp1
 70
     1
102
RTVSPropertyOp2
 70
     1
102
RTVSPropertyOp3
 70
     1
102
RTVSPropertyOp4
 70
     1
102
RTVSPropertyOp5
 70
     1
102
RTVSPropertyOp6
 70
     1
102
RTVSPropertyOp7
 70
     1
102
RTVSPropertyOp8
 70
     1
102
RTVSPropertyOp9
 70
     1
102
RTVSPropertyOp10
 70
     1
102
RTVSPropertyOp11
 70
     1
102
RTVSPropertyOp12
 70
     1
102
RTVSPropertyOp13
 70
     1
102
RTVSPropertyOp14
 70
     1
102
RTVSPropertyOp15
 70
     1
102
RTVSPropertyOp16
 70
     1
102
RTVSPropertyOp17
 70
     1
102
RTVSPropertyOp18
 70
     1
102
RTVSPropertyOp19
 70
     1
102
RTVSPropertyOp20
 70
     1
102
RTVSPropertyOp21
 70
     1
102
RTVSPropertyOp22
 70
     1
102
RTVSPropertyOp23
 70
     1
102
RTVSPropertyOp24
 70
     1
102
RTVSPropertyOp25
 70
     1
102
RTVSPropertyOp26
 70
     1
102
RTVSPropertyOp27
 70
     1
102
RTVSPropertyOp28
 70
     1
102
RTVSPropertyOp29
 70
     1
102
RTVSPropertyOp30
 70
     1
102
RTVSPropertyOp31
 70
     1
102
RTVSPropertyOp32
 70
     1
  0
XRECORD
  5
AAB
102
{ACAD_REACTORS
330
AAA
102
}
330
AAA
100
AcDbXrecord
280
     1
102
RTVSPropertyOp0
 70
     1
102
RTVSPropertyOp1
 70
     1
102
RTVSPropertyOp2
 70
     1
102
RTVSPropertyOp3
 70
     1
102
RTVSPropertyOp4
 70
     1
102
RTVSPropertyOp5
 70
     1
102
RTVSPropertyOp6
 70
     1
102
RTVSPropertyOp7
 70
     1
102
RTVSPropertyOp8
 70
     1
102
RTVSPropertyOp9
 70
     1
102
RTVSPropertyOp10
 70
     1
102
RTVSPropertyOp11
 70
     1
102
RTVSPropertyOp12
 70
     1
102
RTVSPropertyOp13
 70
     1
102
RTVSPropertyOp14
 70
     1
102
RTVSPropertyOp15
 70
     1
102
RTVSPropertyOp16
 70
     1
102
RTVSPropertyOp17
 70
     1
102
RTVSPropertyOp18
 70
     1
102
RTVSPropertyOp19
 70
     1
102
RTVSPropertyOp20
 70
     1
102
RTVSPropertyOp21
 70
     1
102
RTVSPropertyOp22
 70
     1
102
RTVSPropertyOp23
 70
     1
102
RTVSPropertyOp24
 70
     1
102
RTVSPropertyOp25
 70
     1
102
RTVSPropertyOp26
 70
     1
102
RTVSPropertyOp27
 70
     1
102
RTVSPropertyOp28
 70
     1
102
RTVSPropertyOp29
 70
     1
102
RTVSPropertyOp30
 70
     1
102
RTVSPropertyOp31
 70
     1
102
RTVSPropertyOp32
 70
     1
  0
XRECORD
  5
AC3
102
{ACAD_REACTORS
330
AC2
102
}
330
AC2
100
AcDbXrecord
280
     1
102
RTVSPropertyOp0
 70
     1
102
RTVSPropertyOp1
 70
     1
102
RTVSPropertyOp2
 70
     1
102
RTVSPropertyOp3
 70
     1
102
RTVSPropertyOp4
 70
     1
102
RTVSPropertyOp5
 70
     1
102
RTVSPropertyOp6
 70
     1
102
RTVSPropertyOp7
 70
     1
102
RTVSPropertyOp8
 70
     1
102
RTVSPropertyOp9
 70
     1
102
RTVSPropertyOp10
 70
     1
102
RTVSPropertyOp11
 70
     1
102
RTVSPropertyOp12
 70
     1
102
RTVSPropertyOp13
 70
     1
102
RTVSPropertyOp14
 70
     1
102
RTVSPropertyOp15
 70
     1
102
RTVSPropertyOp16
 70
     1
102
RTVSPropertyOp17
 70
     1
102
RTVSPropertyOp18
 70
     1
102
RTVSPropertyOp19
 70
     1
102
RTVSPropertyOp20
 70
     1
102
RTVSPropertyOp21
 70
     1
102
RTVSPropertyOp22
 70
     1
102
RTVSPropertyOp23
 70
     1
102
RTVSPropertyOp24
 70
     1
102
RTVSPropertyOp25
 70
     1
102
RTVSPropertyOp26
 70
     1
102
RTVSPropertyOp27
 70
     1
102
RTVSPropertyOp28
 70
     1
102
RTVSPropertyOp29
 70
     1
102
RTVSPropertyOp30
 70
     1
102
RTVSPropertyOp31
 70
     1
102
RTVSPropertyOp32
 70
     1
  0
ENDSEC
  0
EOF
